osu file format v13

[General]
AudioFilename: Frozen World.mp3
AudioLeadIn: 0
PreviewTime: 171651
Countdown: 1
SampleSet: Normal
StackLeniency: 0.2
Mode: 1
LetterboxInBreaks: 1
WidescreenStoryboard: 1

[Editor]
DistanceSpacing: 1
BeatDivisor: 4
GridSize: 16
TimelineZoom: 1

[Metadata]
Title:Frozen World
TitleUnicode:Frozen World
Artist:MuryokuP
ArtistUnicode:無力P
Creator:strave9742
Version:icicle-onlytaiko
Source:Resonance
Tags:
BeatmapID:538960
BeatmapSetID:232064

[Difficulty]
HPDrainRate:0
CircleSize:4
OverallDifficulty:5
ApproachRate:5
SliderMultiplier:1.5
SliderTickRate:1

[Events]
//Background and Video events
0,0,"frost.png",0,0
//Break Periods
2,41566,52166
2,120423,132737
2,158138,167023
//Storyboard Layer 0 (Background)
//Storyboard Layer 1 (Fail)
//Storyboard Layer 2 (Pass)
//Storyboard Layer 3 (Foreground)
//Storyboard Sound Samples
//Background Colour Transformations
3,100,77,255,247

[TimingPoints]
224,428.571428571429,4,1,0,100,1,0
82509,-100,4,1,0,100,0,1
106509,-100,4,1,0,100,0,0
185366,-100,4,1,0,100,0,1
208938,-100,4,1,0,100,0,0
209366,-100,4,1,0,100,0,1
233366,-100,4,1,0,100,0,0
294224,666.666666666667,4,1,0,100,1,0
296890,857.142857142857,4,1,0,100,1,0

[Colours]
Combo1 : 0,155,7
Combo2 : 195,195,195

[HitObjects]
256,192,224,5,0,0:0:0:0:
256,192,438,1,0,0:0:0:0:
256,192,652,1,0,0:0:0:0:
256,192,866,1,0,0:0:0:0:
256,192,1081,1,2,0:0:0:0:
256,192,1295,1,0,0:0:0:0:
256,192,1509,1,12,0:0:0:0:
256,192,1724,1,0,0:0:0:0:
256,192,1938,1,0,0:0:0:0:
256,192,2152,1,0,0:0:0:0:
256,192,2366,1,0,0:0:0:0:
256,192,2795,1,0,0:0:0:0:
256,192,3009,1,0,0:0:0:0:
256,192,3224,1,0,0:0:0:0:
256,192,3652,1,0,0:0:0:0:
256,192,3866,1,0,0:0:0:0:
256,192,4080,1,0,0:0:0:0:
256,192,4294,1,0,0:0:0:0:
256,192,4509,1,2,0:0:0:0:
256,192,4723,1,0,0:0:0:0:
256,192,4937,1,12,0:0:0:0:
256,192,5152,1,0,0:0:0:0:
256,192,5366,1,0,0:0:0:0:
256,192,5580,1,0,0:0:0:0:
256,192,5794,1,0,0:0:0:0:
256,192,6223,1,0,0:0:0:0:
256,192,6437,1,0,0:0:0:0:
256,192,6652,1,0,0:0:0:0:
256,192,7081,1,0,0:0:0:0:
256,192,7295,1,0,0:0:0:0:
256,192,7509,1,0,0:0:0:0:
256,192,7723,1,0,0:0:0:0:
256,192,7938,1,2,0:0:0:0:
256,192,8152,1,0,0:0:0:0:
256,192,8366,1,12,0:0:0:0:
256,192,8581,1,0,0:0:0:0:
256,192,8795,1,0,0:0:0:0:
256,192,9009,1,0,0:0:0:0:
256,192,9223,1,0,0:0:0:0:
256,192,9652,1,0,0:0:0:0:
256,192,9866,1,0,0:0:0:0:
256,192,10081,1,0,0:0:0:0:
256,192,10509,1,0,0:0:0:0:
256,192,10723,1,0,0:0:0:0:
256,192,10937,1,0,0:0:0:0:
256,192,11151,1,0,0:0:0:0:
256,192,11366,1,2,0:0:0:0:
256,192,11580,1,0,0:0:0:0:
256,192,11794,1,12,0:0:0:0:
256,192,12009,1,0,0:0:0:0:
256,192,12223,1,0,0:0:0:0:
256,192,12437,1,0,0:0:0:0:
256,192,12651,1,0,0:0:0:0:
256,192,13080,1,0,0:0:0:0:
256,192,13294,1,0,0:0:0:0:
256,192,13509,1,0,0:0:0:0:
256,192,13938,5,4,0:0:0:0:
256,192,14259,1,8,0:0:0:0:
256,192,14366,1,0,0:0:0:0:
256,192,14581,1,0,0:0:0:0:
256,192,14795,1,2,0:0:0:0:
256,192,15009,1,0,0:0:0:0:
256,192,15224,1,0,0:0:0:0:
256,192,15438,1,0,0:0:0:0:
256,192,15545,1,0,0:0:0:0:
256,192,15652,1,4,0:0:0:0:
256,192,15973,1,8,0:0:0:0:
256,192,16080,1,0,0:0:0:0:
256,192,16295,1,0,0:0:0:0:
256,192,16509,1,2,0:0:0:0:
256,192,16723,1,0,0:0:0:0:
256,192,16938,1,0,0:0:0:0:
256,192,17152,1,0,0:0:0:0:
256,192,17259,1,0,0:0:0:0:
256,192,17366,1,4,0:0:0:0:
256,192,17687,1,8,0:0:0:0:
256,192,17794,1,0,0:0:0:0:
256,192,18009,1,0,0:0:0:0:
256,192,18223,1,2,0:0:0:0:
256,192,18437,1,0,0:0:0:0:
256,192,18652,1,0,0:0:0:0:
256,192,18866,1,0,0:0:0:0:
256,192,18973,1,0,0:0:0:0:
256,192,19080,1,4,0:0:0:0:
256,192,19401,1,8,0:0:0:0:
256,192,19508,1,0,0:0:0:0:
256,192,19723,1,0,0:0:0:0:
256,192,19937,1,2,0:0:0:0:
256,192,20151,1,0,0:0:0:0:
256,192,20366,1,0,0:0:0:0:
256,192,20795,5,0,0:0:0:0:
256,192,21009,1,0,0:0:0:0:
256,192,21224,1,0,0:0:0:0:
256,192,21438,1,0,0:0:0:0:
256,192,21652,1,2,0:0:0:0:
256,192,21866,1,0,0:0:0:0:
256,192,22081,1,0,0:0:0:0:
256,192,22295,1,0,0:0:0:0:
256,192,22509,1,0,0:0:0:0:
256,192,22723,1,0,0:0:0:0:
256,192,22938,1,0,0:0:0:0:
256,192,23152,1,0,0:0:0:0:
256,192,23366,1,2,0:0:0:0:
256,192,23580,1,0,0:0:0:0:
256,192,23795,1,0,0:0:0:0:
256,192,24009,1,0,0:0:0:0:
256,192,24224,1,0,0:0:0:0:
256,192,24438,1,0,0:0:0:0:
256,192,24653,1,0,0:0:0:0:
256,192,24867,1,0,0:0:0:0:
256,192,25081,1,2,0:0:0:0:
256,192,25295,1,0,0:0:0:0:
256,192,25510,1,0,0:0:0:0:
256,192,25724,1,0,0:0:0:0:
256,192,25938,1,0,0:0:0:0:
256,192,26152,1,0,0:0:0:0:
256,192,26367,1,0,0:0:0:0:
256,192,26581,1,0,0:0:0:0:
256,192,26795,1,2,0:0:0:0:
256,192,27009,1,0,0:0:0:0:
256,192,27224,1,0,0:0:0:0:
256,192,27438,1,0,0:0:0:0:
256,192,27652,5,4,0:0:0:0:
256,192,27866,1,0,0:0:0:0:
256,192,28080,1,2,0:0:0:0:
256,192,28187,1,0,0:0:0:0:
256,192,28402,1,0,0:0:0:0:
256,192,28723,1,0,0:0:0:0:
256,192,28937,1,2,0:0:0:0:
256,192,29152,1,0,0:0:0:0:
256,192,29366,1,0,0:0:0:0:
256,192,29580,1,0,0:0:0:0:
256,192,29794,1,2,0:0:0:0:
256,192,29901,1,0,0:0:0:0:
256,192,30116,1,0,0:0:0:0:
256,192,30437,1,0,0:0:0:0:
256,192,30651,1,2,0:0:0:0:
256,192,30866,1,0,0:0:0:0:
256,192,31081,1,0,0:0:0:0:
256,192,31295,1,0,0:0:0:0:
256,192,31509,1,2,0:0:0:0:
256,192,31616,1,0,0:0:0:0:
256,192,31831,1,0,0:0:0:0:
256,192,32152,1,0,0:0:0:0:
256,192,32366,1,2,0:0:0:0:
256,192,32581,1,0,0:0:0:0:
256,192,32795,1,0,0:0:0:0:
256,192,33009,1,0,0:0:0:0:
256,192,33223,1,2,0:0:0:0:
256,192,33330,1,0,0:0:0:0:
256,192,33545,1,0,0:0:0:0:
256,192,33866,1,0,0:0:0:0:
256,192,34080,1,2,0:0:0:0:
256,192,34295,1,0,0:0:0:0:
256,192,34509,5,0,0:0:0:0:
256,192,34723,1,0,0:0:0:0:
256,192,34937,1,2,0:0:0:0:
256,192,35044,1,0,0:0:0:0:
256,192,35259,1,0,0:0:0:0:
256,192,35580,1,0,0:0:0:0:
256,192,35794,1,2,0:0:0:0:
256,192,36009,1,0,0:0:0:0:
256,192,36224,1,0,0:0:0:0:
256,192,36438,1,0,0:0:0:0:
256,192,36652,1,2,0:0:0:0:
256,192,36759,1,0,0:0:0:0:
256,192,36974,1,0,0:0:0:0:
256,192,37295,1,0,0:0:0:0:
256,192,37509,1,2,0:0:0:0:
256,192,37724,1,0,0:0:0:0:
256,192,37938,1,0,0:0:0:0:
256,192,38152,1,0,0:0:0:0:
256,192,38366,1,2,0:0:0:0:
256,192,38473,1,0,0:0:0:0:
256,192,38688,1,0,0:0:0:0:
256,192,39009,1,0,0:0:0:0:
256,192,39223,1,2,0:0:0:0:
256,192,39438,1,0,0:0:0:0:
256,192,39652,12,0,41366,0:0:0:0:
256,192,53366,12,0,54652,0:0:0:0:
256,192,55081,5,4,0:0:0:0:
256,192,55295,1,0,0:0:0:0:
256,192,55509,1,2,0:0:0:0:
256,192,55616,1,0,0:0:0:0:
256,192,55831,1,0,0:0:0:0:
256,192,56152,1,0,0:0:0:0:
256,192,56366,1,2,0:0:0:0:
256,192,56581,1,0,0:0:0:0:
256,192,56795,1,0,0:0:0:0:
256,192,57009,1,0,0:0:0:0:
256,192,57223,1,2,0:0:0:0:
256,192,57331,1,0,0:0:0:0:
256,192,57545,1,0,0:0:0:0:
256,192,57866,1,0,0:0:0:0:
256,192,58080,1,2,0:0:0:0:
256,192,58295,1,0,0:0:0:0:
256,192,58509,1,0,0:0:0:0:
256,192,58723,1,0,0:0:0:0:
256,192,58938,1,2,0:0:0:0:
256,192,59044,1,0,0:0:0:0:
256,192,59259,1,0,0:0:0:0:
256,192,59580,1,0,0:0:0:0:
256,192,59794,1,2,0:0:0:0:
256,192,60009,1,0,0:0:0:0:
256,192,60223,1,0,0:0:0:0:
256,192,60437,1,0,0:0:0:0:
256,192,60651,1,2,0:0:0:0:
256,192,60758,1,0,0:0:0:0:
256,192,60973,1,0,0:0:0:0:
256,192,61294,1,0,0:0:0:0:
256,192,61508,1,2,0:0:0:0:
256,192,61723,1,0,0:0:0:0:
256,192,61938,1,0,0:0:0:0:
256,192,62152,1,0,0:0:0:0:
256,192,62366,1,2,0:0:0:0:
256,192,62473,1,0,0:0:0:0:
256,192,62688,1,0,0:0:0:0:
256,192,63009,1,0,0:0:0:0:
256,192,63223,1,2,0:0:0:0:
256,192,63438,1,0,0:0:0:0:
256,192,63652,1,0,0:0:0:0:
256,192,63866,1,0,0:0:0:0:
256,192,64080,1,2,0:0:0:0:
256,192,64187,1,0,0:0:0:0:
256,192,64402,1,0,0:0:0:0:
256,192,64723,1,0,0:0:0:0:
256,192,64937,1,2,0:0:0:0:
256,192,65152,1,0,0:0:0:0:
256,192,65366,1,0,0:0:0:0:
256,192,65581,1,0,0:0:0:0:
256,192,65795,1,8,0:0:0:0:
256,192,65902,1,0,0:0:0:0:
256,192,66009,1,0,0:0:0:0:
256,192,66224,1,0,0:0:0:0:
256,192,66438,1,0,0:0:0:0:
256,192,66652,1,8,0:0:0:0:
256,192,66759,1,0,0:0:0:0:
256,192,66866,1,0,0:0:0:0:
256,192,67081,1,0,0:0:0:0:
256,192,67188,1,0,0:0:0:0:
256,192,67295,1,0,0:0:0:0:
256,192,67402,1,0,0:0:0:0:
256,192,67509,1,8,0:0:0:0:
256,192,67724,1,2,0:0:0:0:
256,192,67831,1,0,0:0:0:0:
256,192,68045,1,2,0:0:0:0:
256,192,68152,1,0,0:0:0:0:
256,192,68366,2,0,L|176:192,1,75
256,192,68795,5,4,0:0:0:0:
256,192,69009,1,0,0:0:0:0:
256,192,69224,1,2,0:0:0:0:
256,192,69331,1,0,0:0:0:0:
256,192,69545,1,0,0:0:0:0:
256,192,69652,1,8,0:0:0:0:
256,192,69866,1,0,0:0:0:0:
256,192,69974,1,0,0:0:0:0:
256,192,70081,1,8,0:0:0:0:
256,192,70295,1,0,0:0:0:0:
256,192,70402,1,0,0:0:0:0:
256,192,70509,1,8,0:0:0:0:
256,192,70724,1,0,0:0:0:0:
256,192,70831,1,0,0:0:0:0:
256,192,70938,1,8,0:0:0:0:
256,192,71152,1,0,0:0:0:0:
256,192,71259,1,0,0:0:0:0:
256,192,71474,1,8,0:0:0:0:
256,192,71688,1,12,0:0:0:0:
256,192,72009,1,0,0:0:0:0:
256,192,72116,1,0,0:0:0:0:
256,192,72224,1,8,0:0:0:0:
256,192,72438,1,0,0:0:0:0:
256,192,72545,1,0,0:0:0:0:
256,192,72652,1,8,0:0:0:0:
256,192,72866,1,0,0:0:0:0:
256,192,72974,1,0,0:0:0:0:
256,192,73081,1,8,0:0:0:0:
256,192,73295,1,0,0:0:0:0:
256,192,73402,1,2,0:0:0:0:
256,192,73724,1,0,0:0:0:0:
256,192,73831,1,0,0:0:0:0:
256,192,73938,1,8,0:0:0:0:
256,192,74045,1,0,0:0:0:0:
256,192,74152,1,0,0:0:0:0:
256,192,74366,1,8,0:0:0:0:
256,192,74474,1,0,0:0:0:0:
256,192,74688,1,0,0:0:0:0:
256,192,74902,1,8,0:0:0:0:
256,192,75116,1,12,0:0:0:0:
256,192,75652,1,8,0:0:0:0:
256,192,75759,1,0,0:0:0:0:
256,192,75866,1,2,0:0:0:0:
256,192,75974,1,0,0:0:0:0:
256,192,76081,1,8,0:0:0:0:
256,192,76295,1,0,0:0:0:0:
256,192,76402,1,0,0:0:0:0:
256,192,76616,1,0,0:0:0:0:
256,192,76831,1,8,0:0:0:0:
256,192,76938,1,0,0:0:0:0:
256,192,77045,1,2,0:0:0:0:
256,192,77152,1,0,0:0:0:0:
256,192,77259,1,0,0:0:0:0:
256,192,77366,1,4,0:0:0:0:
256,192,77581,1,0,0:0:0:0:
256,192,77688,1,0,0:0:0:0:
256,192,77795,1,8,0:0:0:0:
256,192,78009,1,0,0:0:0:0:
256,192,78116,1,8,0:0:0:0:
256,192,78331,1,0,0:0:0:0:
256,192,78438,1,0,0:0:0:0:
256,192,78545,1,8,0:0:0:0:
256,192,78759,1,0,0:0:0:0:
256,192,78867,1,8,0:0:0:0:
256,192,78974,1,0,0:0:0:0:
256,192,79081,1,2,0:0:0:0:
256,192,79295,1,0,0:0:0:0:
256,192,79402,1,0,0:0:0:0:
256,192,79509,1,8,0:0:0:0:
256,192,79724,1,0,0:0:0:0:
256,192,79831,1,0,0:0:0:0:
256,192,80045,1,0,0:0:0:0:
256,192,80152,1,0,0:0:0:0:
256,192,80366,1,8,0:0:0:0:
256,192,80474,1,0,0:0:0:0:
256,192,80581,1,2,0:0:0:0:
256,192,80688,1,0,0:0:0:0:
256,192,80795,2,0,L|176:192,2,75,0|0|0,0:0|0:0|0:0,0:0:0:0:
256,192,81438,1,0,0:0:0:0:
256,192,81652,1,12,0:0:0:0:
256,192,81974,1,12,0:0:0:0:
256,192,82295,1,14,0:0:0:0:
256,192,82509,5,4,0:0:0:0:
256,192,82724,1,0,0:0:0:0:
256,192,82938,1,8,0:0:0:0:
256,192,83045,1,0,0:0:0:0:
256,192,83259,1,2,0:0:0:0:
256,192,83474,1,0,0:0:0:0:
256,192,83581,1,0,0:0:0:0:
256,192,83795,1,8,0:0:0:0:
256,192,84009,1,2,0:0:0:0:
256,192,84116,1,0,0:0:0:0:
256,192,84438,1,8,0:0:0:0:
256,192,84652,1,0,0:0:0:0:
256,192,84759,1,0,0:0:0:0:
256,192,84974,1,0,0:0:0:0:
256,192,85081,1,2,0:0:0:0:
256,192,85295,1,0,0:0:0:0:
256,192,85402,1,0,0:0:0:0:
256,192,85509,1,8,0:0:0:0:
256,192,85724,1,0,0:0:0:0:
256,192,85831,1,0,0:0:0:0:
256,192,85938,1,12,0:0:0:0:
256,192,86152,1,0,0:0:0:0:
256,192,86366,1,8,0:0:0:0:
256,192,86581,1,0,0:0:0:0:
256,192,86795,1,2,0:0:0:0:
256,192,87009,1,0,0:0:0:0:
256,192,87116,1,8,0:0:0:0:
256,192,87438,1,0,0:0:0:0:
256,192,87652,1,0,0:0:0:0:
256,192,87759,1,0,0:0:0:0:
256,192,87866,1,8,0:0:0:0:
256,192,88081,1,2,0:0:0:0:
256,192,88188,1,0,0:0:0:0:
256,192,88402,1,0,0:0:0:0:
256,192,88509,1,8,0:0:0:0:
256,192,88724,1,2,0:0:0:0:
256,192,88831,1,0,0:0:0:0:
256,192,88938,1,0,0:0:0:0:
256,192,89152,1,8,0:0:0:0:
256,192,89259,1,0,0:0:0:0:
256,192,89366,1,4,0:0:0:0:
256,192,89581,1,0,0:0:0:0:
256,192,89795,1,8,0:0:0:0:
256,192,89902,1,0,0:0:0:0:
256,192,90116,1,2,0:0:0:0:
256,192,90331,1,0,0:0:0:0:
256,192,90438,1,0,0:0:0:0:
256,192,90652,1,8,0:0:0:0:
256,192,90866,1,2,0:0:0:0:
256,192,90973,1,6,0:0:0:0:
256,192,91188,1,2,0:0:0:0:
256,192,91402,1,0,0:0:0:0:
256,192,91509,1,8,0:0:0:0:
256,192,91616,1,0,0:0:0:0:
256,192,91724,1,2,0:0:0:0:
256,192,91831,1,0,0:0:0:0:
256,192,91938,1,2,0:0:0:0:
256,192,92152,1,0,0:0:0:0:
256,192,92259,1,0,0:0:0:0:
256,192,92366,1,8,0:0:0:0:
256,192,92581,1,0,0:0:0:0:
256,192,92688,1,0,0:0:0:0:
256,192,92795,1,4,0:0:0:0:
256,192,93009,1,0,0:0:0:0:
256,192,93116,1,0,0:0:0:0:
256,192,93224,1,8,0:0:0:0:
256,192,93331,1,0,0:0:0:0:
256,192,93545,1,2,0:0:0:0:
256,192,93759,1,0,0:0:0:0:
256,192,93974,1,0,0:0:0:0:
256,192,94081,1,8,0:0:0:0:
256,192,94509,1,8,0:0:0:0:
256,192,94616,1,0,0:0:0:0:
256,192,94724,1,2,0:0:0:0:
256,192,94831,1,0,0:0:0:0:
256,192,94938,1,8,0:0:0:0:
256,192,95152,1,0,0:0:0:0:
256,192,95259,1,8,0:0:0:0:
256,192,95474,1,0,0:0:0:0:
256,192,95581,1,8,0:0:0:0:
256,192,95795,1,8,0:0:0:0:
256,192,95902,1,0,0:0:0:0:
256,192,96009,1,2,0:0:0:0:
256,192,96116,1,0,0:0:0:0:
256,192,96224,1,4,0:0:0:0:
256,192,96439,1,0,0:0:0:0:
256,192,96653,1,8,0:0:0:0:
256,192,96760,1,0,0:0:0:0:
256,192,96974,1,2,0:0:0:0:
256,192,97189,1,0,0:0:0:0:
256,192,97296,1,0,0:0:0:0:
256,192,97510,1,8,0:0:0:0:
256,192,97724,1,2,0:0:0:0:
256,192,97831,1,0,0:0:0:0:
256,192,98153,1,8,0:0:0:0:
256,192,98367,1,0,0:0:0:0:
256,192,98474,1,0,0:0:0:0:
256,192,98689,1,0,0:0:0:0:
256,192,98796,1,2,0:0:0:0:
256,192,99010,1,0,0:0:0:0:
256,192,99117,1,0,0:0:0:0:
256,192,99224,1,8,0:0:0:0:
256,192,99439,1,0,0:0:0:0:
256,192,99546,1,0,0:0:0:0:
256,192,99653,1,6,0:0:0:0:
256,192,99866,1,8,0:0:0:0:
256,192,99974,1,0,0:0:0:0:
256,192,100081,1,2,0:0:0:0:
256,192,100188,1,0,0:0:0:0:
256,192,100295,1,8,0:0:0:0:
256,192,100402,1,0,0:0:0:0:
256,192,100509,1,6,0:0:0:0:
256,192,100724,1,0,0:0:0:0:
256,192,100831,1,2,0:0:0:0:
256,192,101045,1,0,0:0:0:0:
256,192,101366,1,2,0:0:0:0:
256,192,101474,1,0,0:0:0:0:
256,192,101581,1,8,0:0:0:0:
256,192,101688,1,0,0:0:0:0:
256,192,101795,1,2,0:0:0:0:
256,192,102009,1,0,0:0:0:0:
256,192,102116,1,0,0:0:0:0:
256,192,102224,1,2,0:0:0:0:
256,192,102545,1,8,0:0:0:0:
256,192,102866,1,12,0:0:0:0:
256,192,103081,1,4,0:0:0:0:
256,192,103724,1,2,0:0:0:0:
256,192,104366,1,2,0:0:0:0:
256,192,104795,1,8,0:0:0:0:
256,192,105116,1,0,0:0:0:0:
256,192,105438,1,0,0:0:0:0:
256,192,105652,1,0,0:0:0:0:
256,192,106080,1,0,0:0:0:0:
256,192,106509,12,0,107795,0:0:0:0:
256,192,108009,5,0,0:0:0:0:
256,192,108223,1,0,0:0:0:0:
256,192,108437,1,2,0:0:0:0:
256,192,108544,1,0,0:0:0:0:
256,192,108866,1,0,0:0:0:0:
256,192,109080,1,0,0:0:0:0:
256,192,109509,1,8,0:0:0:0:
256,192,109616,1,0,0:0:0:0:
256,192,109723,1,2,0:0:0:0:
256,192,109830,1,0,0:0:0:0:
256,192,109937,1,0,0:0:0:0:
256,192,110366,1,2,0:0:0:0:
256,192,110509,1,2,0:0:0:0:
256,192,110651,1,2,0:0:0:0:
256,192,110794,1,0,0:0:0:0:
256,192,111009,1,0,0:0:0:0:
256,192,111223,1,8,0:0:0:0:
256,192,111437,1,2,0:0:0:0:
256,192,111544,1,0,0:0:0:0:
256,192,111651,1,0,0:0:0:0:
256,192,111759,1,0,0:0:0:0:
256,192,111866,1,8,0:0:0:0:
256,192,112080,1,0,0:0:0:0:
256,192,112187,1,0,0:0:0:0:
256,192,112294,1,8,0:0:0:0:
256,192,112509,1,0,0:0:0:0:
256,192,112937,1,2,0:0:0:0:
256,192,113151,1,0,0:0:0:0:
256,192,113366,12,0,114652,0:0:0:0:
256,192,114866,5,0,0:0:0:0:
256,192,115080,1,8,0:0:0:0:
256,192,115187,1,0,0:0:0:0:
256,192,115294,1,2,0:0:0:0:
256,192,115401,1,0,0:0:0:0:
256,192,115509,1,8,0:0:0:0:
256,192,115723,1,0,0:0:0:0:
256,192,115937,1,0,0:0:0:0:
256,192,116366,1,8,0:0:0:0:
256,192,116580,1,2,0:0:0:0:
256,192,116687,1,0,0:0:0:0:
256,192,116795,1,0,0:0:0:0:
256,192,117009,1,0,0:0:0:0:
256,192,117116,1,0,0:0:0:0:
256,192,117331,1,0,0:0:0:0:
256,192,117437,1,0,0:0:0:0:
256,192,117651,1,8,0:0:0:0:
256,192,117794,1,0,0:0:0:0:
256,192,117937,1,0,0:0:0:0:
256,192,118080,1,8,0:0:0:0:
256,192,118187,1,0,0:0:0:0:
256,192,118294,1,2,0:0:0:0:
256,192,118401,1,0,0:0:0:0:
256,192,118509,1,0,0:0:0:0:
256,192,118723,1,2,0:0:0:0:
256,192,118830,1,0,0:0:0:0:
256,192,118937,1,0,0:0:0:0:
256,192,119044,1,0,0:0:0:0:
256,192,119151,1,8,0:0:0:0:
256,192,119366,1,2,0:0:0:0:
256,192,119473,1,0,0:0:0:0:
256,192,119580,1,0,0:0:0:0:
256,192,119794,1,8,0:0:0:0:
256,192,119901,1,0,0:0:0:0:
256,192,120009,1,2,0:0:0:0:
256,192,120223,1,4,0:0:0:0:
256,192,133937,5,4,0:0:0:0:
256,192,134258,1,8,0:0:0:0:
256,192,134365,1,0,0:0:0:0:
256,192,134580,1,0,0:0:0:0:
256,192,134794,1,2,0:0:0:0:
256,192,135008,1,0,0:0:0:0:
256,192,135223,1,0,0:0:0:0:
256,192,135437,1,0,0:0:0:0:
256,192,135544,1,0,0:0:0:0:
256,192,135651,1,4,0:0:0:0:
256,192,135972,1,8,0:0:0:0:
256,192,136079,1,0,0:0:0:0:
256,192,136294,1,0,0:0:0:0:
256,192,136508,1,2,0:0:0:0:
256,192,136722,1,0,0:0:0:0:
256,192,136937,1,0,0:0:0:0:
256,192,137151,1,0,0:0:0:0:
256,192,137258,1,0,0:0:0:0:
256,192,137365,1,4,0:0:0:0:
256,192,137686,1,8,0:0:0:0:
256,192,137793,1,0,0:0:0:0:
256,192,138008,1,0,0:0:0:0:
256,192,138222,1,2,0:0:0:0:
256,192,138436,1,0,0:0:0:0:
256,192,138651,1,0,0:0:0:0:
256,192,138865,1,0,0:0:0:0:
256,192,138972,1,0,0:0:0:0:
256,192,139079,1,4,0:0:0:0:
256,192,139400,1,8,0:0:0:0:
256,192,139507,1,0,0:0:0:0:
256,192,139722,1,0,0:0:0:0:
256,192,139936,1,2,0:0:0:0:
256,192,140150,1,0,0:0:0:0:
256,192,140365,1,0,0:0:0:0:
256,192,140794,1,4,0:0:0:0:
256,192,141115,1,8,0:0:0:0:
256,192,141222,1,0,0:0:0:0:
256,192,141437,1,0,0:0:0:0:
256,192,141651,1,2,0:0:0:0:
256,192,141865,1,0,0:0:0:0:
256,192,142080,1,0,0:0:0:0:
256,192,142294,1,0,0:0:0:0:
256,192,142401,1,0,0:0:0:0:
256,192,142508,1,4,0:0:0:0:
256,192,142829,1,8,0:0:0:0:
256,192,142936,1,0,0:0:0:0:
256,192,143151,1,0,0:0:0:0:
256,192,143365,1,2,0:0:0:0:
256,192,143579,1,0,0:0:0:0:
256,192,143794,1,0,0:0:0:0:
256,192,144008,1,0,0:0:0:0:
256,192,144115,1,0,0:0:0:0:
256,192,144222,1,4,0:0:0:0:
256,192,144543,1,8,0:0:0:0:
256,192,144650,1,0,0:0:0:0:
256,192,144865,1,0,0:0:0:0:
256,192,145079,1,2,0:0:0:0:
256,192,145293,1,0,0:0:0:0:
256,192,145508,1,0,0:0:0:0:
256,192,145722,1,0,0:0:0:0:
256,192,145829,1,0,0:0:0:0:
256,192,145936,1,4,0:0:0:0:
256,192,146257,1,8,0:0:0:0:
256,192,146364,1,0,0:0:0:0:
256,192,146579,1,0,0:0:0:0:
256,192,146793,1,2,0:0:0:0:
256,192,147007,1,0,0:0:0:0:
256,192,147222,1,0,0:0:0:0:
256,192,147437,1,8,0:0:0:0:
256,192,147651,1,4,0:0:0:0:
256,192,147865,1,0,0:0:0:0:
256,192,148079,1,2,0:0:0:0:
256,192,148186,1,0,0:0:0:0:
256,192,148401,1,0,0:0:0:0:
256,192,148722,1,0,0:0:0:0:
256,192,148936,1,2,0:0:0:0:
256,192,149151,1,0,0:0:0:0:
256,192,149365,1,4,0:0:0:0:
256,192,149579,1,0,0:0:0:0:
256,192,149793,1,2,0:0:0:0:
256,192,149900,1,0,0:0:0:0:
256,192,150115,1,0,0:0:0:0:
256,192,150436,1,0,0:0:0:0:
256,192,150650,1,2,0:0:0:0:
256,192,150865,1,0,0:0:0:0:
256,192,151080,1,4,0:0:0:0:
256,192,151294,1,0,0:0:0:0:
256,192,151508,1,2,0:0:0:0:
256,192,151615,1,0,0:0:0:0:
256,192,151830,1,0,0:0:0:0:
256,192,152151,1,0,0:0:0:0:
256,192,152365,1,2,0:0:0:0:
256,192,152580,1,0,0:0:0:0:
256,192,152794,1,4,0:0:0:0:
256,192,153008,1,0,0:0:0:0:
256,192,153222,1,2,0:0:0:0:
256,192,153329,1,0,0:0:0:0:
256,192,153544,1,0,0:0:0:0:
256,192,153865,1,0,0:0:0:0:
256,192,154079,1,2,0:0:0:0:
256,192,154294,1,0,0:0:0:0:
256,192,154509,1,4,0:0:0:0:
256,192,154723,1,0,0:0:0:0:
256,192,154937,1,2,0:0:0:0:
256,192,155044,1,0,0:0:0:0:
256,192,155259,1,0,0:0:0:0:
256,192,155580,1,0,0:0:0:0:
256,192,155794,1,2,0:0:0:0:
256,192,156009,1,0,0:0:0:0:
256,192,156223,1,4,0:0:0:0:
256,192,156437,1,0,0:0:0:0:
256,192,156651,1,2,0:0:0:0:
256,192,156758,1,0,0:0:0:0:
256,192,156973,1,0,0:0:0:0:
256,192,157294,1,0,0:0:0:0:
256,192,157508,1,2,0:0:0:0:
256,192,157723,1,0,0:0:0:0:
256,192,157938,1,6,0:0:0:0:
256,192,168223,12,0,171223,0:0:0:0:
256,192,171651,5,4,0:0:0:0:
256,192,171865,1,0,0:0:0:0:
256,192,172080,1,2,0:0:0:0:
256,192,172187,1,0,0:0:0:0:
256,192,172401,1,0,0:0:0:0:
256,192,172508,1,8,0:0:0:0:
256,192,172722,1,0,0:0:0:0:
256,192,172830,1,0,0:0:0:0:
256,192,172937,1,8,0:0:0:0:
256,192,173151,1,0,0:0:0:0:
256,192,173258,1,0,0:0:0:0:
256,192,173365,1,8,0:0:0:0:
256,192,173580,1,0,0:0:0:0:
256,192,173687,1,0,0:0:0:0:
256,192,173794,1,8,0:0:0:0:
256,192,174008,1,0,0:0:0:0:
256,192,174115,1,0,0:0:0:0:
256,192,174330,1,8,0:0:0:0:
256,192,174544,1,12,0:0:0:0:
256,192,174865,1,0,0:0:0:0:
256,192,174972,1,0,0:0:0:0:
256,192,175080,1,8,0:0:0:0:
256,192,175294,1,0,0:0:0:0:
256,192,175401,1,0,0:0:0:0:
256,192,175508,1,8,0:0:0:0:
256,192,175722,1,0,0:0:0:0:
256,192,175830,1,0,0:0:0:0:
256,192,175937,1,8,0:0:0:0:
256,192,176151,1,0,0:0:0:0:
256,192,176258,1,2,0:0:0:0:
256,192,176580,1,0,0:0:0:0:
256,192,176687,1,0,0:0:0:0:
256,192,176794,1,8,0:0:0:0:
256,192,176901,1,0,0:0:0:0:
256,192,177008,1,0,0:0:0:0:
256,192,177222,1,8,0:0:0:0:
256,192,177330,1,0,0:0:0:0:
256,192,177544,1,0,0:0:0:0:
256,192,177758,1,8,0:0:0:0:
256,192,177972,1,12,0:0:0:0:
256,192,178508,1,8,0:0:0:0:
256,192,178615,1,0,0:0:0:0:
256,192,178722,1,2,0:0:0:0:
256,192,178830,1,0,0:0:0:0:
256,192,178937,1,8,0:0:0:0:
256,192,179152,1,0,0:0:0:0:
256,192,179258,1,0,0:0:0:0:
256,192,179472,1,0,0:0:0:0:
256,192,179687,1,8,0:0:0:0:
256,192,179794,1,0,0:0:0:0:
256,192,179901,1,2,0:0:0:0:
256,192,180008,1,0,0:0:0:0:
256,192,180115,1,0,0:0:0:0:
256,192,180222,1,4,0:0:0:0:
256,192,180437,1,0,0:0:0:0:
256,192,180544,1,0,0:0:0:0:
256,192,180651,1,8,0:0:0:0:
256,192,180865,1,0,0:0:0:0:
256,192,180972,1,8,0:0:0:0:
256,192,181187,1,0,0:0:0:0:
256,192,181294,1,0,0:0:0:0:
256,192,181401,1,8,0:0:0:0:
256,192,181615,1,0,0:0:0:0:
256,192,181723,1,8,0:0:0:0:
256,192,181830,1,0,0:0:0:0:
256,192,181937,1,2,0:0:0:0:
256,192,182151,1,0,0:0:0:0:
256,192,182258,1,0,0:0:0:0:
256,192,182365,1,8,0:0:0:0:
256,192,182580,1,0,0:0:0:0:
256,192,182687,1,0,0:0:0:0:
256,192,182901,1,0,0:0:0:0:
256,192,183008,1,0,0:0:0:0:
256,192,183222,1,8,0:0:0:0:
256,192,183330,1,0,0:0:0:0:
256,192,183437,1,2,0:0:0:0:
256,192,183544,1,0,0:0:0:0:
256,192,183651,2,0,L|176:192,2,75,0|0|0,0:0|0:0|0:0,0:0:0:0:
256,192,184294,1,0,0:0:0:0:
256,192,184508,1,12,0:0:0:0:
256,192,184830,1,12,0:0:0:0:
256,192,185151,1,12,0:0:0:0:
256,192,185366,5,4,0:0:0:0:
256,192,185580,1,0,0:0:0:0:
256,192,185794,1,8,0:0:0:0:
256,192,185901,1,0,0:0:0:0:
256,192,186115,1,2,0:0:0:0:
256,192,186330,1,0,0:0:0:0:
256,192,186437,1,0,0:0:0:0:
256,192,186651,1,8,0:0:0:0:
256,192,186865,1,2,0:0:0:0:
256,192,186972,1,0,0:0:0:0:
256,192,187294,1,8,0:0:0:0:
256,192,187508,1,0,0:0:0:0:
256,192,187615,1,0,0:0:0:0:
256,192,187830,1,0,0:0:0:0:
256,192,187937,1,2,0:0:0:0:
256,192,188151,1,0,0:0:0:0:
256,192,188258,1,0,0:0:0:0:
256,192,188365,1,8,0:0:0:0:
256,192,188580,1,0,0:0:0:0:
256,192,188687,1,0,0:0:0:0:
256,192,188794,1,12,0:0:0:0:
256,192,189008,1,0,0:0:0:0:
256,192,189222,1,8,0:0:0:0:
256,192,189437,1,0,0:0:0:0:
256,192,189651,1,2,0:0:0:0:
256,192,189865,1,0,0:0:0:0:
256,192,189972,1,8,0:0:0:0:
256,192,190294,1,0,0:0:0:0:
256,192,190508,1,0,0:0:0:0:
256,192,190615,1,0,0:0:0:0:
256,192,190722,1,8,0:0:0:0:
256,192,190937,1,2,0:0:0:0:
256,192,191044,1,0,0:0:0:0:
256,192,191258,1,0,0:0:0:0:
256,192,191365,1,8,0:0:0:0:
256,192,191580,1,2,0:0:0:0:
256,192,191687,1,0,0:0:0:0:
256,192,191794,1,0,0:0:0:0:
256,192,192008,1,8,0:0:0:0:
256,192,192115,1,0,0:0:0:0:
256,192,192222,1,4,0:0:0:0:
256,192,192437,1,0,0:0:0:0:
256,192,192651,1,8,0:0:0:0:
256,192,192758,1,0,0:0:0:0:
256,192,192972,1,2,0:0:0:0:
256,192,193187,1,0,0:0:0:0:
256,192,193294,1,0,0:0:0:0:
256,192,193508,1,8,0:0:0:0:
256,192,193722,1,2,0:0:0:0:
256,192,193829,1,6,0:0:0:0:
256,192,194044,1,2,0:0:0:0:
256,192,194258,1,0,0:0:0:0:
256,192,194365,1,8,0:0:0:0:
256,192,194472,1,0,0:0:0:0:
256,192,194580,1,2,0:0:0:0:
256,192,194687,1,0,0:0:0:0:
256,192,194794,1,2,0:0:0:0:
256,192,195008,1,0,0:0:0:0:
256,192,195115,1,0,0:0:0:0:
256,192,195222,1,8,0:0:0:0:
256,192,195437,1,0,0:0:0:0:
256,192,195544,1,0,0:0:0:0:
256,192,195651,1,4,0:0:0:0:
256,192,195865,1,0,0:0:0:0:
256,192,195972,1,0,0:0:0:0:
256,192,196080,1,8,0:0:0:0:
256,192,196187,1,0,0:0:0:0:
256,192,196401,1,2,0:0:0:0:
256,192,196615,1,0,0:0:0:0:
256,192,196830,1,0,0:0:0:0:
256,192,196937,1,8,0:0:0:0:
256,192,197365,1,8,0:0:0:0:
256,192,197472,1,0,0:0:0:0:
256,192,197580,1,2,0:0:0:0:
256,192,197687,1,0,0:0:0:0:
256,192,197794,1,8,0:0:0:0:
256,192,198008,1,0,0:0:0:0:
256,192,198115,1,8,0:0:0:0:
256,192,198330,1,0,0:0:0:0:
256,192,198437,1,8,0:0:0:0:
256,192,198651,1,8,0:0:0:0:
256,192,198758,1,0,0:0:0:0:
256,192,198865,1,2,0:0:0:0:
256,192,198972,1,0,0:0:0:0:
256,192,199080,1,4,0:0:0:0:
256,192,199295,1,0,0:0:0:0:
256,192,199509,1,8,0:0:0:0:
256,192,199616,1,0,0:0:0:0:
256,192,199830,1,2,0:0:0:0:
256,192,200045,1,0,0:0:0:0:
256,192,200152,1,0,0:0:0:0:
256,192,200366,1,8,0:0:0:0:
256,192,200580,1,2,0:0:0:0:
256,192,200687,1,0,0:0:0:0:
256,192,201009,1,8,0:0:0:0:
256,192,201223,1,0,0:0:0:0:
256,192,201330,1,0,0:0:0:0:
256,192,201545,1,0,0:0:0:0:
256,192,201652,1,2,0:0:0:0:
256,192,201866,1,0,0:0:0:0:
256,192,201973,1,0,0:0:0:0:
256,192,202080,1,8,0:0:0:0:
256,192,202295,1,0,0:0:0:0:
256,192,202402,1,0,0:0:0:0:
256,192,202509,1,6,0:0:0:0:
256,192,202722,1,8,0:0:0:0:
256,192,202830,1,0,0:0:0:0:
256,192,202937,1,2,0:0:0:0:
256,192,203044,1,0,0:0:0:0:
256,192,203151,1,8,0:0:0:0:
256,192,203258,1,0,0:0:0:0:
256,192,203365,1,6,0:0:0:0:
256,192,203580,1,0,0:0:0:0:
256,192,203687,1,2,0:0:0:0:
256,192,203901,1,0,0:0:0:0:
256,192,204222,1,2,0:0:0:0:
256,192,204330,1,0,0:0:0:0:
256,192,204437,1,8,0:0:0:0:
256,192,204544,1,0,0:0:0:0:
256,192,204651,1,2,0:0:0:0:
256,192,204865,1,0,0:0:0:0:
256,192,204972,1,0,0:0:0:0:
256,192,205080,1,2,0:0:0:0:
256,192,205401,1,8,0:0:0:0:
256,192,205722,1,12,0:0:0:0:
256,192,205937,1,4,0:0:0:0:
256,192,206580,1,2,0:0:0:0:
256,192,207222,1,2,0:0:0:0:
256,192,207651,1,8,0:0:0:0:
256,192,207972,1,0,0:0:0:0:
256,192,208294,1,0,0:0:0:0:
256,192,208508,1,0,0:0:0:0:
256,192,208938,1,8,0:0:0:0:
256,192,209045,1,0,0:0:0:0:
256,192,209152,1,2,0:0:0:0:
256,192,209259,1,0,0:0:0:0:
256,192,209366,5,4,0:0:0:0:
256,192,209581,1,0,0:0:0:0:
256,192,209795,1,10,0:0:0:0:
256,192,209902,1,0,0:0:0:0:
256,192,210116,1,0,0:0:0:0:
256,192,210331,1,0,0:0:0:0:
256,192,210438,1,0,0:0:0:0:
256,192,210652,1,10,0:0:0:0:
256,192,210866,1,0,0:0:0:0:
256,192,210973,1,0,0:0:0:0:
256,192,211295,1,10,0:0:0:0:
256,192,211509,1,0,0:0:0:0:
256,192,211616,1,0,0:0:0:0:
256,192,211831,1,0,0:0:0:0:
256,192,211938,1,2,0:0:0:0:
256,192,212152,1,0,0:0:0:0:
256,192,212259,1,0,0:0:0:0:
256,192,212366,1,8,0:0:0:0:
256,192,212581,1,0,0:0:0:0:
256,192,212688,1,0,0:0:0:0:
256,192,212795,1,14,0:0:0:0:
256,192,213009,1,0,0:0:0:0:
256,192,213223,1,8,0:0:0:0:
256,192,213438,1,0,0:0:0:0:
256,192,213652,1,2,0:0:0:0:
256,192,213866,1,0,0:0:0:0:
256,192,213973,1,8,0:0:0:0:
256,192,214295,1,0,0:0:0:0:
256,192,214509,1,2,0:0:0:0:
256,192,214616,1,0,0:0:0:0:
256,192,214723,1,8,0:0:0:0:
256,192,214938,1,0,0:0:0:0:
256,192,215045,1,0,0:0:0:0:
256,192,215259,1,0,0:0:0:0:
256,192,215366,1,10,0:0:0:0:
256,192,215581,1,0,0:0:0:0:
256,192,215688,1,0,0:0:0:0:
256,192,215795,1,0,0:0:0:0:
256,192,216009,1,8,0:0:0:0:
256,192,216116,1,0,0:0:0:0:
256,192,216223,1,6,0:0:0:0:
256,192,216438,1,0,0:0:0:0:
256,192,216652,1,10,0:0:0:0:
256,192,216759,1,0,0:0:0:0:
256,192,216973,1,0,0:0:0:0:
256,192,217188,1,0,0:0:0:0:
256,192,217295,1,0,0:0:0:0:
256,192,217509,1,10,0:0:0:0:
256,192,217723,1,0,0:0:0:0:
256,192,217830,1,4,0:0:0:0:
256,192,218045,1,0,0:0:0:0:
256,192,218259,1,0,0:0:0:0:
256,192,218366,1,8,0:0:0:0:
256,192,218473,1,0,0:0:0:0:
256,192,218581,1,0,0:0:0:0:
256,192,218688,1,0,0:0:0:0:
256,192,218795,1,2,0:0:0:0:
256,192,219009,1,0,0:0:0:0:
256,192,219116,1,0,0:0:0:0:
256,192,219223,1,8,0:0:0:0:
256,192,219438,1,0,0:0:0:0:
256,192,219545,1,0,0:0:0:0:
256,192,219652,1,6,0:0:0:0:
256,192,219866,1,0,0:0:0:0:
256,192,219973,1,0,0:0:0:0:
256,192,220081,1,8,0:0:0:0:
256,192,220188,1,0,0:0:0:0:
256,192,220509,1,2,0:0:0:0:
256,192,220616,1,0,0:0:0:0:
256,192,220831,1,0,0:0:0:0:
256,192,220938,1,8,0:0:0:0:
256,192,221366,1,10,0:0:0:0:
256,192,221473,1,0,0:0:0:0:
256,192,221581,1,0,0:0:0:0:
256,192,221688,1,0,0:0:0:0:
256,192,221795,1,8,0:0:0:0:
256,192,222009,1,0,0:0:0:0:
256,192,222116,1,8,0:0:0:0:
256,192,222223,1,2,0:0:0:0:
256,192,222438,1,8,0:0:0:0:
256,192,222652,1,8,0:0:0:0:
256,192,222759,1,0,0:0:0:0:
256,192,222866,1,0,0:0:0:0:
256,192,222973,1,0,0:0:0:0:
256,192,223081,1,6,0:0:0:0:
256,192,223296,1,0,0:0:0:0:
256,192,223510,1,10,0:0:0:0:
256,192,223617,1,0,0:0:0:0:
256,192,223831,1,0,0:0:0:0:
256,192,224046,1,0,0:0:0:0:
256,192,224153,1,0,0:0:0:0:
256,192,224367,1,10,0:0:0:0:
256,192,224581,1,0,0:0:0:0:
256,192,224688,1,0,0:0:0:0:
256,192,225010,1,10,0:0:0:0:
256,192,225224,1,0,0:0:0:0:
256,192,225331,1,0,0:0:0:0:
256,192,225546,1,0,0:0:0:0:
256,192,225653,1,2,0:0:0:0:
256,192,225867,1,0,0:0:0:0:
256,192,225974,1,0,0:0:0:0:
256,192,226081,1,8,0:0:0:0:
256,192,226296,1,0,0:0:0:0:
256,192,226403,1,0,0:0:0:0:
256,192,226510,1,6,0:0:0:0:
256,192,226723,1,8,0:0:0:0:
256,192,226831,1,0,0:0:0:0:
256,192,226938,1,0,0:0:0:0:
256,192,227045,1,0,0:0:0:0:
256,192,227152,1,8,0:0:0:0:
256,192,227259,1,0,0:0:0:0:
256,192,227366,1,6,0:0:0:0:
256,192,227581,1,0,0:0:0:0:
256,192,227688,1,0,0:0:0:0:
256,192,227902,1,0,0:0:0:0:
256,192,228223,1,2,0:0:0:0:
256,192,228331,1,0,0:0:0:0:
256,192,228438,1,8,0:0:0:0:
256,192,228545,1,0,0:0:0:0:
256,192,228651,1,0,0:0:0:0:
256,192,228866,1,0,0:0:0:0:
256,192,228973,1,0,0:0:0:0:
256,192,229081,1,2,0:0:0:0:
256,192,229402,1,8,0:0:0:0:
256,192,229723,1,12,0:0:0:0:
256,192,229937,1,6,0:0:0:0:
256,192,230581,1,4,0:0:0:0:
256,192,231223,1,8,0:0:0:0:
256,192,231652,1,10,0:0:0:0:
256,192,231973,1,0,0:0:0:0:
256,192,232295,1,0,0:0:0:0:
256,192,232509,1,0,0:0:0:0:
256,192,232723,1,8,0:0:0:0:
256,192,232830,1,0,0:0:0:0:
256,192,232937,1,2,0:0:0:0:
256,192,233044,1,0,0:0:0:0:
256,192,233151,1,0,0:0:0:0:
256,192,233259,1,0,0:0:0:0:
256,192,233366,5,4,0:0:0:0:
256,192,233581,1,0,0:0:0:0:
256,192,233795,1,0,0:0:0:0:
256,192,233902,1,0,0:0:0:0:
256,192,234116,1,0,0:0:0:0:
256,192,234224,1,8,0:0:0:0:
256,192,234438,1,0,0:0:0:0:
256,192,234545,1,8,0:0:0:0:
256,192,234759,1,0,0:0:0:0:
256,192,234866,1,8,0:0:0:0:
256,192,235081,1,0,0:0:0:0:
256,192,235296,1,0,0:0:0:0:
256,192,235510,1,0,0:0:0:0:
256,192,235617,1,0,0:0:0:0:
256,192,235831,1,0,0:0:0:0:
256,192,235939,1,8,0:0:0:0:
256,192,236153,1,0,0:0:0:0:
256,192,236260,1,8,0:0:0:0:
256,192,236474,1,0,0:0:0:0:
256,192,236581,1,8,0:0:0:0:
256,192,236795,1,0,0:0:0:0:
256,192,237010,1,0,0:0:0:0:
256,192,237224,1,0,0:0:0:0:
256,192,237331,1,0,0:0:0:0:
256,192,237545,1,0,0:0:0:0:
256,192,237653,1,8,0:0:0:0:
256,192,237867,1,0,0:0:0:0:
256,192,237974,1,8,0:0:0:0:
256,192,238188,1,0,0:0:0:0:
256,192,238295,1,8,0:0:0:0:
256,192,238509,1,0,0:0:0:0:
256,192,238616,1,0,0:0:0:0:
256,192,238724,1,0,0:0:0:0:
256,192,238831,1,0,0:0:0:0:
256,192,238938,1,8,0:0:0:0:
256,192,239152,1,0,0:0:0:0:
256,192,239259,1,8,0:0:0:0:
256,192,239474,1,0,0:0:0:0:
256,192,239581,1,8,0:0:0:0:
256,192,239795,1,0,0:0:0:0:
256,192,239902,1,0,0:0:0:0:
256,192,240009,1,0,0:0:0:0:
256,192,240116,1,0,0:0:0:0:
256,192,240224,1,4,0:0:0:0:
256,192,240439,1,0,0:0:0:0:
256,192,240653,1,0,0:0:0:0:
256,192,240760,1,0,0:0:0:0:
256,192,240974,1,0,0:0:0:0:
256,192,241082,1,8,0:0:0:0:
256,192,241296,1,0,0:0:0:0:
256,192,241403,1,8,0:0:0:0:
256,192,241617,1,0,0:0:0:0:
256,192,241724,1,8,0:0:0:0:
256,192,241939,1,0,0:0:0:0:
256,192,242154,1,0,0:0:0:0:
256,192,242368,1,0,0:0:0:0:
256,192,242475,1,0,0:0:0:0:
256,192,242689,1,0,0:0:0:0:
256,192,242797,1,8,0:0:0:0:
256,192,243011,1,0,0:0:0:0:
256,192,243118,1,8,0:0:0:0:
256,192,243332,1,0,0:0:0:0:
256,192,243439,1,8,0:0:0:0:
256,192,243653,1,0,0:0:0:0:
256,192,243868,1,0,0:0:0:0:
256,192,244082,1,0,0:0:0:0:
256,192,244189,1,0,0:0:0:0:
256,192,244403,1,0,0:0:0:0:
256,192,244511,1,8,0:0:0:0:
256,192,244725,1,0,0:0:0:0:
256,192,244832,1,8,0:0:0:0:
256,192,245046,1,0,0:0:0:0:
256,192,245153,1,8,0:0:0:0:
256,192,245367,1,0,0:0:0:0:
256,192,245474,1,0,0:0:0:0:
256,192,245582,1,0,0:0:0:0:
256,192,245689,1,0,0:0:0:0:
256,192,245796,1,8,0:0:0:0:
256,192,246010,1,0,0:0:0:0:
256,192,246117,1,8,0:0:0:0:
256,192,246332,1,0,0:0:0:0:
256,192,246439,1,8,0:0:0:0:
256,192,246653,1,0,0:0:0:0:
256,192,246760,1,0,0:0:0:0:
256,192,246867,1,0,0:0:0:0:
256,192,246974,1,0,0:0:0:0:
256,192,247081,1,4,0:0:0:0:
256,192,247296,1,0,0:0:0:0:
256,192,247510,1,0,0:0:0:0:
256,192,247617,1,0,0:0:0:0:
256,192,247831,1,0,0:0:0:0:
256,192,247939,1,8,0:0:0:0:
256,192,248153,1,0,0:0:0:0:
256,192,248260,1,8,0:0:0:0:
256,192,248474,1,0,0:0:0:0:
256,192,248581,1,8,0:0:0:0:
256,192,248796,1,0,0:0:0:0:
256,192,249011,1,0,0:0:0:0:
256,192,249225,1,0,0:0:0:0:
256,192,249332,1,0,0:0:0:0:
256,192,249546,1,0,0:0:0:0:
256,192,249654,1,8,0:0:0:0:
256,192,249868,1,0,0:0:0:0:
256,192,249975,1,8,0:0:0:0:
256,192,250189,1,0,0:0:0:0:
256,192,250296,1,8,0:0:0:0:
256,192,250510,1,0,0:0:0:0:
256,192,250725,1,0,0:0:0:0:
256,192,250939,1,0,0:0:0:0:
256,192,251046,1,0,0:0:0:0:
256,192,251260,1,0,0:0:0:0:
256,192,251368,1,8,0:0:0:0:
256,192,251582,1,0,0:0:0:0:
256,192,251689,1,8,0:0:0:0:
256,192,251903,1,0,0:0:0:0:
256,192,252010,1,8,0:0:0:0:
256,192,252224,1,0,0:0:0:0:
256,192,252331,1,0,0:0:0:0:
256,192,252439,1,0,0:0:0:0:
256,192,252546,1,0,0:0:0:0:
256,192,252653,1,8,0:0:0:0:
256,192,252867,1,0,0:0:0:0:
256,192,252974,1,8,0:0:0:0:
256,192,253189,1,0,0:0:0:0:
256,192,253296,1,8,0:0:0:0:
256,192,253510,1,0,0:0:0:0:
256,192,253617,1,0,0:0:0:0:
256,192,253724,1,0,0:0:0:0:
256,192,253831,1,0,0:0:0:0:
256,192,253938,1,4,0:0:0:0:
256,192,254153,1,0,0:0:0:0:
256,192,254367,1,0,0:0:0:0:
256,192,254474,1,0,0:0:0:0:
256,192,254688,1,0,0:0:0:0:
256,192,254796,1,8,0:0:0:0:
256,192,255010,1,0,0:0:0:0:
256,192,255117,1,8,0:0:0:0:
256,192,255331,1,0,0:0:0:0:
256,192,255438,1,8,0:0:0:0:
256,192,255653,1,0,0:0:0:0:
256,192,255868,1,0,0:0:0:0:
256,192,256082,1,0,0:0:0:0:
256,192,256189,1,0,0:0:0:0:
256,192,256403,1,0,0:0:0:0:
256,192,256511,1,8,0:0:0:0:
256,192,256725,1,0,0:0:0:0:
256,192,256832,1,8,0:0:0:0:
256,192,257046,1,0,0:0:0:0:
256,192,257153,1,8,0:0:0:0:
256,192,257367,1,0,0:0:0:0:
256,192,257582,1,0,0:0:0:0:
256,192,257796,1,0,0:0:0:0:
256,192,257903,1,0,0:0:0:0:
256,192,258117,1,0,0:0:0:0:
256,192,258225,1,8,0:0:0:0:
256,192,258439,1,0,0:0:0:0:
256,192,258546,1,8,0:0:0:0:
256,192,258760,1,0,0:0:0:0:
256,192,258867,1,8,0:0:0:0:
256,192,259081,1,0,0:0:0:0:
256,192,259188,1,0,0:0:0:0:
256,192,259296,1,0,0:0:0:0:
256,192,259403,1,0,0:0:0:0:
256,192,259510,1,8,0:0:0:0:
256,192,259724,1,0,0:0:0:0:
256,192,259831,1,8,0:0:0:0:
256,192,260046,1,0,0:0:0:0:
256,192,260153,1,8,0:0:0:0:
256,192,260367,1,0,0:0:0:0:
256,192,260474,1,0,0:0:0:0:
256,192,260581,1,0,0:0:0:0:
256,192,260688,1,0,0:0:0:0:
256,192,260795,5,4,0:0:0:0:
256,192,261009,1,0,0:0:0:0:
256,192,261223,1,2,0:0:0:0:
256,192,261330,1,0,0:0:0:0:
256,192,261545,1,0,0:0:0:0:
256,192,261866,1,0,0:0:0:0:
256,192,262080,1,2,0:0:0:0:
256,192,262295,1,0,0:0:0:0:
256,192,262509,1,0,0:0:0:0:
256,192,262723,1,0,0:0:0:0:
256,192,262937,1,2,0:0:0:0:
256,192,263044,1,0,0:0:0:0:
256,192,263259,1,0,0:0:0:0:
256,192,263580,1,0,0:0:0:0:
256,192,263794,1,2,0:0:0:0:
256,192,264009,1,0,0:0:0:0:
256,192,264224,1,0,0:0:0:0:
256,192,264438,1,0,0:0:0:0:
256,192,264652,1,2,0:0:0:0:
256,192,264759,1,0,0:0:0:0:
256,192,264974,1,0,0:0:0:0:
256,192,265295,1,0,0:0:0:0:
256,192,265509,1,2,0:0:0:0:
256,192,265724,1,0,0:0:0:0:
256,192,265938,1,0,0:0:0:0:
256,192,266045,1,0,0:0:0:0:
256,192,266153,1,0,0:0:0:0:
256,192,266260,1,0,0:0:0:0:
256,192,266367,1,8,0:0:0:0:
256,192,266581,1,0,0:0:0:0:
256,192,266688,1,8,0:0:0:0:
256,192,266903,1,0,0:0:0:0:
256,192,267010,1,8,0:0:0:0:
256,192,267224,1,0,0:0:0:0:
256,192,267331,1,0,0:0:0:0:
256,192,267438,1,0,0:0:0:0:
256,192,267545,1,0,0:0:0:0:
256,192,267652,1,0,0:0:0:0:
256,192,267866,1,0,0:0:0:0:
256,192,268080,1,2,0:0:0:0:
256,192,268187,1,0,0:0:0:0:
256,192,268402,1,0,0:0:0:0:
256,192,268723,1,0,0:0:0:0:
256,192,268937,1,2,0:0:0:0:
256,192,269152,1,0,0:0:0:0:
256,192,269367,1,0,0:0:0:0:
256,192,269581,1,0,0:0:0:0:
256,192,269795,1,2,0:0:0:0:
256,192,269902,1,0,0:0:0:0:
256,192,270117,1,0,0:0:0:0:
256,192,270438,1,0,0:0:0:0:
256,192,270652,1,2,0:0:0:0:
256,192,270867,1,0,0:0:0:0:
256,192,271081,1,0,0:0:0:0:
256,192,271295,1,0,0:0:0:0:
256,192,271509,1,2,0:0:0:0:
256,192,271616,1,0,0:0:0:0:
256,192,271831,1,0,0:0:0:0:
256,192,272152,1,0,0:0:0:0:
256,192,272366,1,2,0:0:0:0:
256,192,272581,1,0,0:0:0:0:
256,192,272795,12,8,274081,0:0:0:0:
256,192,274509,5,4,0:0:0:0:
256,192,274723,1,0,0:0:0:0:
256,192,274937,1,2,0:0:0:0:
256,192,275044,1,0,0:0:0:0:
256,192,275259,1,0,0:0:0:0:
256,192,275580,1,0,0:0:0:0:
256,192,275794,1,2,0:0:0:0:
256,192,276009,1,0,0:0:0:0:
256,192,276223,1,0,0:0:0:0:
256,192,276437,1,0,0:0:0:0:
256,192,276651,1,2,0:0:0:0:
256,192,276758,1,0,0:0:0:0:
256,192,276973,1,0,0:0:0:0:
256,192,277294,1,0,0:0:0:0:
256,192,277508,1,2,0:0:0:0:
256,192,277723,1,0,0:0:0:0:
256,192,277938,1,0,0:0:0:0:
256,192,278152,1,0,0:0:0:0:
256,192,278366,1,2,0:0:0:0:
256,192,278473,1,0,0:0:0:0:
256,192,278688,1,0,0:0:0:0:
256,192,279009,1,0,0:0:0:0:
256,192,279223,1,2,0:0:0:0:
256,192,279438,1,0,0:0:0:0:
256,192,279652,1,0,0:0:0:0:
256,192,279759,1,0,0:0:0:0:
256,192,279867,1,0,0:0:0:0:
256,192,279974,1,0,0:0:0:0:
256,192,280081,1,8,0:0:0:0:
256,192,280295,1,0,0:0:0:0:
256,192,280402,1,8,0:0:0:0:
256,192,280617,1,0,0:0:0:0:
256,192,280724,1,8,0:0:0:0:
256,192,280938,1,0,0:0:0:0:
256,192,281045,1,0,0:0:0:0:
256,192,281152,1,0,0:0:0:0:
256,192,281259,1,0,0:0:0:0:
256,192,281366,5,4,0:0:0:0:
256,192,281580,1,0,0:0:0:0:
256,192,281794,1,2,0:0:0:0:
256,192,281901,1,0,0:0:0:0:
256,192,282116,1,0,0:0:0:0:
256,192,282437,1,0,0:0:0:0:
256,192,282651,1,2,0:0:0:0:
256,192,282866,1,0,0:0:0:0:
256,192,283080,1,0,0:0:0:0:
256,192,283294,1,0,0:0:0:0:
256,192,283508,1,2,0:0:0:0:
256,192,283615,1,0,0:0:0:0:
256,192,283830,1,0,0:0:0:0:
256,192,284151,1,0,0:0:0:0:
256,192,284365,1,2,0:0:0:0:
256,192,284580,1,0,0:0:0:0:
256,192,284795,1,0,0:0:0:0:
256,192,285009,1,0,0:0:0:0:
256,192,285224,1,0,0:0:0:0:
256,192,285331,1,0,0:0:0:0:
256,192,285438,1,0,0:0:0:0:
256,192,285545,1,0,0:0:0:0:
256,192,285652,1,2,0:0:0:0:
256,192,285866,1,0,0:0:0:0:
256,192,285974,1,0,0:0:0:0:
256,192,286081,1,4,0:0:0:0:
256,192,286295,1,0,0:0:0:0:
256,192,286402,1,0,0:0:0:0:
256,192,286509,1,0,0:0:0:0:
256,192,286724,5,0,0:0:0:0:
256,192,286831,1,0,0:0:0:0:
256,192,286938,1,0,0:0:0:0:
256,192,287152,1,0,0:0:0:0:
256,192,287259,1,8,0:0:0:0:
256,192,287474,1,0,0:0:0:0:
256,192,287581,1,8,0:0:0:0:
256,192,287795,1,0,0:0:0:0:
256,192,287902,1,0,0:0:0:0:
256,192,288009,1,0,0:0:0:0:
256,192,288116,1,0,0:0:0:0:
256,192,288224,1,4,0:0:0:0:
256,192,288652,1,8,0:0:0:0:
256,192,288866,1,4,0:0:0:0:
256,192,289295,1,0,0:0:0:0:
256,192,290795,1,0,0:0:0:0:
256,192,291652,1,8,0:0:0:0:
256,192,292509,1,0,0:0:0:0:
256,192,293366,1,8,0:0:0:0:
256,192,294224,2,0,L|176:192,7,75,0|0|0|0|0|0|0|0,0:0|0:0|0:0|0:0|0:0|0:0|0:0|0:0,0:0:0:0:
256,192,296724,1,0,0:0:0:0:
256,192,296890,12,0,300318,0:0:0:0:
