osu file format v13

[General]
AudioFilename: Frozen World.mp3
AudioLeadIn: 0
PreviewTime: 171651
Countdown: 1
SampleSet: Soft
StackLeniency: 0.5
Mode: 0
LetterboxInBreaks: 1
StoryFireInFront: 0
WidescreenStoryboard: 1

[Editor]
DistanceSpacing: 2
BeatDivisor: 8
GridSize: 4
TimelineZoom: 1.1

[Metadata]
Title:Frozen World
TitleUnicode:Frozen World
Artist:MuryokuP
ArtistUnicode:無力P
Creator:strave9742
Version:Frost
Source:Resonance
Tags:
BeatmapID:538961
BeatmapSetID:232064

[Difficulty]
HPDrainRate:7
CircleSize:5
OverallDifficulty:7
ApproachRate:9
SliderMultiplier:2
SliderTickRate:4

[Events]
//Background and Video events
0,0,"frost.png",0,0
//Break Periods
2,41566,52766
2,120423,133337
2,158137,167623
//Storyboard Layer 0 (Background)
//Storyboard Layer 1 (Fail)
//Storyboard Layer 2 (Pass)
//Storyboard Layer 3 (Foreground)
//Storyboard Sound Samples
//Background Colour Transformations
3,100,77,255,247

[TimingPoints]
224,857.142857142857,4,2,0,80,1,0
224,-66.6666666666667,4,2,0,40,0,0
13938,-66.6666666666667,4,2,0,40,0,0
20795,-66.6666666666667,4,2,0,60,0,0
34509,-66.6666666666667,4,2,0,40,0,0
41366,428.571428571429,4,2,1,80,1,0
67241,-100,4,2,0,80,0,0
67348,-100,4,2,1,80,0,0
68366,-100,4,2,1,40,0,0
68392,-100,4,2,0,40,0,0
68581,-100,4,2,1,80,0,0
68795,-100,4,2,1,80,0,0
73456,-100,4,2,2,80,0,0
73563,-100,4,2,1,80,0,0
73937,-100,4,2,0,80,0,0
74312,-100,4,2,1,80,0,0
74419,-100,4,2,0,80,0,0
74526,-100,4,2,0,80,0,0
75116,-200,4,2,1,80,0,0
75170,-200,4,2,2,80,0,0
75277,-200,4,2,1,80,0,0
75652,-100,4,2,1,80,0,0
81651,-100,4,2,0,80,0,0
82509,-100,4,2,1,100,0,1
84383,-100,4,2,0,100,0,1
84491,-100,4,2,1,100,0,1
87169,-100,4,2,2,100,0,1
87276,-100,4,2,1,100,0,1
94027,-100,4,2,2,100,0,1
94134,-100,4,2,1,100,0,1
98098,-100,4,2,0,100,0,1
98205,-100,4,2,1,100,0,1
100884,-100,4,2,2,100,0,1
100991,-100,4,2,1,100,0,1
102599,-100,4,2,2,100,0,1
102706,-100,4,2,1,100,0,1
103081,-200,4,2,1,100,0,1
104581,-100,4,2,1,100,0,1
104798,-100,4,2,1,100,0,1
105170,-100,4,2,2,100,0,1
105277,-100,4,2,1,100,0,1
105652,857.142857142857,4,2,1,100,1,1
105652,-200,4,2,0,50,0,1
106509,428.571428571429,4,2,1,80,1,0
106509,-100,4,2,0,80,0,0
119794,-100,4,2,0,40,0,0
119901,-100,4,2,0,80,0,0
120223,857.142857142857,4,2,0,40,1,0
120224,-66.6666666666667,4,2,0,40,0,0
133938,-66.6666666666667,4,2,0,40,0,0
147652,-66.6666666666667,4,2,0,60,0,0
156223,-66.6666666666667,4,2,0,40,0,0
157937,-66.6666666666667,4,2,0,60,0,0
171651,428.571428571429,4,2,1,80,1,0
171652,-100,4,2,1,80,0,0
176312,-100,4,2,2,80,0,0
176419,-100,4,2,1,80,0,0
176793,-100,4,2,0,80,0,0
177168,-100,4,2,1,80,0,0
177276,-100,4,2,0,80,0,0
177383,-100,4,2,1,80,0,0
177973,-200,4,2,1,80,0,0
178026,-200,4,2,2,80,0,0
178134,-200,4,2,1,80,0,0
178509,-100,4,2,1,80,0,0
184508,-100,4,2,0,100,0,0
185366,-100,4,2,1,100,0,1
187240,-100,4,2,0,100,0,1
187347,-100,4,2,1,100,0,1
190026,-100,4,2,2,100,0,1
190134,-100,4,2,1,100,0,1
200954,-100,4,2,0,100,0,1
201061,-100,4,2,1,100,0,1
203741,-100,4,2,2,100,0,1
203848,-100,4,2,1,100,0,1
205455,-100,4,2,2,100,0,1
205562,-100,4,2,1,100,0,1
205938,-200,4,2,1,100,0,1
207437,-100,4,2,1,100,0,1
207652,-100,4,2,1,100,0,1
208026,-100,4,2,2,100,0,1
208134,-100,4,2,1,100,0,1
208509,857.142857142857,4,2,1,100,1,1
208509,-66.6666666666667,4,2,0,100,0,1
208937,-66.6666666666667,4,2,0,100,0,0
209366,428.571428571429,4,2,1,80,1,1
209366,-80,4,1,1,80,0,1
211241,-80,4,1,0,80,0,1
211348,-80,4,1,1,80,0,1
214026,-80,4,1,2,80,0,1
214133,-80,4,1,1,80,0,1
216009,-80,4,1,2,100,0,1
216223,-80,4,1,1,80,0,1
222651,-80,4,1,1,100,0,1
222758,-80,4,1,2,100,0,1
223080,-80,4,1,1,80,0,1
224955,-80,4,1,0,80,0,1
225062,-80,4,1,1,80,0,1
227741,-80,4,1,2,80,0,1
227848,-80,4,1,1,80,0,1
229455,-80,4,1,2,80,0,1
229562,-80,4,1,1,80,0,1
229723,-80,4,1,1,80,0,1
229937,-133.333333333333,4,1,1,80,0,1
231437,-80,4,1,1,80,0,1
231652,-80,4,1,1,80,0,1
232026,-80,4,1,2,63,0,1
232133,-80,4,1,1,80,0,1
232509,857.142857142857,4,1,1,80,1,1
232509,-80,4,2,0,80,0,1
233366,428.571428571429,4,2,0,80,1,0
233366,-100,4,2,0,80,0,0
260795,-100,4,2,0,80,0,0
288223,857.142857142857,4,2,0,80,1,1
288224,-100,4,2,0,80,0,1
288330,-100,4,2,0,40,0,0
290633,-100,4,2,0,5,0,0
290740,-100,4,2,0,40,0,0
291490,-100,4,2,0,5,0,0
291598,-100,4,2,0,40,0,0
292348,-100,4,2,0,5,0,0
292455,-100,4,2,0,40,0,0
293205,-100,4,2,0,5,0,0
293312,-100,4,2,0,40,0,0
294223,1333.33333333333,4,2,0,40,1,0
296889,1714.28571428571,4,2,0,40,1,0
296889,-100,4,2,0,5,0,0

[Colours]
Combo1 : 255,255,255
Combo2 : 136,255,255
Combo3 : 32,171,255
Combo4 : 30,30,30
Combo5 : 187,255,190

[HitObjects]
288,160,224,6,0,P|321:143|338:109,1,75.0000028610231,2|0,0:0|0:0,0:0:0:0:
288,224,652,2,0,P|304:257|338:274,1,75.0000028610231
224,224,1081,2,0,P|190:240|173:274,1,75.0000028610231,2|0,0:0|0:0,0:0:0:0:
224,160,1509,2,0,P|207:126|173:109,1,75.0000028610231,0|0,0:0|0:0,0:0:0:0:
256,240,1938,2,0,P|244:276|256:312,1,75.0000028610231,2|0,0:0|0:0,0:0:0:0:
208,192,2366,2,0,P|172:180|136:192,1,75.0000028610231
256,144,2795,2,0,P|268:108|256:72,1,75.0000028610231,2|0,0:0|0:0,0:0:0:0:
304,192,3223,2,0,P|340:204|376:192,1,75.0000028610231
304,144,3652,6,0,P|337:127|354:93,1,75.0000028610231,2|0,0:0|0:0,0:0:0:0:
304,240,4080,2,0,P|320:273|354:290,1,75.0000028610231
208,240,4509,2,0,P|174:256|157:290,1,75.0000028610231,2|0,0:0|0:0,0:0:0:0:
208,144,4937,2,0,P|191:110|157:93,1,75.0000028610231
256,272,5366,2,0,P|244:308|256:344,1,75.0000028610231,2|0,0:0|0:0,0:0:0:0:
176,192,5794,2,0,P|140:180|104:192,1,75.0000028610231
256,112,6223,2,0,P|268:76|256:40,1,75.0000028610231,2|0,0:0|0:0,0:0:0:0:
336,192,6651,2,0,P|372:204|408:192,1,75.0000028610231
320,128,7081,6,0,P|353:111|370:77,1,75.0000028610231,2|0,0:0|0:0,0:0:0:0:
320,256,7509,2,0,P|336:289|370:306,1,75.0000028610231,0|0,0:0|0:0,0:0:0:0:
192,256,7938,2,0,P|158:272|141:306,1,75.0000028610231,2|0,0:0|0:0,0:0:0:0:
192,128,8366,2,0,P|175:94|141:77,1,75.0000028610231
256,304,8795,2,0,P|244:340|256:376,1,75.0000028610231,2|0,0:0|0:0,0:0:0:0:
144,192,9223,2,0,P|108:180|72:192,1,75.0000028610231
256,80,9652,2,0,P|268:44|256:8,1,75.0000028610231,2|0,0:0|0:0,0:0:0:0:
368,192,10080,2,0,P|404:204|440:192,1,75.0000028610231
352,96,10509,6,0,P|385:79|402:45,1,75.0000028610231,2|0,0:0|0:0,0:0:0:0:
352,288,10938,2,0,P|368:321|402:338,1,75.0000028610231
160,288,11366,2,0,P|126:304|109:338,1,75.0000028610231,2|0,0:0|0:0,0:0:0:0:
160,96,11794,2,0,P|143:62|109:45,1,75.0000028610231
255,336,12224,2,0,P|243:371|255:407,1,75.0000028610231,2|0,0:0|0:0,0:0:0:0:
112,191,12652,2,0,P|76:179|40:191,1,75.0000028610231
256,48,13081,2,0,P|268:12|256:-23,1,75.0000028610231,2|0,0:0|0:0,0:0:0:0:
400,192,13509,2,0,P|435:204|471:192,1,75.0000028610231
256,192,13938,21,6,0:0:0:0:
256,144,14152,2,0,P|268:108|256:72,1,75.0000028610231,0|0,0:0|0:0,0:0:0:0:
214,216,14581,2,0,P|177:223|152:252,1,75.0000028610231,0|2,0:0|0:0,0:0:0:0:
297,215,15009,2,0,P|322:244|359:252,1,75.0000028610231
256,192,15438,5,0,0:0:0:0:
256,192,15545,1,0,0:0:0:0:
256,192,15652,1,6,0:0:0:0:
256,256,15866,2,0,P|244:292|256:328,1,75.0000028610231
311,160,16295,2,0,P|348:152|373:124,1,75.0000028610231,0|2,0:0|0:0,0:0:0:0:
200,160,16724,2,0,P|175:131|138:124,1,75.0000028610231
256,192,17152,5,0,0:0:0:0:
256,192,17259,1,0,0:0:0:0:
256,192,17366,1,6,0:0:0:0:
256,112,17581,2,0,P|268:76|256:40,1,75.0000028610231
186,232,18009,2,0,P|149:239|124:268,1,75.0000028610231,0|2,0:0|0:0,0:0:0:0:
325,232,18438,2,0,P|350:260|387:268,1,75.0000028610231
256,192,18866,5,0,0:0:0:0:
256,192,18974,1,0,0:0:0:0:
256,192,19081,1,6,0:0:0:0:
256,288,19295,2,0,P|244:324|256:360,1,75.0000028610231
339,144,19724,2,0,P|376:136|401:108,1,75.0000028610231,0|2,0:0|0:0,0:0:0:0:
172,144,20152,2,0,P|147:115|110:108,1,75.0000028610231
80,272,20795,21,6,0:0:0:0:
176,304,21009,2,0,L|176:352,2,37.5000014305115,0|0|8,0:0|0:0|0:0,0:0:0:0:
272,272,21438,1,0,0:0:0:0:
320,288,21545,2,0,P|356:276|392:288,1,75.0000028610231,0|0,0:0|0:0,0:0:0:0:
432,272,21866,1,0,0:0:0:0:
432,176,22081,1,0,0:0:0:0:
432,176,22295,2,0,L|400:144,1,37.5000014305115
432,112,22509,5,6,0:0:0:0:
336,80,22723,2,0,L|336:32,2,37.5000014305115,0|0|8,0:0|0:0|0:0,0:0:0:0:
240,112,23152,1,0,0:0:0:0:
192,96,23259,2,0,P|156:108|120:96,1,75.0000028610231
80,112,23580,1,0,0:0:0:0:
80,224,23795,1,0,0:0:0:0:
80,224,24009,2,0,L|112:256,1,37.5000014305115
80,272,24224,5,6,0:0:0:0:
192,288,24438,1,0,0:0:0:0:
192,288,24545,1,0,0:0:0:0:
192,288,24652,1,8,0:0:0:0:
304,304,24866,2,0,L|352:320,1,37.5000014305115
400,272,25188,2,0,L|448:288,1,37.5000014305115
432,176,25509,1,0,0:0:0:0:
432,176,25616,1,0,0:0:0:0:
432,176,25724,2,0,L|400:144,1,37.5000014305115
432,112,25938,5,6,0:0:0:0:
320,96,26152,1,0,0:0:0:0:
320,96,26259,1,0,0:0:0:0:
320,96,26366,1,8,0:0:0:0:
208,80,26580,2,0,L|160:64,1,37.5000014305115
112,112,26902,2,0,L|64:96,1,37.5000014305115
256,64,27224,2,0,L|256:112,3,37.5000014305115
320,64,27652,21,6,0:0:0:0:
160,64,27866,1,0,0:0:0:0:
192,80,27974,1,0,0:0:0:0:
208,112,28081,1,8,0:0:0:0:
208,144,28188,1,0,0:0:0:0:
192,176,28295,1,0,0:0:0:0:
160,192,28402,2,0,P|149:227|161:262,1,75.0000028610231
176,272,28724,1,0,0:0:0:0:
256,256,28938,1,0,0:0:0:0:
336,240,29152,2,0,L|368:208,1,37.5000014305115
416,224,29366,5,6,0:0:0:0:
352,320,29580,1,0,0:0:0:0:
320,304,29688,1,0,0:0:0:0:
304,272,29795,1,8,0:0:0:0:
304,240,29902,1,0,0:0:0:0:
320,208,30009,1,0,0:0:0:0:
352,192,30116,2,0,P|362:156|350:121,1,75.0000028610231
336,112,30438,1,0,0:0:0:0:
256,128,30652,1,0,0:0:0:0:
176,144,30866,2,0,L|144:176,1,37.5000014305115
96,160,31081,5,6,0:0:0:0:
160,64,31295,1,0,0:0:0:0:
192,80,31403,1,0,0:0:0:0:
208,112,31510,1,8,0:0:0:0:
208,144,31617,1,0,0:0:0:0:
192,176,31724,1,0,0:0:0:0:
160,192,31831,2,0,P|149:227|161:262,1,75.0000028610231
176,272,32153,1,0,0:0:0:0:
256,256,32367,1,0,0:0:0:0:
336,240,32581,2,0,L|368:208,1,37.5000014305115
416,224,32795,5,6,0:0:0:0:
352,320,33009,1,0,0:0:0:0:
320,304,33117,1,0,0:0:0:0:
304,272,33224,1,8,0:0:0:0:
304,240,33331,1,0,0:0:0:0:
320,208,33438,1,0,0:0:0:0:
352,192,33545,2,0,P|362:156|350:121,1,75.0000028610231
336,112,33867,1,0,0:0:0:0:
256,128,34081,1,0,0:0:0:0:
176,144,34295,2,0,L|144:176,1,37.5000014305115
96,160,34509,21,0,0:0:0:0:
160,240,34724,2,0,L|112:256,4,37.5000014305115
208,224,35259,2,0,P|197:259|209:294,1,75.0000028610231
224,304,35581,1,0,0:0:0:0:
304,272,35795,1,0,0:0:0:0:
384,240,36009,1,0,0:0:0:0:
464,208,36224,5,0,0:0:0:0:
352,144,36439,2,0,L|400:128,4,37.5000014305115
304,160,36974,2,0,P|314:124|302:89,1,75.0000028610231
288,80,37296,1,0,0:0:0:0:
208,112,37510,1,0,0:0:0:0:
128,144,37724,1,0,0:0:0:0:
48,176,37938,5,0,0:0:0:0:
160,240,38153,2,0,L|112:256,4,37.5000014305115
208,224,38688,2,0,P|197:259|209:294,1,75.0000028610231
224,304,39010,1,0,0:0:0:0:
304,272,39224,1,0,0:0:0:0:
384,240,39438,1,0,0:0:0:0:
112,80,39652,6,0,L|160:80,3,37.5000014305115
192,80,40081,2,0,L|240:96,3,37.5000014305115
272,112,40508,1,0,0:0:0:0:
304,128,40616,1,0,0:0:0:0:
320,160,40724,1,0,0:0:0:0:
304,192,40831,1,0,0:0:0:0:
272,208,40938,1,0,0:0:0:0:
240,224,41045,1,0,0:0:0:0:
224,256,41152,1,0,0:0:0:0:
240,288,41259,2,0,L|288:304,1,37.5000014305115,0|4,0:0|1:0,0:0:0:0:
256,192,53366,12,0,54652,1:0:0:0:
32,224,55081,21,0,1:0:0:0:
48,64,55296,1,2,0:0:0:0:
96,80,55403,1,0,0:0:0:0:
144,64,55510,1,8,0:0:0:0:
176,96,55617,1,0,0:0:0:0:
224,112,55724,1,0,0:0:0:0:
272,96,55831,2,0,P|288:144|272:192,1,100,0|0,0:0|0:0,0:0:0:0:
256,208,56153,2,0,P|304:192|352:208,1,100,0|8,0:0|0:0,0:0:0:0:
416,144,56581,2,0,L|464:112,1,50,0|0,0:0|0:0,0:0:0:0:
480,160,56796,5,0,1:0:0:0:
464,320,57011,1,0,0:0:0:0:
416,304,57118,1,0,0:0:0:0:
368,320,57225,1,8,0:0:0:0:
336,288,57332,1,0,0:0:0:0:
288,272,57439,1,0,0:0:0:0:
240,288,57546,2,0,P|224:240|240:192,1,100,2|0,0:0|0:0,0:0:0:0:
256,176,57868,2,0,P|208:192|161:173,1,100,0|8,0:0|0:0,0:0:0:0:
96,240,58295,2,0,L|48:272,1,50
32,224,58509,5,0,1:0:0:0:
32,64,58724,1,0,0:0:0:0:
64,96,58831,1,0,0:0:0:0:
112,112,58938,1,8,0:0:0:0:
160,96,59045,1,0,0:0:0:0:
208,112,59152,1,0,0:0:0:0:
256,96,59259,2,0,P|240:144|256:192,1,100,2|0,0:0|0:0,0:0:0:0:
288,160,59581,2,0,P|336:144|384:160,1,100,0|8,0:0|0:0,0:0:0:0:
448,112,60009,2,0,L|496:96,1,50
480,160,60224,5,0,1:0:0:0:
480,320,60439,1,0,0:0:0:0:
448,288,60546,1,0,0:0:0:0:
400,272,60653,1,8,0:0:0:0:
352,288,60760,1,0,0:0:0:0:
304,272,60867,1,0,0:0:0:0:
256,288,60974,2,0,P|272:240|256:192,1,100,2|0,0:0|0:0,0:0:0:0:
216,232,61295,1,0,0:0:0:0:
168,248,61402,1,0,0:0:0:0:
120,232,61509,1,8,0:0:0:0:
64,144,61724,2,0,L|16:128,1,50
64,80,61938,22,0,P|112:96|160:80,1,100,4|0,1:0|0:0,0:0:0:0:
192,112,62259,1,0,0:0:0:0:
240,128,62366,1,8,0:0:0:0:
288,112,62474,1,0,0:0:0:0:
320,72,62581,1,0,0:0:0:0:
368,64,62688,2,0,P|416:80|464:64,1,100,2|0,0:0|0:0,0:0:0:0:
480,96,63009,1,0,0:0:0:0:
400,192,63224,1,8,0:0:0:0:
432,224,63331,1,0,0:0:0:0:
464,256,63438,2,0,L|496:288,3,25
448,304,63652,6,0,P|400:288|352:304,1,100,0|0,1:0|0:0,0:0:0:0:
320,272,63973,1,0,0:0:0:0:
272,256,64080,1,8,0:0:0:0:
224,272,64188,1,0,0:0:0:0:
192,312,64295,1,0,0:0:0:0:
144,320,64402,2,0,P|96:304|48:320,1,100,2|0,0:0|0:0,0:0:0:0:
32,288,64723,1,0,0:0:0:0:
112,192,64938,1,8,0:0:0:0:
80,160,65045,1,0,0:0:0:0:
48,128,65152,2,0,L|16:96,3,25
80,96,65366,6,0,P|128:80|176:96,1,100,4|0,0:0|0:0,0:0:0:0:
208,128,65688,1,0,0:0:0:0:
256,144,65795,1,8,0:0:0:0:
304,128,65902,1,0,0:0:0:0:
352,144,66009,1,0,0:0:0:0:
400,128,66116,1,0,0:0:0:0:
448,112,66224,6,0,P|464:160|448:208,1,100,4|0,0:0|0:0,0:0:0:0:
449,205,66545,1,0,0:0:0:0:
448,256,66652,2,0,L|480:304,3,50,10|0|0|0,0:0|0:0|0:0|0:0,0:0:0:0:
448,320,67081,5,2,0:0:0:0:
400,336,67188,1,0,0:0:0:0:
352,320,67294,1,8,0:0:0:0:
320,288,67402,1,0,0:0:0:0:
272,272,67509,1,8,1:0:0:0:
224,288,67616,1,0,0:0:0:0:
192,256,67724,1,0,0:0:0:0:
144,240,67831,1,0,0:0:0:0:
112,208,67938,1,4,0:0:0:0:
96,160,68045,1,0,0:0:0:0:
112,112,68152,1,0,0:0:0:0:
144,80,68259,1,0,0:0:0:0:
192,80,68366,2,0,L|208:64,7,12.5,10|2|2|2|2|2|2|2,0:0|0:0|0:0|0:0|0:0|0:0|0:0|0:0,0:0:0:0:
224,96,68581,2,0,L|256:80,3,25
288,80,68795,5,4,1:0:0:0:
456,160,69009,1,0,0:0:0:0:
424,192,69116,1,0,0:0:0:0:
376,208,69224,1,8,0:0:0:0:
328,192,69331,2,0,P|344:240|328:288,1,100
296,320,69652,1,0,1:0:0:0:
248,336,69759,1,0,0:0:0:0:
200,320,69866,1,0,0:0:0:0:
168,280,69974,1,0,0:0:0:0:
128,240,70081,1,8,0:0:0:0:
80,224,70188,1,0,0:0:0:0:
32,240,70295,2,0,L|0:224,3,25
32,192,70509,6,0,P|48:144|88:112,1,100,0|0,1:0|0:0,0:0:0:0:
120,144,70831,1,0,0:0:0:0:
168,160,70938,1,8,0:0:0:0:
216,144,71045,1,0,0:0:0:0:
264,160,71152,2,0,L|296:144,1,25
328,128,71259,2,0,P|312:176|328:224,1,100
368,208,71580,2,0,L|416:224,2,50,0|0|8,0:0|0:0|0:0,0:0:0:0:
464,144,72009,6,0,L|416:96,1,50
384,80,72223,1,0,1:0:0:0:
336,64,72331,1,0,0:0:0:0:
288,80,72438,1,0,0:0:0:0:
256,120,72545,1,0,0:0:0:0:
208,136,72652,1,8,0:0:0:0:
160,120,72759,1,0,0:0:0:0:
128,80,72866,1,0,0:0:0:0:
80,64,72974,1,0,0:0:0:0:
32,80,73081,1,0,1:0:0:0:
64,208,73295,6,0,L|48:240,1,25
32,272,73402,2,0,P|80:288|128:288,1,100
160,256,73724,1,0,0:0:0:0:
192,224,73831,1,0,0:0:0:0:
224,192,73938,1,0,1:0:0:0:
256,160,74045,1,0,0:0:0:0:
288,128,74151,2,0,P|336:144|384:128,1,100,8|8,0:0|0:0,0:0:0:0:
416,112,74474,1,8,0:0:0:0:
432,208,74688,5,0,1:0:0:0:
280,248,74901,1,0,1:0:0:0:
112,288,75116,2,0,P|128:240|112:192,1,100,0|0,1:2|0:0,0:0:0:0:
96,152,75652,5,0,1:0:0:0:
128,112,75759,1,0,0:0:0:0:
176,96,75866,1,0,0:0:0:0:
224,112,75974,1,0,0:0:0:0:
256,152,76081,1,8,0:0:0:0:
304,160,76188,1,0,0:0:0:0:
352,144,76295,2,0,L|384:128,1,25
416,112,76402,2,0,P|432:160|416:208,1,100
448,288,76831,5,0,0:0:0:0:
416,328,76938,1,8,0:0:0:0:
368,344,77045,1,0,0:0:0:0:
320,328,77152,1,2,0:0:0:0:
288,288,77259,1,0,0:0:0:0:
256,256,77366,2,0,L|240:224,3,25,0|0|0|0,1:0|0:0|0:0|0:0,0:0:0:0:
224,208,77581,2,0,L|192:192,3,25
176,192,77795,1,8,0:0:0:0:
128,208,77902,1,0,0:0:0:0:
80,192,78009,2,0,L|56:224,1,25
48,240,78116,2,0,P|93:262|115:307,1,100
160,288,78437,2,0,L|208:304,2,50,0|0|8,0:0|0:0|0:0,0:0:0:0:
288,208,78866,6,0,L|336:176,1,50
368,152,79081,1,0,1:0:0:0:
336,112,79188,1,0,0:0:0:0:
288,96,79295,1,0,0:0:0:0:
240,112,79402,1,0,0:0:0:0:
192,96,79509,1,8,0:0:0:0:
144,112,79616,1,0,0:0:0:0:
96,96,79724,2,0,L|64:112,1,25
32,128,79831,2,0,P|48:176|32:224,1,100
64,256,80152,1,0,0:0:0:0:
64,256,80259,1,0,0:0:0:0:
64,256,80366,2,0,L|96:208,1,50,10|0,0:0|0:0,0:0:0:0:
128,256,80581,2,0,L|160:208,1,50
192,256,80795,6,0,L|224:272,3,25,0|0|0|0,1:0|0:0|0:0|0:0,0:0:0:0:
256,272,81009,2,0,L|288:288,3,25
320,288,81224,1,8,0:0:0:0:
368,304,81331,1,0,0:0:0:0:
416,288,81438,1,0,0:0:0:0:
464,304,81545,1,0,0:0:0:0:
512,336,81652,5,0,1:2:0:0:
256,0,81974,1,0,1:2:0:0:
0,336,82295,1,12,1:2:0:0:
80,128,82509,6,0,P|128:144|176:128,1,100,4|2,1:0|0:0,0:0:0:0:
208,96,82831,1,0,0:0:0:0:
256,80,82938,1,8,0:0:0:0:
304,96,83045,1,0,0:0:0:0:
336,136,83152,1,0,0:0:0:0:
384,144,83259,2,2,P|400:192|384:240,1,100,2|0,0:0|0:0,0:0:0:0:
352,272,83581,1,0,0:0:0:0:
304,288,83688,1,0,0:0:0:0:
256,272,83795,1,8,0:0:0:0:
128,272,84009,1,0,0:0:0:0:
128,272,84116,1,0,0:0:0:0:
64,192,84438,5,8,0:0:0:0:
32,160,84545,1,0,0:0:0:0:
16,112,84652,1,8,0:0:0:0:
32,64,84759,2,0,P|80:80|128:64,1,100
160,96,85081,1,0,1:0:0:0:
208,112,85188,1,0,0:0:0:0:
256,96,85295,1,0,0:0:0:0:
304,112,85402,1,0,0:0:0:0:
352,96,85509,1,8,0:0:0:0:
400,112,85616,1,0,0:0:0:0:
448,96,85724,2,0,L|480:80,3,25
480,128,85938,6,2,P|496:176|480:224,1,100,4|0,0:0|0:0,0:0:0:0:
400,288,86366,1,8,0:0:0:0:
360,320,86474,1,0,0:0:0:0:
312,336,86581,1,0,0:0:0:0:
264,320,86688,1,0,0:0:0:0:
224,288,86795,2,2,P|208:240|224:192,1,100,2|0,0:0|0:0,0:0:0:0:
272,208,87116,2,2,P|224:240|128:256,1,150,0|0,0:0|0:0,0:0:0:0:
32,240,87652,5,0,0:0:0:0:
112,128,87866,1,2,0:0:0:0:
160,144,87974,1,0,0:0:0:0:
208,128,88080,1,8,0:0:0:0:
256,112,88188,2,0,P|304:128|352:112,1,100
400,72,88509,2,0,L|432:56,3,25,2|0|0|0,0:0|0:0|0:0|0:0,0:0:0:0:
432,104,88724,2,0,L|464:96,3,25
448,144,88938,1,8,0:0:0:0:
416,256,89152,2,0,L|464:288,1,50,0|0,1:0|1:0,0:0:0:0:
432,320,89366,22,0,P|384:336|336:320,1,100,4|2,1:0|0:0,0:0:0:0:
304,280,89688,1,0,0:0:0:0:
256,264,89795,1,8,0:0:0:0:
208,280,89902,1,0,0:0:0:0:
176,320,90009,1,0,0:0:0:0:
128,304,90116,2,2,P|112:256|128:208,1,100,2|0,0:0|0:0,0:0:0:0:
126,210,90438,1,0,0:0:0:0:
256,160,90652,1,8,0:0:0:0:
304,144,90759,1,0,0:0:0:0:
352,160,90866,1,0,0:0:0:0:
400,144,90974,2,2,P|448:144|496:160,2,100,2|0|0,0:0|0:0|0:0,0:0:0:0:
432,192,91508,6,0,L|400:240,3,50,8|0|0|0,0:0|0:0|0:0|0:0,0:0:0:0:
368,256,91938,2,0,L|336:272,3,25,2|0|0|0,0:0|0:0|0:0|0:0,0:0:0:0:
304,272,92152,2,0,L|272:272,3,25
240,272,92366,1,8,0:0:0:0:
208,224,92474,1,0,0:0:0:0:
160,208,92581,2,0,L|128:224,3,25
96,224,92795,6,0,P|80:176|96:128,1,100,0|2,0:0|0:0,0:0:0:0:
128,96,93116,1,0,0:0:0:0:
176,80,93224,1,8,0:0:0:0:
224,96,93331,1,0,0:0:0:0:
256,136,93438,1,0,0:0:0:0:
304,160,93545,2,0,P|352:176|400:160,1,100,2|0,0:0|0:0,0:0:0:0:
432,128,93866,2,2,P|468:192|432:256,1,150,2|0,0:0|0:0,0:0:0:0:
64,112,94509,6,0,L|48:144,3,25,2|0|0|0,0:0|0:0|0:0|0:0,0:0:0:0:
48,176,94724,2,0,L|48:208,3,25
64,240,94938,1,8,0:0:0:0:
96,280,95045,1,0,0:0:0:0:
144,296,95152,1,0,0:0:0:0:
192,296,95259,1,0,0:0:0:0:
288,208,95474,6,0,L|240:224,2,50
336,224,95795,1,8,1:2:0:0:
384,208,95902,1,0,1:0:0:0:
432,224,96009,1,0,1:0:0:0:
480,208,96116,1,0,1:0:0:0:
432,128,96224,6,0,P|384:144|336:128,1,100,4|2,1:0|0:0,0:0:0:0:
304,96,96546,1,0,0:0:0:0:
256,80,96653,1,8,0:0:0:0:
208,96,96760,1,0,0:0:0:0:
176,136,96867,1,0,0:0:0:0:
128,144,96974,2,2,P|112:192|128:240,1,100,2|0,0:0|0:0,0:0:0:0:
160,272,97296,1,0,0:0:0:0:
208,288,97403,1,0,0:0:0:0:
256,272,97510,1,8,0:0:0:0:
384,272,97724,1,0,0:0:0:0:
384,272,97831,1,0,0:0:0:0:
448,192,98152,5,8,0:0:0:0:
480,160,98259,1,0,0:0:0:0:
496,112,98366,1,8,0:0:0:0:
480,64,98473,2,0,P|432:80|384:64,1,100
352,96,98795,1,0,1:0:0:0:
304,112,98902,1,0,0:0:0:0:
256,96,99009,1,0,0:0:0:0:
208,112,99116,1,0,0:0:0:0:
160,96,99223,1,8,0:0:0:0:
112,112,99330,1,0,0:0:0:0:
64,96,99438,2,0,L|32:80,3,25
48,144,99651,5,0,0:0:0:0:
80,256,99865,1,0,0:0:0:0:
112,296,99973,1,0,0:0:0:0:
160,312,100080,1,10,0:0:0:0:
208,296,100187,1,0,0:0:0:0:
240,256,100294,1,0,0:0:0:0:
288,232,100401,1,0,0:0:0:0:
320,192,100508,1,2,1:2:0:0:
368,176,100615,1,0,0:0:0:0:
416,192,100723,1,0,0:0:0:0:
464,176,100830,2,2,P|448:224|464:272,1,100,2|0,0:0|0:0,0:0:0:0:
400,320,101259,5,0,0:0:0:0:
352,336,101366,1,2,0:0:0:0:
320,296,101474,1,0,0:0:0:0:
272,280,101580,1,2,0:0:0:0:
224,296,101688,1,0,0:0:0:0:
192,336,101795,1,10,0:0:0:0:
144,312,101902,1,0,0:0:0:0:
112,272,102009,1,0,0:0:0:0:
64,256,102116,1,0,0:0:0:0:
48,208,102224,2,0,P|96:224|144:208,1,100,2|0,0:0|0:0,0:0:0:0:
128,168,102544,2,2,P|92:232|128:296,1,150,2|0,0:0|0:0,0:0:0:0:
320,96,103081,22,0,P|352:57|355:6,1,100,4|8,1:0|0:0,0:0:0:0:
192,288,103724,2,0,P|159:326|156:377,1,100
256,192,104366,1,10,0:0:0:0:
256,192,104581,5,0,0:0:0:0:
256,192,104688,1,0,0:0:0:0:
256,192,104795,2,2,B|328:152|328:232|400:192,2,150,2|0|2,0:0|0:0|0:0,0:0:0:0:
80,156,105652,38,2,P|71:192|80:228,1,75,0|0,0:0|0:0,0:0:0:0:
160,160,106509,6,0,B|136:112|160:64|208:44|256:64|288:224|336:244|384:224|408:176|384:128,2,400,0|0|0,1:0|0:0|0:0,0:0:0:0:
176,208,108330,1,0,0:0:0:0:
160,256,108437,1,0,0:0:0:0:
176,304,108544,2,0,P|224:288|272:304,1,100,8|0,0:0|0:0,0:0:0:0:
304,320,108866,2,0,P|352:336|400:320,1,100
424,280,109187,1,0,0:0:0:0:
440,232,109294,1,0,0:0:0:0:
424,184,109401,1,0,0:0:0:0:
392,144,109509,2,0,L|360:128,4,25,0|0|0|0|0,1:0|0:0|0:0|0:0|0:0,0:0:0:0:
392,144,109937,1,0,0:0:0:0:
336,224,110366,5,2,0:0:0:0:
256,256,110509,1,2,0:0:0:0:
176,224,110651,1,0,0:0:0:0:
80,128,110794,2,0,P|128:144|176:128,1,100
208,96,111116,1,0,0:0:0:0:
256,80,111223,1,8,0:0:0:0:
304,96,111330,1,0,0:0:0:0:
336,128,111437,1,0,0:0:0:0:
384,144,111544,1,0,0:0:0:0:
432,128,111651,6,0,L|480:112,2,50,2|0|0,0:0|0:0|0:0,0:0:0:0:
80,256,112080,2,0,L|32:272,2,50,2|0|0,0:0|0:0|0:0,0:0:0:0:
80,256,112509,1,0,0:0:0:0:
128,80,112937,1,2,0:0:0:0:
384,304,113151,1,0,0:0:0:0:
432,192,113366,38,0,P|384:176|336:192,1,100,0|8,0:0|0:0,0:0:0:0:
304,224,113687,1,0,0:0:0:0:
256,240,113794,1,0,1:0:0:0:
208,224,113901,1,0,0:0:0:0:
176,192,114009,1,0,0:0:0:0:
128,176,114116,1,0,0:0:0:0:
80,192,114223,2,0,P|64:144|80:96,1,100,2|0,0:0|0:0,0:0:0:0:
112,112,114544,2,0,B|160:96|208:160|256:144,1,150
64,288,115080,5,0,0:0:0:0:
112,304,115187,1,0,0:0:0:0:
160,288,115294,1,0,0:0:0:0:
208,304,115401,1,0,0:0:0:0:
256,288,115509,2,0,L|288:272,4,25,0|0|0|0|0,1:0|0:0|0:0|0:0|0:0,0:0:0:0:
256,288,115937,1,0,0:0:0:0:
416,288,116366,1,2,0:0:0:0:
96,136,116580,2,2,L|48:104,1,50,2|2,0:0|0:0,0:0:0:0:
184,192,116794,6,0,P|256:216|328:192,2,150
176,96,117651,1,2,0:0:0:0:
256,128,117794,1,2,0:0:0:0:
336,96,117936,1,0,0:0:0:0:
400,96,118080,2,0,L|416:128,3,25,0|0|0|0,1:0|0:0|0:0|0:0,0:0:0:0:
416,160,118294,1,0,0:0:0:0:
400,208,118401,1,0,0:0:0:0:
416,256,118509,1,0,0:0:0:0:
48,160,118723,5,0,0:0:0:0:
80,120,118830,1,0,0:0:0:0:
128,104,118937,1,0,0:0:0:0:
176,120,119044,1,0,0:0:0:0:
208,160,119151,1,0,0:0:0:0:
256,176,119259,1,0,0:0:0:0:
304,160,119366,1,8,0:0:0:0:
352,176,119473,1,0,0:0:0:0:
400,160,119580,1,0,0:0:0:0:
448,176,119687,1,0,0:0:0:0:
496,160,119794,2,0,L|512:160,4,12.5,2|2|2|2|2,0:0|0:0|0:0|0:0|0:0,0:0:0:0:
488,212,120009,1,0,0:0:0:0:
160,272,120223,1,0,0:0:0:0:
256,192,133937,21,4,0:0:0:0:
256,144,134151,2,0,P|268:108|256:72,1,75.0000028610231
214,216,134580,2,0,P|177:223|152:252,1,75.0000028610231,0|2,0:0|0:0,0:0:0:0:
297,215,135008,2,0,P|322:244|359:252,1,75.0000028610231
256,192,135437,5,0,0:0:0:0:
256,192,135544,1,0,0:0:0:0:
256,192,135651,1,6,0:0:0:0:
256,256,135865,2,0,P|244:292|256:328,1,75.0000028610231
311,160,136294,2,0,P|348:152|372:124,1,75.0000028610231,0|2,0:0|0:0,0:0:0:0:
200,160,136723,2,0,P|175:131|138:124,1,75.0000028610231
256,192,137151,5,0,0:0:0:0:
256,192,137258,1,0,0:0:0:0:
256,192,137365,1,6,0:0:0:0:
256,112,137580,2,0,P|268:76|256:40,1,75.0000028610231
186,232,138008,2,0,P|149:239|124:268,1,75.0000028610231,0|2,0:0|0:0,0:0:0:0:
325,232,138437,2,0,P|350:260|387:268,1,75.0000028610231
256,192,138865,5,0,0:0:0:0:
256,192,138973,1,0,0:0:0:0:
256,192,139080,1,6,0:0:0:0:
256,288,139294,2,0,P|244:324|256:360,1,75.0000028610231
339,144,139723,2,0,P|376:136|401:108,1,75.0000028610231,0|2,0:0|0:0,0:0:0:0:
172,144,140151,2,0,P|147:115|110:108,1,75.0000028610231
256,192,140580,21,0,0:0:0:0:
256,192,140687,1,0,0:0:0:0:
256,192,140794,1,6,0:0:0:0:
256,128,141008,2,0,P|268:92|256:56,1,75.0000028610231
201,224,141437,2,0,P|164:232|139:260,1,75.0000028610231,0|2,0:0|0:0,0:0:0:0:
312,224,141866,2,0,P|337:253|374:260,1,75.0000028610231
256,192,142294,5,0,0:0:0:0:
256,192,142401,1,0,0:0:0:0:
256,192,142508,1,6,0:0:0:0:
256,272,142723,2,0,P|244:308|256:344,1,75.0000028610231
326,152,143151,2,0,P|363:145|388:116,1,75.0000028610231,0|2,0:0|0:0,0:0:0:0:
187,152,143580,2,0,P|162:124|125:116,1,75.0000028610231
256,192,144008,5,0,0:0:0:0:
256,192,144116,1,0,0:0:0:0:
256,192,144223,1,6,0:0:0:0:
256,96,144437,2,0,P|268:60|256:24,1,75.0000028610231
173,240,144866,2,0,P|136:248|111:276,1,75.0000028610231,0|2,0:0|0:0,0:0:0:0:
340,240,145294,2,0,P|365:269|402:276,1,75.0000028610231
256,192,145723,5,0,0:0:0:0:
256,192,145830,1,0,0:0:0:0:
256,192,145937,1,6,0:0:0:0:
256,80,146151,1,0,0:0:0:0:
159,248,146366,1,8,0:0:0:0:
159,248,146473,1,0,0:0:0:0:
256,192,146687,1,0,0:0:0:0:
352,248,146901,1,0,0:0:0:0:
352,248,147009,1,0,0:0:0:0:
256,192,147223,1,0,0:0:0:0:
256,192,147437,1,0,0:0:0:0:
96,80,147651,21,6,0:0:0:0:
192,96,147866,2,0,L|160:144,2,37.5000014305115,0|0|8,0:0|0:0|0:0,0:0:0:0:
288,80,148294,1,0,0:0:0:0:
288,80,148401,2,0,P|324:92|360:80,1,75.0000028610231
384,64,148723,2,0,P|373:99|385:134,1,75.0000028610231
416,240,149151,2,0,L|448:272,1,37.5000014305115
416,304,149366,5,6,0:0:0:0:
320,288,149581,2,0,L|352:240,2,37.5000014305115,0|0|8,0:0|0:0|0:0,0:0:0:0:
224,304,150009,1,0,0:0:0:0:
224,304,150116,2,0,P|188:292|152:304,1,75.0000028610231
128,320,150438,2,0,P|138:284|126:249,1,75.0000028610231
96,144,150866,2,0,L|64:112,1,37.5000014305115
96,80,151080,5,6,0:0:0:0:
208,80,151294,1,0,0:0:0:0:
224,112,151401,1,0,0:0:0:0:
256,128,151509,1,8,0:0:0:0:
288,112,151616,1,0,0:0:0:0:
320,128,151723,1,0,0:0:0:0:
352,112,151830,2,0,P|387:122|422:110,1,75.0000028610231
448,112,152151,1,0,0:0:0:0:
400,224,152366,2,0,L|416:272,3,37.5000014305115
416,304,152794,5,6,0:0:0:0:
304,304,153008,1,0,0:0:0:0:
288,272,153115,1,0,0:0:0:0:
256,256,153223,1,8,0:0:0:0:
224,272,153330,1,0,0:0:0:0:
192,256,153437,1,0,0:0:0:0:
160,272,153544,2,0,P|124:261|89:273,1,75.0000028610231
64,272,153865,1,0,0:0:0:0:
112,160,154080,2,0,L|96:112,3,37.5000014305115
112,80,154509,21,6,0:0:0:0:
224,80,154723,2,0,L|272:80,1,37.5000014305115
288,64,154937,1,8,0:0:0:0:
320,48,155044,1,0,0:0:0:0:
352,64,155151,1,0,0:0:0:0:
384,48,155259,2,0,P|395:82|385:118,1,75.0000028610231
384,144,155580,1,0,0:0:0:0:
400,224,155794,1,0,0:0:0:0:
400,224,155901,1,0,0:0:0:0:
400,224,156009,2,0,L|416:272,1,37.5000014305115
400,304,156223,5,6,0:0:0:0:
288,304,156437,2,0,L|240:304,1,37.5000014305115,0|0,0:0|0:0,0:0:0:0:
224,320,156651,1,8,0:0:0:0:
192,336,156758,1,0,0:0:0:0:
160,320,156865,1,0,0:0:0:0:
128,336,156973,2,0,P|116:301|126:265,1,75.0000028610231,0|0,0:0|0:0,0:0:0:0:
128,240,157294,1,0,0:0:0:0:
208,112,157509,2,0,L|192:64,3,37.5000014305115,0|0|0|0,0:0|0:0|0:0|0:0,0:0:0:0:
240,80,157937,1,4,1:0:0:0:
256,192,168223,12,0,171223,0:0:0:0:
232,80,171651,53,4,1:0:0:0:
56,160,171865,1,0,0:0:0:0:
88,192,171972,1,0,0:0:0:0:
136,208,172080,1,8,0:0:0:0:
184,192,172187,2,0,P|168:240|184:288,1,100
216,320,172508,1,0,1:0:0:0:
264,336,172615,1,0,0:0:0:0:
312,320,172722,1,0,0:0:0:0:
344,272,172830,1,0,0:0:0:0:
384,232,172937,1,8,0:0:0:0:
432,224,173044,1,0,0:0:0:0:
480,240,173151,2,0,L|512:224,3,25
480,184,173366,5,0,1:0:0:0:
448,144,173473,1,0,0:0:0:0:
400,128,173580,1,0,0:0:0:0:
352,144,173687,1,0,0:0:0:0:
304,160,173793,1,8,0:0:0:0:
256,144,173901,1,0,0:0:0:0:
208,160,174008,2,0,L|176:144,1,25
144,128,174115,2,0,P|160:176|144:224,1,100
96,208,174436,2,0,L|48:224,2,50,0|0|8,0:0|0:0|0:0,0:0:0:0:
80,128,174866,6,0,L|112:96,3,25
128,80,175080,1,0,1:0:0:0:
176,64,175187,1,0,0:0:0:0:
224,80,175294,1,0,0:0:0:0:
256,120,175401,1,0,0:0:0:0:
304,136,175508,1,8,0:0:0:0:
352,120,175615,1,0,0:0:0:0:
384,80,175722,1,0,0:0:0:0:
432,64,175830,1,0,0:0:0:0:
480,80,175937,1,0,1:0:0:0:
448,208,176151,6,0,L|464:240,1,25
480,272,176258,2,0,P|432:288|384:288,1,100
352,256,176580,1,0,0:0:0:0:
320,224,176687,1,0,0:0:0:0:
288,192,176794,1,0,1:0:0:0:
256,160,176901,1,0,0:0:0:0:
224,128,177008,2,0,P|176:112|128:128,1,100,8|8,0:0|0:0,0:0:0:0:
96,112,177330,1,8,0:0:0:0:
80,208,177544,5,0,1:0:0:0:
232,248,177758,1,0,1:0:0:0:
400,288,177973,2,0,P|384:240|400:192,1,100,0|0,1:0|0:0,0:0:0:0:
416,152,178508,5,0,1:0:0:0:
384,112,178615,1,0,0:0:0:0:
336,96,178722,1,0,0:0:0:0:
288,112,178830,1,0,0:0:0:0:
256,144,178937,1,8,0:0:0:0:
208,160,179044,1,0,0:0:0:0:
160,144,179151,2,0,L|128:128,1,25
96,112,179258,2,0,P|80:160|96:208,1,100
64,288,179687,5,0,0:0:0:0:
96,328,179794,1,8,0:0:0:0:
144,344,179901,1,0,0:0:0:0:
192,328,180008,1,0,0:0:0:0:
224,288,180115,1,0,0:0:0:0:
256,256,180223,2,0,L|272:224,3,25,0|0|0|0,1:0|0:0|0:0|0:0,0:0:0:0:
288,208,180437,2,0,L|320:192,3,25
336,192,180651,1,8,0:0:0:0:
384,208,180758,1,0,0:0:0:0:
432,192,180865,2,0,L|448:224,1,25
464,240,180972,2,0,P|419:262|397:307,1,100
352,288,181293,2,0,L|304:304,2,50,0|0|8,0:0|0:0|0:0,0:0:0:0:
200,184,181723,6,0,L|172:168,3,25
144,152,181937,1,0,1:0:0:0:
176,112,182044,1,0,0:0:0:0:
224,96,182151,1,0,0:0:0:0:
272,112,182258,1,0,0:0:0:0:
320,96,182365,1,8,0:0:0:0:
368,112,182472,1,0,0:0:0:0:
416,96,182580,2,0,L|448:112,1,25
480,128,182687,2,0,P|464:176|480:224,1,100
448,256,183008,1,0,0:0:0:0:
448,256,183115,1,0,0:0:0:0:
448,256,183222,2,0,L|416:208,1,50,8|0,0:0|0:0,0:0:0:0:
384,256,183437,2,0,L|352:208,1,50
320,256,183651,6,0,L|288:272,3,25,0|0|0|0,1:0|0:0|0:0|0:0,0:0:0:0:
256,272,183865,2,0,L|224:272,3,25
192,272,184080,1,8,0:0:0:0:
136,264,184187,1,0,0:0:0:0:
80,272,184294,1,0,0:0:0:0:
32,296,184401,1,0,0:0:0:0:
0,336,184508,5,0,1:2:0:0:
256,0,184830,1,0,1:2:0:0:
512,336,185151,1,12,1:2:0:0:
432,128,185366,6,0,P|384:144|336:128,1,100,4|2,1:0|0:0,0:0:0:0:
304,96,185688,1,0,0:0:0:0:
256,80,185795,1,8,0:0:0:0:
208,96,185902,1,0,0:0:0:0:
176,136,186009,1,0,0:0:0:0:
128,144,186116,2,2,P|112:192|128:240,1,100,2|0,0:0|0:0,0:0:0:0:
160,272,186438,1,0,0:0:0:0:
208,288,186545,1,0,0:0:0:0:
256,272,186652,1,8,0:0:0:0:
384,272,186866,1,0,0:0:0:0:
384,272,186973,1,0,0:0:0:0:
448,192,187295,5,8,0:0:0:0:
480,160,187402,1,0,0:0:0:0:
496,112,187509,1,8,0:0:0:0:
480,64,187616,2,0,P|432:80|384:64,1,100
352,96,187938,1,0,1:0:0:0:
304,112,188045,1,0,0:0:0:0:
256,96,188152,1,0,0:0:0:0:
208,112,188259,1,0,0:0:0:0:
160,96,188366,1,8,0:0:0:0:
112,112,188473,1,0,0:0:0:0:
64,96,188581,2,0,L|32:80,3,25
32,128,188795,6,2,P|16:176|32:224,1,100,4|0,0:0|0:0,0:0:0:0:
112,288,189223,1,8,0:0:0:0:
152,320,189331,1,0,0:0:0:0:
200,336,189438,1,0,0:0:0:0:
248,320,189545,1,0,0:0:0:0:
288,288,189652,2,2,P|304:240|288:192,1,100,2|0,0:0|0:0,0:0:0:0:
240,224,189973,2,2,P|288:240|336:224,1,100,0|0,0:0|0:0,0:0:0:0:
368,240,190294,1,0,0:0:0:0:
464,176,190509,5,0,0:0:0:0:
368,96,190723,1,2,0:0:0:0:
320,112,190831,1,0,0:0:0:0:
272,96,190938,1,8,0:0:0:0:
224,112,191044,1,0,0:0:0:0:
176,96,191151,1,0,0:0:0:0:
128,112,191259,1,0,0:0:0:0:
80,80,191366,2,0,L|64:112,3,25,2|0|0|0,0:0|0:0|0:0|0:0,0:0:0:0:
80,128,191581,2,0,L|96:160,3,25
64,176,191795,2,0,L|48:224,1,50,8|0,0:0|0:0,0:0:0:0:
96,224,192009,2,0,L|112:272,1,50,0|0,1:0|1:0,0:0:0:0:
80,320,192223,22,0,P|128:336|176:320,1,100,4|2,1:0|0:0,0:0:0:0:
208,280,192545,1,0,0:0:0:0:
256,264,192652,1,8,0:0:0:0:
304,280,192759,1,0,0:0:0:0:
336,320,192866,1,0,0:0:0:0:
384,304,192973,2,2,P|400:256|384:208,1,100,2|0,0:0|0:0,0:0:0:0:
386,210,193295,1,0,0:0:0:0:
256,160,193509,1,8,0:0:0:0:
208,144,193616,1,0,0:0:0:0:
160,160,193723,1,0,0:0:0:0:
112,144,193830,2,2,P|64:144|16:160,2,100,2|0|0,0:0|0:0|0:0,0:0:0:0:
80,192,194366,6,0,L|112:240,3,50,8|0|0|0,0:0|0:0|0:0|0:0,0:0:0:0:
144,256,194795,2,0,L|176:272,3,25,2|0|0|0,0:0|0:0|0:0|0:0,0:0:0:0:
208,272,195009,2,0,L|240:272,3,25
272,272,195223,1,8,0:0:0:0:
304,224,195331,1,0,0:0:0:0:
352,208,195438,2,0,L|384:224,3,25
416,232,195651,5,0,0:0:0:0:
432,184,195759,1,0,0:0:0:0:
416,136,195866,1,2,0:0:0:0:
384,96,195973,1,0,0:0:0:0:
336,80,196081,1,8,0:0:0:0:
288,96,196188,1,0,0:0:0:0:
256,136,196295,1,0,0:0:0:0:
208,160,196402,2,0,P|160:176|112:160,1,100,2|0,0:0|0:0,0:0:0:0:
80,144,196723,2,2,P|96:192|80:240,1,100,0|8,0:0|0:0,0:0:0:0:
81,237,197044,1,0,0:0:0:0:
448,112,197366,6,0,L|464:144,3,25,2|0|0|0,0:0|0:0|0:0|0:0,0:0:0:0:
464,176,197581,2,0,L|464:208,3,25
448,240,197795,1,8,0:0:0:0:
416,280,197902,1,0,0:0:0:0:
368,296,198009,1,0,0:0:0:0:
320,280,198116,1,0,0:0:0:0:
320,192,198330,5,0,0:0:0:0:
272,208,198437,1,0,0:0:0:0:
224,192,198544,1,0,0:0:0:0:
176,208,198651,2,0,L|128:224,1,50,8|0,1:2|1:0,0:0:0:0:
128,192,198866,2,0,L|80:176,1,50,0|0,1:0|1:0,0:0:0:0:
80,128,199081,6,0,P|128:144|176:128,1,100,4|2,1:0|0:0,0:0:0:0:
208,96,199403,1,0,0:0:0:0:
256,80,199510,1,8,0:0:0:0:
304,96,199617,1,0,0:0:0:0:
336,136,199724,1,0,0:0:0:0:
384,144,199831,2,2,P|400:192|384:240,1,100,2|0,0:0|0:0,0:0:0:0:
352,272,200153,1,0,0:0:0:0:
304,288,200260,1,0,0:0:0:0:
256,272,200367,1,8,0:0:0:0:
128,272,200581,1,0,0:0:0:0:
128,272,200688,1,0,0:0:0:0:
64,192,201009,5,8,0:0:0:0:
32,160,201116,1,0,0:0:0:0:
16,112,201223,1,8,0:0:0:0:
32,64,201330,2,0,P|80:80|128:64,1,100
160,96,201652,1,0,1:0:0:0:
208,112,201759,1,0,0:0:0:0:
256,96,201866,1,0,0:0:0:0:
304,112,201973,1,0,0:0:0:0:
352,96,202080,1,8,0:0:0:0:
400,112,202187,1,0,0:0:0:0:
448,96,202295,2,0,L|480:80,3,25
464,144,202509,5,0,0:0:0:0:
432,256,202723,1,0,0:0:0:0:
400,296,202831,1,0,0:0:0:0:
352,312,202938,1,10,0:0:0:0:
304,296,203045,1,0,0:0:0:0:
272,256,203152,1,0,0:0:0:0:
224,232,203259,1,0,0:0:0:0:
192,192,203366,1,2,1:2:0:0:
144,176,203473,1,0,0:0:0:0:
96,192,203581,1,0,0:0:0:0:
48,176,203688,2,2,P|64:224|48:272,1,100,2|0,0:0|0:0,0:0:0:0:
112,320,204116,5,0,0:0:0:0:
160,336,204223,1,2,0:0:0:0:
192,296,204331,1,0,0:0:0:0:
240,280,204438,1,2,0:0:0:0:
288,296,204545,1,0,0:0:0:0:
320,336,204652,1,10,0:0:0:0:
368,312,204759,1,0,0:0:0:0:
400,272,204866,1,0,0:0:0:0:
448,256,204973,1,0,0:0:0:0:
464,208,205081,2,0,P|416:224|368:208,1,100,2|0,0:0|0:0,0:0:0:0:
352,176,205401,2,2,P|304:160|256:176,1,100,2|0,0:0|0:0,0:0:0:0:
258,174,205723,1,0,0:0:0:0:
192,288,205938,22,0,P|160:327|157:378,1,100,4|8,1:0|0:0,0:0:0:0:
320,96,206581,2,0,P|353:58|356:7,1,100
256,192,207223,1,10,0:0:0:0:
256,192,207438,5,0,0:0:0:0:
256,192,207545,1,0,0:0:0:0:
256,192,207652,2,2,B|184:152|184:232|112:192,2,150,2|0|2,0:0|0:0|0:0,0:0:0:0:
176,104,208509,37,0,0:0:0:0:
136,96,208616,1,0,0:0:0:0:
96,104,208723,1,2,0:0:0:0:
56,96,208830,1,0,0:0:0:0:
16,104,208937,2,0,L|0:112,3,18.7500007152558,2|0|0|0,0:0|0:0|0:0|0:0,0:0:0:0:
24,144,209151,2,0,L|8:160,3,18.7500007152558
48,176,209366,6,0,P|112:188|176:176,1,125,6|0,0:0|0:0,0:0:0:0:
208,136,209687,1,0,0:0:0:0:
264,120,209794,1,10,0:0:0:0:
320,136,209901,1,0,0:0:0:0:
368,160,210009,2,0,L|400:144,1,31.25
432,128,210116,2,2,P|444:192|432:256,1,125,2|2,0:0|0:0,0:0:0:0:
392,288,210437,1,0,0:0:0:0:
336,304,210544,1,0,0:0:0:0:
280,288,210651,1,10,0:0:0:0:
160,304,210866,1,0,0:0:0:0:
120,272,210973,1,0,0:0:0:0:
416,72,211294,5,10,0:0:0:0:
464,104,211401,1,0,0:0:0:0:
480,160,211509,1,8,0:0:0:0:
464,216,211616,2,0,P|427:269|373:306,1,125,0|0,0:0|0:0,0:0:0:0:
328,320,211937,1,6,0:0:0:0:
272,304,212044,1,0,0:0:0:0:
240,256,212151,1,0,0:0:0:0:
224,200,212259,1,0,0:0:0:0:
240,144,212366,1,12,0:0:0:0:
224,88,212473,1,0,0:0:0:0:
176,56,212580,1,0,0:0:0:0:
120,48,212687,1,0,0:0:0:0:
64,64,212794,6,2,P|52:128|64:192,1,125,6|0,0:0|0:0,0:0:0:0:
160,272,213223,1,8,0:0:0:0:
208,304,213330,1,0,0:0:0:0:
264,320,213437,1,0,0:0:0:0:
320,304,213544,1,0,0:0:0:0:
368,272,213651,2,2,P|380:208|368:144,1,125,2|0,0:0|0:0,0:0:0:0:
320,208,213973,2,2,P|384:220|448:208,1,125,0|0,0:0|0:0,0:0:0:0:
496,192,214294,1,0,0:0:0:0:
416,80,214509,5,6,0:0:0:0:
360,96,214616,1,0,0:0:0:0:
304,80,214723,1,0,0:0:0:0:
248,96,214830,1,0,0:0:0:0:
192,80,214937,1,8,0:0:0:0:
136,96,215044,2,0,P|82:132|45:186,1,125
96,208,215366,2,0,L|128:224,3,31.25,2|0|0|0,0:0|0:0|0:0|0:0,0:0:0:0:
160,208,215580,2,0,L|192:192,3,31.25
224,176,215794,1,8,0:0:0:0:
280,160,215901,1,0,0:0:0:0:
336,176,216009,1,8,0:0:0:0:
384,208,216116,1,8,0:0:0:0:
432,304,216223,22,0,P|368:316|304:304,1,125,6|0,0:0|0:0,0:0:0:0:
272,264,216544,1,0,0:0:0:0:
216,248,216651,1,10,0:0:0:0:
160,264,216759,1,0,0:0:0:0:
120,304,216866,2,0,L|88:320,1,31.25
48,336,216973,2,2,P|36:272|48:208,1,125
80,176,217294,1,0,0:0:0:0:
256,80,217509,1,10,0:0:0:0:
304,48,217616,1,0,0:0:0:0:
360,40,217723,1,0,0:0:0:0:
416,48,217830,2,2,P|496:80|512:112,2,125,2|0|0,0:0|0:0|0:0,0:0:0:0:
448,112,218366,5,10,0:0:0:0:
416,160,218473,1,0,0:0:0:0:
360,176,218580,1,0,0:0:0:0:
304,160,218687,1,0,0:0:0:0:
272,112,218794,2,0,L|240:128,3,31.25,6|0|0|0,0:0|0:0|0:0|0:0,0:0:0:0:
224,144,219009,2,0,L|192:160,3,31.25
160,160,219223,1,8,0:0:0:0:
112,192,219330,1,0,0:0:0:0:
96,248,219437,1,0,0:0:0:0:
112,304,219544,1,0,0:0:0:0:
160,336,219651,5,2,0:0:0:0:
216,320,219759,1,0,0:0:0:0:
272,336,219866,1,0,0:0:0:0:
328,320,219973,1,0,0:0:0:0:
384,336,220080,1,8,0:0:0:0:
440,320,220187,2,0,P|468:232|440:144,1,187.5,0|2,0:0|0:0,0:0:0:0:
64,64,220723,2,0,P|52:128|64:192,1,125,2|8,0:0|0:0,0:0:0:0:
96,224,221044,1,0,0:0:0:0:
432,80,221259,5,0,0:0:0:0:
432,80,221366,2,0,L|400:96,3,31.25,6|0|0|0,0:0|0:0|0:0|0:0,0:0:0:0:
384,128,221580,2,0,L|352:144,3,31.25
304,160,221794,1,8,0:0:0:0:
272,112,221901,1,0,0:0:0:0:
216,96,222009,1,0,0:0:0:0:
160,112,222116,1,0,0:0:0:0:
128,160,222223,1,2,0:0:0:0:
232,272,222437,5,0,0:0:0:0:
288,288,222544,1,0,0:0:0:0:
336,272,222651,2,0,L|400:288,1,62.5,8|8,0:0|0:0,0:0:0:0:
464,240,222866,2,0,L|403:255,1,62.5,8|8,0:0|0:0,0:0:0:0:
464,176,223080,6,0,P|400:188|336:176,1,125,6|0,0:0|0:0,0:0:0:0:
304,136,223401,1,0,0:0:0:0:
248,120,223508,1,10,0:0:0:0:
192,136,223615,1,0,0:0:0:0:
144,160,223723,2,0,L|112:144,1,31.25
80,128,223830,2,2,P|68:192|80:256,1,125,2|2,0:0|0:0,0:0:0:0:
120,288,224151,1,0,0:0:0:0:
176,304,224258,1,0,0:0:0:0:
232,288,224365,1,8,0:0:0:0:
352,304,224580,1,0,0:0:0:0:
392,272,224687,1,0,0:0:0:0:
96,72,225008,5,10,0:0:0:0:
48,104,225115,1,0,0:0:0:0:
32,160,225223,1,8,0:0:0:0:
48,216,225330,2,0,P|85:269|139:306,1,125
184,320,225651,1,6,0:0:0:0:
240,304,225758,1,0,0:0:0:0:
272,256,225865,1,0,0:0:0:0:
288,200,225973,1,0,0:0:0:0:
272,144,226080,1,12,0:0:0:0:
288,88,226187,1,0,0:0:0:0:
336,56,226294,1,0,0:0:0:0:
392,48,226401,1,0,0:0:0:0:
440,64,226509,5,6,0:0:0:0:
416,256,226723,1,0,0:0:0:0:
368,288,226830,1,0,0:0:0:0:
320,304,226937,2,0,L|272:320,3,31.25,10|0|0|0,0:0|0:0|0:0|0:0,0:0:0:0:
240,320,227151,1,0,0:0:0:0:
184,312,227259,1,0,0:0:0:0:
128,288,227366,1,2,0:0:0:0:
80,256,227473,1,0,0:0:0:0:
48,208,227580,1,0,0:0:0:0:
32,152,227687,2,2,P|20:80|32:16,2,125,2|0|0,0:0|0:0|0:0,0:0:0:0:
96,144,228223,5,6,0:0:0:0:
128,96,228330,1,0,0:0:0:0:
184,80,228437,1,2,0:0:0:0:
240,96,228544,1,0,0:0:0:0:
296,112,228651,1,10,0:0:0:0:
352,128,228759,1,0,0:0:0:0:
408,112,228866,2,0,L|440:96,3,31.25
440,144,229080,1,2,0:0:0:0:
208,208,229294,1,0,0:0:0:0:
176,248,229401,2,2,P|256:292|336:248,1,187.5
368,192,229937,22,0,P|348:264|368:336,1,150.000005722046,6|0,0:0|0:0,0:0:0:0:
144,192,230580,2,0,P|164:120|144:48,1,150.000005722046
256,192,231223,1,8,0:0:0:0:
256,192,231436,5,0,0:0:0:0:
256,192,231544,1,0,0:0:0:0:
256,192,231651,2,2,B|336:112|336:272|416:192,2,187.5,6|0|0,0:0|0:0|0:0,0:0:0:0:
96,192,232509,38,0,P|92:224|96:256,1,62.5,0|2,0:0|0:0,0:0:0:0:
128,272,232830,1,0,0:0:0:0:
168,280,232937,1,8,0:0:0:0:
208,272,233044,1,0,0:0:0:0:
240,256,233151,1,0,0:0:0:0:
280,248,233259,1,0,0:0:0:0:
320,256,233366,5,4,1:0:0:0:
256,192,233580,1,0,0:0:0:0:
256,144,233794,1,0,0:0:0:0:
256,144,233902,2,0,P|272:96|256:48,1,100,0|0,0:0|0:0,0:0:0:0:
297,215,234223,2,0,P|331:253|380:264,1,100,8|0,0:0|0:0,0:0:0:0:
214,216,234545,2,0,P|164:226|131:264,1,100,8|0,0:0|0:0,0:0:0:0:
132,261,234866,1,8,0:0:0:0:
448,256,235080,5,0,0:0:0:0:
400,240,235187,1,0,0:0:0:0:
352,256,235294,1,2,0:0:0:0:
304,240,235401,1,0,0:0:0:0:
256,256,235508,1,0,1:0:0:0:
256,256,235616,2,0,P|240:304|256:352,1,100,0|0,0:0|0:0,0:0:0:0:
200,159,235937,2,0,P|167:122|117:112,1,100,8|0,0:0|0:0,0:0:0:0:
311,160,236259,2,0,P|360:149|394:112,1,100,8|0,0:0|0:0,0:0:0:0:
393,114,236580,1,8,0:0:0:0:
64,112,236794,5,0,0:0:0:0:
112,128,236901,1,0,0:0:0:0:
160,112,237008,1,2,0:0:0:0:
208,128,237115,1,0,0:0:0:0:
256,112,237222,1,0,1:0:0:0:
256,112,237330,2,0,P|272:64|256:16,1,100,0|0,0:0|0:0,0:0:0:0:
325,232,237652,2,0,P|358:269|408:280,1,100,8|0,0:0|0:0,0:0:0:0:
186,232,237973,2,0,P|137:242|103:280,1,100,8|0,0:0|0:0,0:0:0:0:
104,277,238294,1,8,0:0:0:0:
144,128,238508,5,0,0:0:0:0:
192,112,238615,1,0,0:0:0:0:
240,128,238722,1,2,0:0:0:0:
280,160,238829,1,0,0:0:0:0:
304,208,238936,1,0,1:0:0:0:
256,320,239151,1,0,0:0:0:0:
256,320,239258,2,0,P|304:336|352:320,1,100
384,288,239579,1,0,0:0:0:0:
448,176,239794,2,0,L|496:208,3,50,0|0|0|0,0:0|0:0|0:0|0:0,0:0:0:0:
448,240,240223,21,4,1:0:0:0:
400,224,240330,1,0,0:0:0:0:
352,240,240437,1,2,0:0:0:0:
304,224,240544,1,0,0:0:0:0:
256,240,240651,1,0,1:0:0:0:
256,240,240759,2,0,P|240:288|256:336,1,100,0|0,0:0|0:0,0:0:0:0:
214,168,241080,2,0,P|180:130|131:120,1,100,8|0,0:0|0:0,0:0:0:0:
297,168,241402,2,0,P|347:157|380:120,1,100,8|0,0:0|0:0,0:0:0:0:
379,122,241723,1,8,0:0:0:0:
64,128,241937,5,0,0:0:0:0:
112,144,242044,1,0,0:0:0:0:
160,128,242151,1,2,0:0:0:0:
208,144,242258,1,0,0:0:0:0:
256,128,242365,1,0,1:0:0:0:
256,128,242473,2,0,P|272:80|256:32,1,100,0|0,0:0|0:0,0:0:0:0:
311,224,242794,2,0,P|344:261|394:272,1,100,8|0,0:0|0:0,0:0:0:0:
200,223,243116,2,0,P|151:234|117:272,1,100,8|0,0:0|0:0,0:0:0:0:
118,269,243437,1,8,0:0:0:0:
448,272,243651,5,0,0:0:0:0:
400,256,243758,1,0,0:0:0:0:
352,272,243865,1,2,0:0:0:0:
304,256,243972,1,0,0:0:0:0:
256,272,244079,1,0,1:0:0:0:
256,272,244187,2,0,P|240:320|256:368,1,100,0|0,0:0|0:0,0:0:0:0:
186,152,244509,2,0,P|153:114|103:104,1,100,8|0,0:0|0:0,0:0:0:0:
325,152,244830,2,0,P|374:141|408:104,1,100,8|0,0:0|0:0,0:0:0:0:
407,106,245151,1,8,0:0:0:0:
144,112,245366,5,0,0:0:0:0:
192,96,245473,1,0,0:0:0:0:
240,112,245580,1,2,0:0:0:0:
280,144,245687,1,0,0:0:0:0:
296,192,245794,1,0,1:0:0:0:
280,240,245901,1,0,0:0:0:0:
256,320,246116,2,0,P|208:336|160:320,1,100
128,288,246437,1,0,0:0:0:0:
64,208,246651,2,0,L|16:176,3,50,0|0|0|0,0:0|0:0|0:0|0:0,0:0:0:0:
64,144,247080,21,4,1:0:0:0:
112,160,247187,1,0,0:0:0:0:
160,144,247294,1,2,0:0:0:0:
208,160,247401,1,0,0:0:0:0:
256,144,247508,1,0,1:0:0:0:
256,144,247616,2,0,P|272:96|256:48,1,100,0|0,0:0|0:0,0:0:0:0:
297,215,247937,2,0,P|331:253|380:264,1,100,8|0,0:0|0:0,0:0:0:0:
214,216,248259,2,0,P|164:226|131:264,1,100,8|0,0:0|0:0,0:0:0:0:
132,261,248580,1,8,0:0:0:0:
448,256,248794,5,0,0:0:0:0:
400,240,248901,1,0,0:0:0:0:
352,256,249008,1,2,0:0:0:0:
304,240,249115,1,0,0:0:0:0:
256,256,249222,1,0,1:0:0:0:
256,256,249330,2,0,P|240:304|256:352,1,100,0|0,0:0|0:0,0:0:0:0:
200,159,249651,2,0,P|167:122|117:112,1,100,8|0,0:0|0:0,0:0:0:0:
311,160,249973,2,0,P|360:149|394:112,1,100,8|0,0:0|0:0,0:0:0:0:
393,114,250294,1,8,0:0:0:0:
64,112,250508,5,0,0:0:0:0:
112,128,250615,1,0,0:0:0:0:
160,112,250722,1,2,0:0:0:0:
208,128,250829,1,0,0:0:0:0:
256,112,250936,1,0,1:0:0:0:
256,112,251044,2,0,P|272:64|256:16,1,100,0|0,0:0|0:0,0:0:0:0:
325,232,251366,2,0,P|358:269|408:280,1,100,8|0,0:0|0:0,0:0:0:0:
186,232,251687,2,0,P|137:242|103:280,1,100,8|0,0:0|0:0,0:0:0:0:
104,277,252008,1,8,0:0:0:0:
120,96,252223,5,0,0:0:0:0:
168,80,252330,1,0,0:0:0:0:
216,96,252437,1,2,0:0:0:0:
256,128,252544,1,0,0:0:0:0:
272,176,252651,1,0,1:0:0:0:
256,224,252758,1,0,0:0:0:0:
240,272,252866,1,0,0:0:0:0:
256,320,252973,2,0,P|304:336|352:320,1,100
384,288,253294,1,0,0:0:0:0:
448,176,253508,1,0,0:0:0:0:
448,176,253616,1,0,0:0:0:0:
448,176,253723,2,0,L|496:208,1,50
448,240,253937,21,4,1:0:0:0:
400,224,254044,1,0,0:0:0:0:
352,240,254151,1,2,0:0:0:0:
304,224,254258,1,0,0:0:0:0:
256,240,254365,1,0,1:0:0:0:
256,240,254473,2,0,P|240:288|256:336,1,100,0|0,0:0|0:0,0:0:0:0:
214,168,254794,2,0,P|180:130|131:120,1,100,8|0,0:0|0:0,0:0:0:0:
297,168,255116,2,0,P|347:157|380:120,1,100,8|0,0:0|0:0,0:0:0:0:
379,122,255437,1,8,0:0:0:0:
64,128,255651,5,0,0:0:0:0:
112,144,255758,1,0,0:0:0:0:
160,128,255865,1,2,0:0:0:0:
208,144,255972,1,0,0:0:0:0:
256,128,256079,1,0,1:0:0:0:
256,128,256187,2,0,P|272:80|256:32,1,100,0|0,0:0|0:0,0:0:0:0:
311,224,256508,2,0,P|344:261|394:272,1,100,8|0,0:0|0:0,0:0:0:0:
200,223,256830,2,0,P|151:234|117:272,1,100,8|0,0:0|0:0,0:0:0:0:
118,269,257151,1,8,0:0:0:0:
448,272,257365,5,0,0:0:0:0:
400,256,257472,1,0,0:0:0:0:
352,272,257579,1,2,0:0:0:0:
304,256,257686,1,0,0:0:0:0:
256,272,257793,1,0,1:0:0:0:
256,272,257901,2,0,P|240:320|256:368,1,100,0|0,0:0|0:0,0:0:0:0:
186,152,258223,2,0,P|153:114|103:104,1,100,8|0,0:0|0:0,0:0:0:0:
325,152,258544,2,0,P|374:141|408:104,1,100,8|0,0:0|0:0,0:0:0:0:
407,106,258865,1,8,0:0:0:0:
256,192,259080,12,0,260151,0:0:0:0:
184,240,260366,21,0,0:0:0:0:
136,224,260473,1,0,0:0:0:0:
96,192,260580,1,0,0:0:0:0:
80,144,260687,1,0,0:0:0:0:
96,96,260794,6,0,P|144:80|192:96,1,100,4|8,1:0|0:0,0:0:0:0:
224,136,261116,1,0,0:0:0:0:
272,152,261223,1,0,1:0:0:0:
320,136,261330,1,0,0:0:0:0:
352,96,261437,1,0,0:0:0:0:
400,80,261544,2,0,P|448:96|496:80,1,100,2|0,0:0|0:0,0:0:0:0:
464,48,261866,2,0,P|448:96|464:144,1,100
432,240,262294,2,0,L|464:288,1,50
416,288,262508,6,0,P|368:304|320:288,1,100,0|8,1:0|0:0,0:0:0:0:
288,248,262830,1,0,0:0:0:0:
240,232,262937,1,0,1:0:0:0:
192,248,263044,1,0,0:0:0:0:
160,288,263151,1,0,0:0:0:0:
112,304,263258,2,0,P|64:288|16:304,1,100,2|0,0:0|0:0,0:0:0:0:
48,336,263580,2,0,P|64:288|48:240,1,100
80,144,264008,2,0,L|48:96,1,50
80,64,264223,6,0,P|128:80|176:64,1,100,0|8,1:0|0:0,0:0:0:0:
224,48,264544,1,0,0:0:0:0:
272,64,264651,1,0,1:0:0:0:
320,48,264758,1,0,0:0:0:0:
368,64,264866,1,0,0:0:0:0:
416,48,264973,2,0,P|400:96|416:144,1,100,2|0,0:0|0:0,0:0:0:0:
432,160,265294,2,0,P|448:208|432:256,1,100
433,253,265616,2,0,L|482:271,2,50,0|0|0,0:0|0:0|0:0,0:0:0:0:
432,320,265937,6,0,P|384:304|336:320,1,100,0|8,1:0|0:0,0:0:0:0:
288,336,266258,1,0,0:0:0:0:
240,320,266365,1,0,1:0:0:0:
192,336,266472,1,0,0:0:0:0:
144,320,266580,1,0,0:0:0:0:
96,336,266687,2,0,P|112:288|96:240,1,100,2|0,0:0|0:0,0:0:0:0:
112,208,267008,2,0,L|64:192,5,50,0|0|0|0|0|0,0:0|0:0|0:0|0:0|0:0|0:0,0:0:0:0:
32,224,267651,21,4,1:0:0:0:
48,64,267866,1,8,0:0:0:0:
96,80,267973,1,0,0:0:0:0:
144,64,268080,1,0,1:0:0:0:
176,96,268187,1,0,0:0:0:0:
224,112,268294,1,0,0:0:0:0:
272,96,268401,2,0,P|288:144|272:192,1,100,2|0,0:0|0:0,0:0:0:0:
256,208,268723,2,0,P|304:192|352:208,1,100,0|0,0:0|1:0,0:0:0:0:
416,144,269151,2,0,L|464:112,1,50
480,160,269366,5,0,1:0:0:0:
464,320,269581,1,8,0:0:0:0:
416,304,269688,1,0,0:0:0:0:
368,320,269795,1,0,1:0:0:0:
336,288,269902,1,0,0:0:0:0:
288,272,270009,1,0,0:0:0:0:
240,288,270116,2,0,P|224:240|240:192,1,100,2|0,0:0|0:0,0:0:0:0:
256,176,270438,2,0,P|208:192|161:173,1,100,0|0,0:0|1:0,0:0:0:0:
96,240,270865,2,0,L|48:272,1,50
32,224,271079,5,0,1:0:0:0:
32,64,271294,1,8,0:0:0:0:
64,96,271401,1,0,0:0:0:0:
112,112,271508,1,0,1:0:0:0:
160,96,271615,1,0,0:0:0:0:
208,112,271722,1,0,0:0:0:0:
256,96,271829,2,0,P|240:144|256:192,1,100,2|0,0:0|0:0,0:0:0:0:
288,160,272151,2,0,P|336:144|384:160,1,100,0|0,0:0|1:0,0:0:0:0:
448,112,272579,2,0,L|496:96,1,50
256,192,272794,12,0,273651,0:0:0:0:
288,256,273865,21,8,0:0:0:0:
336,272,273972,1,0,0:0:0:0:
384,256,274079,1,0,0:0:0:0:
416,216,274187,1,2,0:0:0:0:
416,96,274401,1,0,0:0:0:0:
416,96,274508,6,0,P|368:80|320:96,1,100,4|8,1:0|0:0,0:0:0:0:
288,136,274830,1,0,0:0:0:0:
240,152,274937,1,0,1:0:0:0:
192,136,275044,1,0,0:0:0:0:
160,96,275151,1,0,0:0:0:0:
112,80,275258,2,0,P|64:96|16:80,1,100,2|0,0:0|0:0,0:0:0:0:
48,48,275580,2,0,P|64:96|48:144,1,100
80,240,276008,2,0,L|48:288,1,50
96,288,276222,6,0,P|144:304|192:288,1,100,0|8,1:0|0:0,0:0:0:0:
224,248,276544,1,0,0:0:0:0:
272,232,276651,1,0,1:0:0:0:
320,248,276758,1,0,0:0:0:0:
352,288,276865,1,0,0:0:0:0:
400,304,276972,2,0,P|448:288|496:304,1,100,2|0,0:0|0:0,0:0:0:0:
464,336,277294,2,0,P|448:288|464:240,1,100
432,144,277722,2,0,L|464:96,1,50
432,64,277937,6,0,P|384:80|336:64,1,100,0|8,1:0|0:0,0:0:0:0:
288,48,278258,1,0,0:0:0:0:
240,64,278365,1,0,1:0:0:0:
192,48,278472,1,0,0:0:0:0:
144,64,278580,1,0,0:0:0:0:
96,48,278687,2,0,P|112:96|96:144,1,100,2|0,0:0|0:0,0:0:0:0:
80,160,279008,2,0,P|64:208|80:256,1,100
79,253,279330,2,0,L|29:271,2,50,0|0|0,0:0|0:0|0:0,0:0:0:0:
80,320,279651,6,0,P|128:304|176:320,1,100,0|8,1:0|0:0,0:0:0:0:
224,336,279972,1,0,0:0:0:0:
272,320,280079,1,0,1:0:0:0:
320,336,280186,1,0,0:0:0:0:
368,320,280294,1,0,0:0:0:0:
416,336,280401,2,0,P|400:288|416:240,1,100,2|0,0:0|0:0,0:0:0:0:
400,208,280722,2,0,L|448:192,5,50,0|0|0|0|0|0,0:0|0:0|0:0|0:0|0:0|0:0,0:0:0:0:
480,224,281365,21,4,1:0:0:0:
464,64,281580,1,8,0:0:0:0:
416,80,281687,1,0,0:0:0:0:
368,64,281794,1,0,1:0:0:0:
336,96,281901,1,0,0:0:0:0:
288,112,282008,1,0,0:0:0:0:
240,96,282115,2,0,P|224:144|240:192,1,100,2|0,0:0|0:0,0:0:0:0:
256,208,282437,2,0,P|208:192|160:208,1,100,0|0,0:0|1:0,0:0:0:0:
96,144,282865,2,0,L|48:112,1,50
32,160,283080,5,0,1:0:0:0:
48,320,283295,1,8,0:0:0:0:
96,304,283402,1,0,0:0:0:0:
144,320,283509,1,0,1:0:0:0:
176,288,283616,1,0,0:0:0:0:
224,272,283723,1,0,0:0:0:0:
272,288,283830,2,0,P|288:240|272:192,1,100,2|0,0:0|0:0,0:0:0:0:
256,176,284152,2,0,P|304:192|351:173,1,100,0|0,0:0|1:0,0:0:0:0:
416,240,284580,2,0,L|464:272,1,50
480,224,284795,37,0,1:0:0:0:
480,136,285008,1,8,0:0:0:0:
448,96,285116,1,0,0:0:0:0:
400,80,285223,1,0,0:0:0:0:
352,96,285330,1,0,0:0:0:0:
320,136,285437,1,2,0:0:0:0:
288,184,285544,1,0,0:0:0:0:
240,208,285651,1,0,1:0:0:0:
192,224,285758,1,0,0:0:0:0:
144,208,285866,1,0,0:0:0:0:
96,224,285973,1,0,0:0:0:0:
48,208,286080,2,0,L|32:160,3,50,0|0|0|0,0:0|0:0|0:0|0:0,0:0:0:0:
256,192,286508,12,0,288008,0:0:0:0:
240,336,288223,5,4,1:0:0:0:
296,248,288437,1,0,0:0:0:0:
216,144,288651,1,2,0:0:0:0:
272,48,288865,1,0,0:0:0:0:
240,336,289294,6,0,P|80:272|112:144,1,325,2|0,0:0|0:0,0:0:0:0:
89,96,290794,2,0,P|140:152|235:180,1,175,2|0,0:0|0:0,0:0:0:0:
256,384,291651,2,0,P|280:312|256:216,1,175,2|0,0:0|0:0,0:0:0:0:
422,96,292508,2,0,P|347:111|276:180,1,175,2|0,0:0|0:0,0:0:0:0:
277,177,293365,1,2,0:0:0:0:
304,320,294223,6,0,P|412:308|432:80,1,375,2|2,0:0|0:0,0:0:0:0:
436,83,296806,1,0,0:0:0:0:
436,83,296889,1,0,0:0:0:0:
256,192,296996,12,0,300317,0:0:0:0:
