osu file format v13

[General]
AudioFilename: Frozen World.mp3
AudioLeadIn: 0
PreviewTime: 82530
Countdown: 0
SampleSet: None
StackLeniency: 0.7
Mode: 0
LetterboxInBreaks: 1
WidescreenStoryboard: 0

[Editor]
Bookmarks: 68823
DistanceSpacing: 1
BeatDivisor: 8
GridSize: 4
TimelineZoom: 2.799999

[Metadata]
Title:Frozen World
TitleUnicode:Frozen World
Artist:MuryokuP
ArtistUnicode:無力P
Creator:captin1
Version:Absolute Zero
Source:
Tags:resonance
BeatmapID:444565
BeatmapSetID:186032

[Difficulty]
HPDrainRate:6
CircleSize:4
OverallDifficulty:8
ApproachRate:9.3
SliderMultiplier:3
SliderTickRate:1

[Events]
//Background and Video events
0,0,"Konachan.com - 156387 2girls blue_eyes gloves headphones lowlight_kirilenko original scarf snow weapon white_hair yellow_eyes.jpg",0,0
//Break Periods
2,120452,133412
//Storyboard Layer 0 (Background)
//Storyboard Layer 1 (Fail)
//Storyboard Layer 2 (Pass)
//Storyboard Layer 3 (Foreground)
//Storyboard Sound Samples
//Background Colour Transformations
3,100,163,162,255

[TimingPoints]
41395,428.571428571429,4,2,1,40,1,0
41395,-100,4,2,1,80,0,0
68823,-100,4,2,1,90,0,0
82538,-83.3333333333333,4,2,1,100,0,1
103109,-133.333333333333,4,2,1,80,0,0
105680,-100,4,2,1,80,0,0
106538,-200,4,2,2,80,0,0
111680,-100,4,2,2,80,0,0
112538,-200,4,2,2,80,0,0
115538,-100,4,2,2,80,0,0
116395,-200,4,2,2,80,0,0
118538,-100,4,2,2,80,0,0
133966,-200,4,2,2,50,0,0
147680,-166.666666666667,4,2,2,60,0,0
157966,-133.333333333333,4,2,2,70,0,0
163645,-117.647058823529,4,2,2,80,0,0
167930,-100,4,2,2,40,0,0
171680,-100,4,2,1,80,0,0
185395,-83.3333333333333,4,2,1,100,0,1
205966,-83.3333333333333,4,2,1,80,0,0
209395,-76.9230769230769,4,2,1,100,0,1
229966,-100,4,2,1,80,0,0

[Colours]
Combo1 : 228,71,3
Combo2 : 192,192,192
Combo3 : 0,255,255
Combo4 : 89,0,179

[HitObjects]
256,192,34538,8,0,41180,0:0:0:0:
104,112,41396,5,4,1:0:0:0:
104,112,41503,1,0,0:0:0:0:
104,112,41610,2,0,P|137:141|236:128,1,150,0|8,0:0|0:0,0:0:0:0:
312,52,41931,2,0,P|303:96|312:140,1,75
384,184,42146,2,0,P|352:208|244:204,1,150
246,205,42467,2,0,L|256:296,1,75
334,325,42681,2,0,P|395:283|469:281,1,150,8|0,0:0|0:0,0:0:0:0:
469,282,43003,1,0,0:0:0:0:
508,208,43110,5,0,1:0:0:0:
508,208,43217,2,0,L|488:136,2,75
400,224,43538,1,8,0:0:0:0:
400,224,43646,2,0,P|356:236|324:268,1,75
220,336,43860,2,0,P|248:284|232:196,1,150
136,196,44181,2,0,L|216:164,1,75
264,80,44396,2,0,P|276:128|296:152,1,75,8|0,0:0|0:0,0:0:0:0:
396,204,44610,2,0,P|384:156|364:132,1,75
184,92,44824,6,0,P|140:84|108:60,1,75,0|0,1:0|0:0,0:0:0:0:
12,72,45038,2,0,P|32:116|32:152,1,75
16,256,45253,1,8,0:0:0:0:
28,304,45360,2,0,P|72:316|104:312,1,75
200,352,45574,2,0,P|196:292|244:216,1,150
328,232,45896,2,0,L|276:304,1,75
352,352,46110,1,8,0:0:0:0:
400,296,46217,1,0,0:0:0:0:
472,312,46324,2,0,L|508:236,1,75
400,168,46538,5,0,1:0:0:0:
400,168,46646,1,0,0:0:0:0:
400,168,46753,2,0,P|356:144|336:108,1,75
268,36,46967,2,0,P|264:84|248:112,1,75,8|0,0:0|0:0,0:0:0:0:
152,160,47181,1,0,0:0:0:0:
168,204,47288,2,0,P|212:216|240:240,1,75,0|0,0:0|1:0,0:0:0:0:
128,352,47502,1,2,0:3:0:0:
196,296,47610,2,0,L|284:324,1,75,0|0,1:0|0:0,0:0:0:0:
292,160,47824,2,0,L|334:242,1,75,8|0,1:2|0:0,0:0:0:0:
236,336,48038,2,0,L|327:345,1,75,2|0,1:3|0:0,0:0:0:0:
424,324,48253,6,0,B|434:306|428:288|428:288|456:272|456:272|444:224|464:192,1,150,4|0,1:0|0:0,0:0:0:0:
396,88,48574,1,0,0:0:0:0:
396,88,48681,2,0,P|392:128|376:168,1,75,8|0,0:0|0:0,0:0:0:0:
340,264,48896,1,0,0:0:0:0:
296,248,49003,2,0,P|252:212|260:112,1,150
180,20,49324,2,0,L|184:100,1,75
120,176,49538,2,0,P|80:192|40:236,1,75,8|0,0:0|0:0,0:0:0:0:
132,288,49753,2,0,P|176:284|212:292,1,75
296,368,49967,5,0,1:0:0:0:
296,368,50074,2,0,P|324:316|356:296,2,75
236,276,50396,1,8,0:0:0:0:
236,228,50503,2,0,P|264:200|304:188,1,75
364,284,50717,2,0,P|408:248|416:160,1,150
312,108,51038,2,0,L|224:80,1,75
332,28,51253,2,0,P|380:44|476:12,1,150,8|0,0:0|0:0,0:0:0:0:
471,15,51574,1,0,0:0:0:0:
472,128,51681,6,0,B|456:136|436:128|436:128|420:152|420:152|372:144|344:188,1,150,0|0,1:0|0:0,0:0:0:0:
364,300,52003,1,0,0:0:0:0:
364,300,52110,2,0,P|312:312|272:304,1,75,8|0,0:0|0:0,0:0:0:0:
232,192,52324,1,0,0:0:0:0:
176,240,52431,2,0,P|152:292|180:384,1,150
60,319,52753,2,0,L|68:227,1,75
34,148,52967,2,0,L|42:56,1,75,8|0,1:2|0:0,0:0:0:0:
164,95,53181,2,0,L|172:3,1,75,0|0,1:0|0:0,0:0:0:0:
288,56,53396,5,0,1:0:0:0:
324,120,53503,2,0,P|356:144|400:148,1,75,0|0,1:0|0:0,0:0:0:0:
384,296,53717,2,0,L|356:224,1,75,0|8,1:0|0:0,0:0:0:0:
196,200,53930,2,0,L|268:172,1,75,0|0,1:0|0:0,0:0:0:0:
272,304,54146,1,0,1:0:0:0:
208,340,54253,2,0,P|152:344|124:332,1,75,0|0,1:0|0:0,0:0:0:0:
104,180,54467,2,0,L|136:268,1,75,0|0,1:0|0:0,0:0:0:0:
176,124,54680,2,0,L|150:53,1,75,8|0,1:2|0:0,0:0:0:0:
248,32,54896,2,0,L|284:16,3,37.5,0|0|0|0,1:0|1:0|1:0|1:0,0:0:0:0:
264,64,55110,6,0,B|252:92|268:120|268:120|332:128|348:184,1,150,4|0,1:0|0:0,0:0:0:0:
396,248,55430,1,0,0:0:0:0:
396,248,55538,2,0,P|360:240|323:245,1,75,8|0,0:0|0:0,0:0:0:0:
412,364,55752,1,0,0:0:0:0:
340,332,55859,2,0,P|276:324|200:360,1,150
96,304,56180,2,0,P|152:284|172:268,1,75
248,136,56395,2,0,L|160:128,1,75,8|0,0:0|0:0,0:0:0:0:
72,300,56609,2,0,P|128:280|148:264,1,75
300,144,56823,5,0,1:0:0:0:
344,176,56930,2,0,L|360:256,1,75
228,248,57145,1,0,0:0:0:0:
248,300,57252,2,0,P|228:340|192:368,2,75,8|0|0,0:0|0:0|0:0,0:0:0:0:
126,253,57573,2,0,P|142:325|205:360,1,150
336,304,57895,2,0,P|372:336|388:372,1,75
512,236,58109,2,0,L|432:224,1,75,8|0,0:0|0:0,0:0:0:0:
272,156,58323,1,0,0:0:0:0:
244,88,58430,1,0,0:0:0:0:
168,96,58538,6,0,P|120:100|88:92,1,75,0|0,1:0|0:0,0:0:0:0:
176,192,58752,2,0,L|184:268,1,75
308,340,58966,1,8,0:0:0:0:
360,280,59073,2,0,L|352:205,1,75
344,88,59288,2,0,P|404:136|480:116,1,150
420,64,59609,2,0,L|432:156,1,75
272,156,59823,2,0,P|232:148|184:156,1,75,8|0,0:0|0:0,0:0:0:0:
48,40,60038,2,0,P|64:80|60:124,1,75
64,300,60252,6,0,L|96:224,1,75,0|0,1:0|0:0,0:0:0:0:
220,220,60466,2,0,P|272:236|304:232,1,75
288,96,60680,1,8,0:0:0:0:
216,64,60788,2,0,P|196:120|180:136,1,75
156,288,61002,2,0,B|252:328,1,75,0|0,0:0|1:0,0:0:0:0:
340,240,61216,2,0,B|364:236|364:236|420:260,1,75,2|0,0:3|1:0,0:0:0:0:
232,168,61430,1,0,0:0:0:0:
232,168,61538,2,0,B|208:172|208:172|152:148,1,75,0|0,1:2|0:0,0:0:0:0:
276,296,61752,2,0,L|312:372,1,75,2|0,1:3|0:0,0:0:0:0:
436,180,61966,6,0,B|420:152|388:144|388:144|340:180|284:152,1,150,4|0,1:0|0:0,0:0:0:0:
304,160,62288,1,0,0:0:0:0:
332,84,62395,2,0,P|384:64|416:68,2,75,8|0|0,0:0|0:0|0:0,0:0:0:0:
240,24,62716,2,0,P|232:80|160:144,1,150
172,252,63038,2,0,L|240:200,1,75
120,64,63252,2,0,L|60:109,1,75,8|0,0:0|0:0,0:0:0:0:
16,228,63466,1,0,0:0:0:0:
51,286,63573,1,0,0:0:0:0:
24,348,63680,5,0,1:0:0:0:
24,348,63788,1,0,0:0:0:0:
24,348,63895,2,0,P|76:368|104:368,1,75
176,244,64109,1,8,0:0:0:0:
212,232,64216,2,0,P|252:264|272:296,1,75
140,328,64430,2,0,P|100:292|100:196,1,150
136,80,64752,2,0,P|152:124|172:148,1,75
356,190,64966,2,0,L|308:248,1,75,8|0,0:0|0:0,0:0:0:0:
176,80,65180,2,0,P|192:124|212:148,1,75
416,200,65395,5,4,1:2:0:0:
128,276,65609,1,4,1:2:0:0:
324,48,65823,2,0,P|312:92|280:128,1,75,8|8,0:0|0:0,0:0:0:0:
92,164,66038,1,4,1:2:0:0:
204,192,66145,1,0,1:0:0:0:
244,300,66252,1,4,1:2:0:0:
236,16,66466,1,0,1:0:0:0:
8,176,66680,2,0,L|60:260,1,75,8|0,0:0|0:0,0:0:0:0:
168,76,66895,2,0,L|128:12,1,75,0|0,1:0|1:0,0:0:0:0:
240,112,67109,5,0,1:0:0:0:
276,112,67216,1,0,0:0:0:0:
312,112,67323,2,0,L|392:92,1,75
204,200,67538,2,0,P|164:212|132:240,1,75,8|0,0:0|0:0,0:0:0:0:
320,340,67752,1,0,0:0:0:0:
328,280,67859,1,0,0:0:0:0:
272,256,67966,2,0,P|234:272|196:272,1,75
380,172,68180,2,0,L|444:224,1,75
232,348,68395,2,0,L|196:360,4,37.5,8|0|0|0|0,0:0|0:0|0:0|0:0|0:0,0:0:0:0:
88,248,68716,1,0,0:0:0:0:
28,152,68823,6,0,P|20:92|92:24,1,150,0|0,1:0|0:0,0:0:0:0:
128,144,69145,1,0,0:0:0:0:
143,198,69252,2,0,P|179:213|230:217,2,75,8|0|0,0:0|0:0|0:0,0:0:0:0:
296,52,69573,1,0,0:0:0:0:
348,60,69680,2,0,P|360:100|360:132,1,75,0|0,1:0|0:0,1:0:0:0:
280,300,69895,2,0,P|284:258|297:229,1,75
460,132,70109,2,0,B|476:152|456:172|456:172|484:192|484:192|464:228|508:284,1,150,8|0,0:0|0:0,0:0:0:0:
376,328,70430,1,0,0:0:0:0:
376,328,70538,6,0,L|296:368,1,75,0|0,1:0|0:0,0:0:0:0:
176,340,70752,2,0,L|96:380,1,75
88,176,70966,2,0,L|144:248,1,75,8|0,0:0|0:0,0:0:0:0:
148,80,71180,2,0,L|204:152,1,75
248,244,71395,1,0,1:0:0:0:
248,244,71502,2,0,P|288:224|308:132,1,112.5
296,112,71716,2,0,P|332:80|372:72,1,75,0|8,0:0|0:0,0:0:0:0:
472,136,71930,1,0,0:0:0:0:
376,224,72038,2,0,P|408:244|448:252,1,75
232,160,72252,6,0,P|184:144|140:148,1,75,0|0,1:0|0:0,0:0:0:0:
208,36,72466,1,0,0:0:0:0:
244,24,72573,1,0,0:0:0:0:
280,24,72680,1,8,0:0:0:0:
312,40,72788,2,0,P|356:52|400:36,1,75
304,196,73002,1,0,0:0:0:0:
324,288,73109,2,0,L|364:368,1,75,0|0,1:0|0:0,0:0:0:0:
232,260,73323,2,0,L|188:216,2,37.5
384,228,73538,1,8,0:0:0:0:
448,156,73645,2,0,P|467:80|408:28,1,150
294,121,73966,5,0,1:0:0:0:
240,148,74073,1,0,0:0:0:0:
186,126,74180,2,0,L|125:79,1,75
24,160,74395,1,8,0:0:0:0:
88,200,74502,2,0,L|104:284,1,75
228,324,74716,2,0,P|280:324|336:280,1,112.5
300,244,74930,2,0,P|252:264|217:326,1,112.5
184,336,75145,1,0,0:0:0:0:
108,324,75252,2,0,L|64:300,3,37.5,8|0|0|0,1:2|0:0|0:0|0:0,0:0:0:0:
144,368,75466,2,0,L|156:276,1,75,0|0,1:0|0:0,0:0:0:0:
104,160,75680,6,0,B|116:168|116:168|192:160,1,75,4|0,1:0|0:0,0:0:0:0:
252,40,75895,2,0,B|264:48|264:48|340:40,1,75,0|0,0:0|0:0,0:0:0:0:
292,204,76109,2,8,B|304:196|304:196|380:204,1,75,8|0,0:0|0:0,0:0:0:0:
456,304,76323,1,0,0:0:0:0:
384,276,76430,2,0,P|352:284|312:312,1,75,0|0,0:0|1:0,0:0:0:0:
440,228,76645,2,0,P|440:176|336:132,1,150
224,256,76966,1,8,0:0:0:0:
160,308,77073,2,0,L|80:288,1,75
80,80,77288,2,0,L|152:98,1,75,0|0,0:0|1:0,0:0:0:0:
256,220,77466,6,0,L|288:176,1,50
268,152,77609,2,0,L|272:68,1,75
136,188,77823,2,0,P|144:236|168:264,1,75,8|0,0:0|0:0,0:0:0:0:
380,304,78038,1,0,0:0:0:0:
448,360,78145,2,0,L|464:276,1,75,0|0,0:0|1:0,0:0:0:0:
376,192,78359,2,0,L|252:148,1,112.5
248,96,78573,2,0,L|328:128,1,75,0|8,0:0|0:0,0:0:0:0:
404,52,78788,2,0,L|280:8,1,112.5
236,24,79002,1,0,0:0:0:0:
160,68,79109,6,0,B|168:104|168:104|200:144,1,75,4|0,1:0|0:0,0:0:0:0:
164,304,79323,2,0,B|156:268|156:268|124:228,1,75,0|0,0:0|0:0,0:0:0:0:
320,200,79538,2,0,P|360:192|400:196,1,75,8|0,0:0|0:0,0:0:0:0:
340,328,79752,1,0,0:0:0:0:
292,344,79859,1,0,0:0:0:0:
264,304,79966,2,0,L|240:216,1,75,0|0,1:0|0:0,0:0:0:0:
84,144,80180,2,0,P|112:212|212:228,1,150,0|8,1:0|1:2,0:0:0:0:
236,120,80502,1,0,0:0:0:0:
264,36,80609,2,0,B|232:12|232:12|180:4,1,75,0|0,1:0|0:0,0:0:0:0:
368,44,80823,6,0,B|392:52|388:80|388:80|412:76|412:76|432:120|480:120,1,150,0|0,1:0|1:0,0:0:0:0:
420,260,81145,1,0,0:0:0:0:
340,328,81252,2,0,L|248:352,1,75,8|0,1:2|1:0,0:0:0:0:
172,56,81466,2,0,L|264:32,1,75,0|0,1:0|1:0,0:0:0:0:
256,256,81680,5,4,1:2:0:0:
160,264,81788,2,0,L|96:304,1,75
32,192,82002,1,4,1:2:0:0:
92,116,82109,2,0,L|89:40,1,75,8|0,0:0|0:0,0:0:0:0:
252,136,82323,2,0,L|318:171,1,75,4|0,1:2|0:0,0:0:0:0:
160,264,82538,6,0,B|144:308|120:312|120:312|52:268|-8:324,1,179.999994506836,4|0,1:0|0:0,0:0:0:0:
124,168,82859,1,0,0:0:0:0:
132,80,82966,1,8,0:0:0:0:
204,132,83073,2,0,L|288:188,1,89.9999972534181
420,320,83288,2,0,P|320:308|256:364,1,179.999994506836
496,364,83609,2,0,P|504:312|488:268,1,89.9999972534181
400,60,83823,1,8,0:0:0:0:
404,152,83930,2,0,L|336:232,1,89.9999972534181
188,352,84145,6,0,B|156:308|156:308|144:232|208:168,1,179.999994506836
320,80,84466,1,0,0:0:0:0:
368,160,84573,2,0,P|417:169|472:152,1,89.9999972534181,0|8,0:0|0:0,0:0:0:0:
328,252,84788,2,0,P|272:288|252:316,1,89.9999972534181
464,264,85002,1,0,0:0:0:0:
496,180,85109,2,0,L|452:88,1,89.9999972534181,0|0,0:0|0:0,0:0:0:0:
384,304,85323,2,0,L|280:272,1,89.9999972534181
256,64,85538,1,8,0:0:0:0:
304,152,85645,2,0,L|224:192,1,89.9999972534181
68,100,85859,1,0,0:0:0:0:
16,196,85966,6,0,P|76:224|88:332,1,179.999994506836,4|0,1:0|0:0,0:0:0:0:
184,232,86288,2,0,L|128:148,1,89.9999972534181,0|8,0:0|0:0,0:0:0:0:
284,36,86502,2,0,L|272:128,1,89.9999972534181
232,320,86716,1,0,0:0:0:0:
320,360,86823,2,0,P|368:332|392:292,1,89.9999972534181,0|0,0:0|0:0,0:0:0:0:
496,192,87038,2,0,B|468:200|468:200|400:184,1,89.9999972534181
252,24,87252,2,0,B|279:33|279:33|327:84,1,89.9999972534181,8|0,0:0|0:0,0:0:0:0:
392,296,87466,1,0,0:0:0:0:
320,360,87573,1,0,0:0:0:0:
232,320,87680,6,0,L|144:360,1,89.9999972534181,0|0,0:0|0:0,0:0:0:0:
196,228,87895,2,0,B|181:178|181:178|188:120,1,89.9999972534181
368,116,88109,2,0,P|340:164|200:160,1,179.999994506836,8|0,0:0|0:0,0:0:0:0:
156,108,88430,1,0,0:0:0:0:
28,36,88538,2,0,B|8:64|8:64|21:93|20:140,1,89.9999972534181,0|0,1:0|0:0,0:0:0:0:
72,252,88752,2,0,L|40:288,3,44.999998626709,0|0|0|0,1:0|0:0|0:0|0:0,0:0:0:0:
104,312,88966,2,0,L|88:357,3,44.999998626709,8|0|0|0,1:2|0:0|0:0|0:0,0:0:0:0:
152,356,89180,2,0,P|200:348|244:360,1,89.9999972534181,0|0,1:0|1:0,0:0:0:0:
432,352,89395,6,0,B|400:316|400:316|260:292,1,179.999994506836,4|0,1:0|0:0,0:0:0:0:
192,171,89716,1,0,0:0:0:0:
220,86,89823,1,8,0:0:0:0:
280,152,89930,2,0,P|322:177|367:177,1,89.9999972534181
448,344,90145,2,0,P|360:308|264:324,1,179.999994506836
104,376,90466,2,0,L|88:268,1,89.9999972534181
16,120,90680,1,8,0:0:0:0:
108,112,90788,2,0,P|160:128|192:164,1,89.9999972534181
344,256,91002,6,0,B|316:228|288:240|288:240|260:300|168:292,2,179.999994506836
476,128,91538,2,0,L|376:140,1,89.9999972534181,8|0,0:0|0:0,0:0:0:0:
214,187,91752,2,0,L|288:240,1,89.9999972534181
80,344,91966,2,0,L|45:294,2,59.9999981689454,0|0|0,0:0|0:0|0:0,0:0:0:0:
128,268,92180,2,0,L|112:152,1,89.9999972534181
240,56,92395,2,0,P|240:100|220:148,1,89.9999972534181,8|0,0:0|0:0,0:0:0:0:
32,164,92609,2,0,P|60:116|116:92,1,89.9999972534181
248,224,92823,5,4,1:0:0:0:
328,280,92930,2,0,L|432:224,2,89.9999972534181
112,224,93252,1,8,0:0:0:0:
84,304,93359,2,0,P|120:348|152:360,1,89.9999972534181
200,188,93573,2,0,P|164:144|132:132,1,89.9999972534181,0|0,0:0|0:0,0:0:0:0:
244,24,93788,2,0,L|260:132,2,89.9999972534181
424,104,94109,1,8,0:0:0:0:
424,192,94216,2,0,L|324:240,1,89.9999972534181
256,184,94430,1,0,0:0:0:0:
144,72,94538,6,0,L|88:36,2,59.9999981689454,4|0|0,1:2|0:0|0:0,0:0:0:0:
96,155,94752,2,0,L|29:156,2,59.9999981689454,0|0|0,1:0|0:0|0:0,0:0:0:0:
102,250,94966,1,8,0:0:0:0:
161,326,95073,2,0,L|79:388,2,89.9999972534181,0|0|0,1:0|0:0|1:0,0:0:0:0:
308,248,95395,1,0,1:0:0:0:
372,188,95502,1,0,1:0:0:0:
380,100,95609,1,0,1:0:0:0:
336,24,95716,1,0,1:0:0:0:
248,4,95823,2,0,B|236:24|236:24|160:64,1,89.9999972534181,8|0,1:2|1:0,0:0:0:0:
64,248,96038,2,0,B|76:228|76:228|152:188,1,89.9999972534181,0|0,0:0|1:0,0:0:0:0:
384,136,96252,6,0,P|360:208|260:256,1,179.999994506836,4|0,1:0|0:0,0:0:0:0:
432,300,96573,1,0,0:0:0:0:
488,220,96680,1,8,0:0:0:0:
464,124,96788,2,0,L|404:44,1,89.9999972534181
224,76,97002,2,0,B|196:104|216:132|216:132|288:132|336:184,1,179.999994506836,0|0,0:0|0:0,0:0:0:0:
460,260,97323,2,0,L|352:268,1,89.9999972534181
188,208,97538,1,8,0:0:0:0:
116,268,97645,2,0,P|132:317|172:352,1,89.9999972534181
284,188,97859,6,0,P|240:132|128:128,1,179.999994506836
32,304,98180,1,0,0:0:0:0:
112,360,98288,2,0,L|204:328,1,89.9999972534181,0|8,0:0|0:0,0:0:0:0:
44,216,98502,2,0,L|24:124,1,89.9999972534181
184,44,98716,1,0,0:0:0:0:
264,100,98823,2,0,L|284:188,1,89.9999972534181,0|0,0:0|0:0,0:0:0:0:
224,336,99038,1,0,0:0:0:0:
336,352,99145,2,0,L|432:336,1,89.9999972534181,0|8,0:0|0:0,0:0:0:0:
316,176,99359,2,0,P|244:176|188:264,1,179.999994506836
392,252,99680,6,0,B|437:266|437:266|496:268,1,89.9999972534181,4|0,1:2|0:0,0:0:0:0:
320,88,99895,2,0,B|292:88|292:88|224:132,1,89.9999972534181,4|0,1:2|0:0,0:0:0:0:
88,256,100109,1,8,1:2:0:0:
160,328,100216,2,0,L|252:280,1,89.9999972534181,4|0,0:2|0:0,0:0:0:0:
400,136,100430,1,0,0:0:0:0:
400,136,100538,2,0,B|385:182|385:182|432:312,1,179.999994506836,0|0,1:0|0:0,0:0:0:0:
288,192,100859,2,0,B|302:145|302:145|288:104,1,89.9999972534181,0|8,1:0|0:0,0:0:0:0:
140,8,101073,2,0,B|144:104|144:104|228:160,1,179.999994506836,4|0,1:2|0:0,0:0:0:0:
384,248,101395,6,0,P|360:252|304:300,1,89.9999972534181,0|0,1:0|0:0,0:0:0:0:
120,252,101609,2,0,P|168:260|220:236,1,89.9999972534181,0|0,1:0|0:0,0:0:0:0:
308,72,101823,1,8,1:2:0:0:
252,144,101930,1,0,0:0:0:0:
300,220,102038,2,0,L|316:320,1,89.9999972534181,0|0,1:0|1:0,1:0:0:0:
472,224,102252,1,0,1:0:0:0:
428,116,102359,2,0,L|332:64,1,89.9999972534181
280,252,102573,1,0,1:0:0:0:
395,271,102680,2,0,L|472:224,1,89.9999972534181,8|0,0:0|0:0,0:0:0:0:
296,117,102895,1,0,1:0:0:0:
224,208,103002,2,0,L|226:317,1,89.9999972534181,0|0,0:0|1:0,0:0:0:0:
132,344,103323,6,0,P|67:311|48:256,1,112.500004291535,0|8,0:0|0:0,0:0:0:0:
48,124,103752,1,0,0:0:0:0:
160,232,103966,1,0,0:0:0:0:
216,228,104073,1,0,0:0:0:0:
256,188,104180,1,0,0:0:0:0:
316,37,104395,2,0,L|352:148,1,112.500004291535,8|4,0:0|1:0,0:0:0:0:
180,144,104823,5,4,1:0:0:0:
344,8,105038,1,4,1:0:0:0:
256,212,105252,1,8,1:2:0:0:
256,0,105466,1,0,1:0:0:0:
56,52,105680,2,0,P|48:88|64:140,1,75,0|0,1:0|0:0,0:0:0:0:
228,144,105895,2,0,P|235:107|227:71,1,75,0|0,1:0|0:0,0:0:0:0:
108,208,106109,1,0,1:0:0:0:
124,240,106216,1,0,0:0:0:0:
156,256,106323,1,0,1:0:0:0:
192,256,106430,1,0,1:0:0:0:
224,236,106538,6,0,B|280:248|300:200|300:200|260:100|356:40,1,262.5,0|0,1:0|0:0,0:0:0:0:
388,184,107395,2,0,L|376:219,1,37.5,8|0,0:0|0:0,0:0:0:0:
444,72,107609,2,0,L|470:45,1,37.5
312,124,107823,2,0,L|264:128,1,37.5
472,160,108038,2,0,L|509:157,1,37.5
288,48,108252,6,0,B|212:52|212:52|176:84,2,112.5,0|0|0,1:0|1:0|1:0,0:0:0:0:
256,216,109109,2,0,L|184:208,1,37.5,8|0,0:0|0:0,0:0:0:0:
356,280,109323,2,0,L|393:284,1,37.5,0|0,0:0|0:0,0:0:0:0:
240,280,109538,1,0,0:0:0:0:
202,275,109645,1,0,0:0:0:0:
340,344,109752,1,0,0:0:0:0:
377,348,109859,1,0,0:0:0:0:
464,288,109966,6,0,B|476:248|444:200|444:200|440:220,1,112.5,0|0,1:0|0:0,0:0:0:0:
324,176,110395,2,0,B|324:248,2,50,0|0|0,1:0|0:0|0:0,0:0:0:0:
296,76,110823,1,8,0:0:0:0:
296,76,110930,2,0,L|256:100,2,37.5
216,176,111252,2,0,L|172:164,1,37.5
128,104,111466,1,0,0:0:0:0:
128,104,111573,1,0,0:0:0:0:
128,104,111680,6,0,P|124:192|84:236,1,150,0|8,1:0|0:0,0:0:0:0:
240,328,112109,2,0,L|324:312,1,75,0|0,1:0|1:0,1:0:0:0:
364,228,112323,1,8,0:0:0:0:
176,260,112538,2,0,P|132:224|136:148,1,112.5,0|0,1:0|0:0,0:0:0:0:
224,144,112966,2,0,L|256:72,2,50,12|0|0,0:0|0:0|0:0,0:0:0:0:
264,248,113395,6,0,B|284:272|288:304|288:304|328:276|328:276|364:332|424:332|432:308|440:284|420:272|400:276|392:288,1,262.5,4|0,1:0|0:0,0:0:0:0:
380,176,114252,2,0,L|316:192,1,50,8|0,0:0|0:0,0:0:0:0:
224,96,114538,2,0,L|272:83,1,50
224,200,114823,2,0,L|160:216,1,50
84,108,115109,5,0,0:0:0:0:
84,108,115216,1,0,0:0:0:0:
84,108,115323,1,0,0:0:0:0:
84,108,115430,1,0,0:0:0:0:
84,108,115538,2,0,B|108:130|100:176|100:176|24:224|64:320,1,225,0|0,1:0|0:0,0:0:0:0:
144,260,115966,2,0,B|184:216|248:240|248:240|284:300|368:288,1,225,8|0,0:0|0:0,0:0:0:0:
332,196,116395,2,0,L|364:136,2,50
360,320,116823,6,0,B|416:372|416:372|472:368,2,112.5,0|0|0,1:0|1:0|1:0,0:0:0:0:
272,236,117680,2,0,L|256:296,2,50,8|0|0,0:0|0:0|0:0,0:0:0:0:
320,120,118109,2,0,L|316:68,1,37.5
404,140,118323,2,0,L|400:88,2,37.5,0|0|0,0:0|0:0|1:0,0:0:0:0:
328,304,118752,6,0,P|264:324|196:260,1,150,4|0,0:0|1:0,0:0:0:0:
152,144,119073,1,0,1:0:0:0:
216,64,119180,2,0,P|252:112|220:208,1,150,4|0,0:0|0:0,0:0:0:0:
52,284,119502,1,0,0:0:0:0:
108,352,119609,2,0,L|192:336,1,75,2|0,0:0|0:0,0:0:0:0:
300,236,119823,2,0,L|332:228,4,18.75
336,332,120038,2,0,L|356:344,8,18.75,0|0|0|0|0|0|0|0|0,0:0|0:0|0:0|0:0|0:0|0:0|0:0|0:0|1:0,0:0:0:0:
124,176,133966,6,0,P|156:224|256:232,1,150,2|0,0:0|0:0,0:0:0:0:
312,160,134609,1,0,0:0:0:0:
400,232,134823,2,0,L|356:296,1,75,8|0,0:0|0:0,0:0:0:0:
357,293,135145,1,0,0:0:0:0:
357,293,135252,1,0,0:0:0:0:
488,272,135466,1,0,0:0:0:0:
448,152,135680,6,0,P|436:96|468:12,1,150,2|0,0:0|0:0,0:0:0:0:
352,56,136323,1,0,0:0:0:0:
232,20,136538,2,0,L|208:56,2,37.5,8|0|0,0:0|0:0|0:0,0:0:0:0:
292,132,136966,2,0,P|276:172|252:200,1,75
144,212,137395,6,0,P|152:264|232:308,2,150,2|0|8,0:0|0:0|0:0,0:0:0:0:
376,176,138680,2,0,L|368:256,1,75
400,352,139109,6,0,P|448:340|476:252,1,150,2|0,0:0|0:0,0:0:0:0:
356,252,139752,1,0,0:0:0:0:
268,336,139966,2,0,P|216:324|192:296,1,75,8|0,0:0|0:0,0:0:0:0:
248,184,140395,2,0,L|268:264,1,75
152,232,140823,6,0,B|100:184|64:248|4:188,1,150,2|0,0:0|0:0,0:0:0:0:
24,80,141466,1,0,0:0:0:0:
108,112,141680,2,0,L|172:64,1,75,8|0,0:0|0:0,0:0:0:0:
168,67,142002,1,0,0:0:0:0:
168,67,142109,1,0,0:0:0:0:
272,128,142323,1,0,0:0:0:0:
240,244,142538,6,0,P|252:304|332:340,1,150,2|0,0:0|0:0,0:0:0:0:
408,252,143180,1,0,0:0:0:0:
460,360,143395,2,0,L|420:384,2,37.5,8|0|0,0:0|0:0|0:0,0:0:0:0:
508,248,143823,2,0,L|472:164,1,75
376,96,144252,6,0,P|364:144|268:176,1,150,2|0,0:0|0:0,0:0:0:0:
232,160,144788,1,0,0:0:0:0:
120,116,145002,2,0,P|140:168|140:204,1,75
128,232,145323,1,0,0:0:0:0:
64,320,145538,2,0,P|112:312|144:320,1,75,2|0,0:0|0:0,0:0:0:0:
137,317,145859,1,0,0:0:0:0:
137,317,145966,5,0,0:0:0:0:
264,364,146180,2,0,P|280:316|280:276,1,75,2|0,0:0|0:0,0:0:0:0:
268,244,146502,1,0,0:0:0:0:
352,328,146716,2,0,P|396:340|424:336,1,75
464,308,147038,1,0,0:0:0:0:
384,212,147252,2,0,L|388:168,1,37.5
448,140,147466,2,0,L|452:96,1,37.5,2|0,0:0|0:0,0:0:0:0:
404,48,147680,5,0,0:0:0:0:
404,48,147788,1,0,0:0:0:0:
404,48,147895,2,0,P|352:80|304:80,1,89.9999972534181,2|0,0:0|0:0,0:0:0:0:
164,68,148323,2,0,L|176:116,1,44.999998626709
156,164,148538,2,0,P|204:148|248:160,1,89.9999972534181,8|0,0:0|0:0,0:0:0:0:
288,248,148966,2,0,L|196:304,1,89.9999972534181,0|2,0:0|0:0,0:0:0:0:
211,294,149288,1,0,0:0:0:0:
211,294,149395,5,0,0:0:0:0:
372,280,149609,2,0,L|376:236,1,44.999998626709,2|0,0:0|0:0,0:0:0:0:
336,136,149823,2,0,L|332:180,1,44.999998626709
408,160,150038,2,0,L|432:140,4,22.4999993133545,0|0|0|0|8,0:0|0:0|0:0|0:0|0:0,0:0:0:0:
240,192,150466,1,0,0:0:0:0:
240,192,150573,1,0,0:0:0:0:
240,192,150680,2,0,L|240:228,4,22.4999993133545,0|0|0|0|2,0:0|0:0|0:0|0:0|0:0,0:0:0:0:
176,96,151109,6,0,L|152:156,1,44.999998626709
80,196,151323,2,0,L|56:256,1,44.999998626709,0|0,0:0|0:0,0:0:0:0:
116,316,151538,1,2,0:0:0:0:
116,316,151645,1,0,0:0:0:0:
116,316,151752,2,0,P|168:304|212:324,1,89.9999972534181,0|8,0:0|0:0,0:0:0:0:
320,256,152180,2,0,L|328:288,4,22.4999993133545
252,144,152609,2,0,L|296:136,1,44.999998626709,2|0,0:0|0:0,0:0:0:0:
384,204,152823,6,0,L|384:156,1,44.999998626709
464,72,153038,2,0,P|456:120|472:172,1,89.9999972534181,2|0,0:0|0:0,0:0:0:0:
436,300,153466,2,0,L|428:332,4,22.4999993133545,0|0|0|0|8,0:0|0:0|0:0|0:0|0:0,0:0:0:0:
352,280,153788,2,2,L|312:300,1,44.999998626709
256,216,154109,2,0,L|256:176,4,22.4999993133545,0|0|0|0|2,0:0|0:0|0:0|0:0|0:0,0:0:0:0:
232,352,154538,6,0,P|196:332|176:280,1,89.9999972534181,0|2,0:0|0:0,0:0:0:0:
44,224,154966,2,0,L|68:276,1,44.999998626709
124,192,155180,1,0,0:0:0:0:
124,192,155288,1,0,0:0:0:0:
124,192,155395,2,0,L|105:151,2,44.999998626709,8|0|0,0:0|0:0|0:0,0:0:0:0:
192,280,155823,2,0,P|228:268|284:284,1,89.9999972534181,0|2,0:0|0:0,0:0:0:0:
277,279,156145,1,0,0:0:0:0:
277,279,156252,5,0,0:0:0:0:
244,168,156466,2,0,L|184:80,1,89.9999972534181,2|0,0:0|0:0,0:0:0:0:
92,72,156895,2,0,L|60:64,4,22.4999993133545,0|0|0|0|8,0:0|0:0|0:0|0:0|0:0,0:0:0:0:
120,152,157216,2,0,L|116:196,1,44.999998626709
208,80,157538,2,0,L|220:52,4,22.4999993133545,0|0|0|0|2,0:0|0:0|0:0|0:0|0:0,0:0:0:0:
248,188,157966,6,0,P|280:220|352:236,1,112.499996566773,0|0,1:0|0:0,0:0:0:0:
436,280,158288,1,0,0:0:0:0:
448,320,158395,2,0,P|388:328|336:360,1,112.500004291535,0|0,1:0|0:0,0:0:0:0:
232,384,158716,2,0,L|196:324,1,56.2500021457673,0|0,0:0|1:0,0:0:0:0:
92,352,158930,2,0,L|82:282,1,56.2500021457673
128,148,159252,2,0,P|156:192|160:256,1,112.500004291535,0|0,1:0|0:0,0:0:0:0:
284,224,159573,1,0,0:0:0:0:
308,188,159680,6,0,L|308:112,2,56.2500021457673,0|0|0,1:0|0:0|0:0,0:0:0:0:
404,308,160002,2,0,L|404:364,2,56.2500021457673,0|0|0,0:0|1:0|0:0,0:0:0:0:
220,324,160323,2,0,L|164:336,2,56.2500021457673,0|0|0,0:0|0:0|1:0,0:0:0:0:
260,192,160645,2,0,L|315:180,2,56.2500021457673
140,168,160966,1,0,1:0:0:0:
108,196,161073,2,0,L|100:264,1,56.2500021457673
228,244,161288,1,0,0:0:0:0:
260,216,161395,2,0,L|268:148,1,56.2500021457673,0|0,1:0|0:0,0:0:0:0:
320,24,161609,5,0,0:0:0:0:
344,64,161716,2,0,P|380:88|456:88,1,112.500004291535
328,160,162038,2,0,P|289:179|251:244,1,112.500004291535,0|0,0:0|0:0,0:0:0:0:
240,372,162359,2,0,P|278:352|316:287,1,112.500004291535
172,264,162680,2,0,L|60:300,1,112.500004291535,0|0,0:0|0:0,0:0:0:0:
108,184,163002,2,0,L|-4:220,1,112.500004291535
84,356,163323,2,0,P|128:336|168:272,1,112.500004291535,0|0,0:0|0:0,0:0:0:0:
200,104,163645,6,0,P|245:126|273:200,1,127.50000243187,0|0,0:0|0:0,0:0:0:0:
176,312,163966,2,0,P|160:264|192:192,1,127.50000243187,0|0,0:0|0:0,0:0:0:0:
300,264,164288,1,0,0:0:0:0:
356,296,164395,2,0,L|440:276,1,63.7500012159348,0|0,1:0|0:0,0:0:0:0:
400,136,164609,2,0,L|436:64,2,63.7500012159348,0|0|0,0:0|0:0|1:0,0:0:0:0:
244,120,164930,1,0,0:0:0:0:
184,136,165038,2,0,L|148:212,1,63.7500012159348
88,304,165252,5,0,1:0:0:0:
148,276,165359,2,0,L|228:304,1,63.7500012159348
352,260,165573,2,0,P|300:252|232:188,1,127.50000243187
368,136,165895,2,0,L|412:196,1,63.7500012159348
400,344,166109,2,0,L|264:356,1,127.50000243187,0|0,1:0|0:0,0:0:0:0:
196,312,166430,2,0,L|152:376,1,63.7500012159348,0|0,0:0|1:0,0:0:0:0:
32,312,166645,5,0,0:0:0:0:
24,248,166752,2,0,P|44:212|136:168,1,127.50000243187
240,236,167073,2,0,P|196:264|104:256,1,127.50000243187
204,148,167395,2,0,L|264:120,1,63.7500012159348,0|0,1:0|0:0,0:0:0:0:
328,256,167609,2,0,L|340:336,2,63.7500012159348,0|0|0,0:0|0:0|1:0,0:0:0:0:
256,192,167930,12,0,171466,0:0:0:0:
156,176,171680,6,0,P|160:252|216:304,1,150,4|0,1:0|0:0,0:0:0:0:
316,244,172002,1,0,0:0:0:0:
368,264,172109,2,0,P|384:312|384:352,2,75,8|0|0,0:0|0:0|0:0,0:0:0:0:
244,144,172430,1,0,0:0:0:0:
280,104,172538,2,0,P|336:100|368:112,1,75,0|0,1:0|0:0,0:0:0:0:
264,308,172752,2,0,P|239:270|234:238,1,75
248,92,172966,2,0,B|264:84|288:92|288:92|312:76|312:76|352:100|396:76,1,150,8|0,0:0|0:0,0:0:0:0:
484,196,173288,1,0,0:0:0:0:
416,328,173395,6,0,L|328:344,1,75,0|0,1:0|0:0,0:0:0:0:
352,204,173609,2,8,L|270:168,1,75,0|0,0:0|0:0,0:0:0:0:
200,340,173823,2,0,L|160:256,1,75,8|0,0:0|0:0,0:0:0:0:
64,340,174038,2,0,L|24:256,1,75,0|0,0:0|0:0,0:0:0:0:
164,136,174252,1,0,1:0:0:0:
164,136,174359,2,0,P|212:128|268:76,1,112.5
304,76,174573,2,0,P|340:88|376:128,1,75,0|8,0:0|0:0,0:0:0:0:
288,272,174788,1,0,0:0:0:0:
356,332,174895,2,0,L|440:292,1,75
464,84,175109,6,0,P|412:92|376:124,1,75,0|0,1:0|0:0,0:0:0:0:
288,272,175323,1,0,0:0:0:0:
252,276,175430,1,0,0:0:0:0:
216,268,175538,1,8,0:0:0:0:
192,240,175645,2,0,P|180:184|200:144,1,75
352,64,175859,1,0,0:0:0:0:
388,160,175966,2,0,P|368:208|352:228,1,75,0|0,1:0|0:0,0:0:0:0:
388,348,176180,2,0,L|432:360,2,37.5
224,308,176395,1,8,0:0:0:0:
144,240,176502,2,0,P|92:264|76:356,1,150
324,280,176823,5,0,1:0:0:0:
320,200,176930,1,0,0:0:0:0:
248,168,177038,2,0,P|208:152|176:116,1,75
312,20,177252,1,8,0:0:0:0:
396,56,177359,2,0,P|404:104|396:136,1,75
280,272,177573,2,0,L|168:240,1,112.5
128,196,177788,2,0,L|248:180,1,112.5
280,136,178002,1,0,0:0:0:0:
168,56,178109,2,0,L|144:24,3,37.5,8|0|0|0,1:2|0:0|0:0|0:0,0:0:0:0:
112,92,178323,2,0,L|192:120,1,75,0|0,1:0|0:0,0:0:0:0:
384,116,178538,6,0,B|372:176|372:176|352:192,1,75,4|0,1:0|0:0,0:0:0:0:
184,192,178752,2,0,B|172:252|172:252|152:268,1,75,0|0,0:0|0:0,0:0:0:0:
56,64,178966,2,0,B|44:124|44:124|24:140,1,75,8|0,0:0|0:0,0:0:0:0:
120,332,179180,1,0,0:0:0:0:
200,336,179288,2,0,P|248:312|264:288,1,75,0|0,0:0|1:0,0:0:0:0:
120,128,179502,2,0,P|124:180|204:256,1,150
340,252,179823,1,8,0:0:0:0:
344,156,179930,2,0,P|296:168|268:188,1,75
384,344,180145,2,0,P|416:316|429:276,1,75,0|0,0:0|1:0,0:0:0:0:
412,80,180323,6,0,L|344:72,1,50
348,116,180466,2,0,P|304:128|264:120,1,75
124,52,180680,2,0,L|120:136,1,75,8|0,0:0|0:0,0:0:0:0:
164,292,180895,1,0,0:0:0:0:
240,336,181002,2,0,P|248:292|240:256,1,75,0|0,0:0|1:0,0:0:0:0:
208,60,181216,2,0,L|244:172,1,112.5
304,160,181430,2,0,L|277:80,1,75,0|8,0:0|0:0,0:0:0:0:
392,16,181645,2,0,L|428:128,1,112.5
464,172,181859,1,0,0:0:0:0:
504,276,181966,6,0,B|468:288|468:288|428:280,1,75,4|0,1:0|0:0,0:0:0:0:
240,336,182180,2,0,B|276:324|276:324|316:332,1,75,0|0,0:0|0:0,0:0:0:0:
304,160,182395,2,0,P|264:136|216:136,1,75,8|0,0:0|0:0,0:0:0:0:
52,268,182609,1,0,0:0:0:0:
100,288,182716,1,0,0:0:0:0:
152,272,182823,2,0,L|240:212,1,75,0|0,1:0|0:0,0:0:0:0:
196,88,183038,2,0,P|184:148|228:244,1,150,0|8,1:0|1:2,0:0:0:0:
388,212,183359,1,0,0:0:0:0:
456,272,183466,2,0,P|468:316|464:356,1,75,0|0,1:0|0:0,0:0:0:0:
216,356,183680,6,0,B|176:360|176:360|160:336|160:336|108:360|64:304,1,150,0|0,1:0|1:0,0:0:0:0:
112,88,184002,1,0,0:0:0:0:
200,48,184109,2,0,L|288:24,1,75,8|0,1:2|1:0,0:0:0:0:
160,292,184323,2,0,L|72:316,1,75,0|0,1:2|1:0,0:0:0:0:
256,168,184538,5,4,1:2:0:0:
348,152,184645,2,0,L|400:80,1,75
256,276,184859,1,4,1:2:0:0:
164,260,184966,2,0,L|112:188,1,75,8|0,0:0|0:0,0:0:0:0:
348,368,185180,2,0,L|400:296,1,75,4|0,1:2|0:0,0:0:0:0:
292,64,185395,6,0,P|264:96|304:248,1,179.999994506836,4|0,1:0|0:0,0:0:0:0:
448,272,185716,1,0,0:0:0:0:
432,184,185823,1,8,0:0:0:0:
360,244,185930,2,0,L|288:312,1,89.9999972534181,0|0,0:0|0:0,0:0:0:0:
92,356,186145,2,0,B|72:312|72:312|88:232|188:224,1,179.999994506836
344,360,186466,2,0,L|255:344,1,89.9999972534181
176,108,186680,1,8,0:0:0:0:
248,200,186788,2,0,L|340:216,1,89.9999972534181
464,40,187002,6,0,B|428:68|428:68|272:40,1,179.999994506836
64,64,187323,1,0,0:0:0:0:
56,184,187430,2,0,P|68:232|92:272,1,89.9999972534181,0|8,0:0|0:0,0:0:0:0:
264,336,187645,2,0,P|252:280|212:236,1,89.9999972534181
24,64,187859,1,0,0:0:0:0:
80,160,187966,2,0,L|176:168,1,89.9999972534181
320,184,188180,1,0,0:0:0:0:
196,280,188288,2,0,L|106:272,1,89.9999972534181,0|8,0:0|0:0,0:0:0:0:
216,144,188502,2,0,B|264:132|264:132|296:104|296:104|344:112|400:88,1,179.999994506836
400,328,188823,6,0,P|344:296|328:260,1,89.9999972534181,4|0,1:0|0:0,0:0:0:0:
464,92,189038,1,0,0:0:0:0:
500,184,189145,1,0,0:0:0:0:
404,168,189252,2,0,P|356:148|316:108,1,89.9999972534181,8|0,0:0|0:0,0:0:0:0:
184,24,189466,1,0,0:0:0:0:
92,72,189573,2,0,L|104:172,1,89.9999972534181
224,328,189788,2,0,P|296:336|336:328,1,89.9999972534181
452,160,190002,1,0,0:0:0:0:
492,228,190109,2,0,B|464:240|464:240|384:232,1,89.9999972534181,8|0,0:0|0:0,0:0:0:0:
236,32,190323,2,0,P|232:92|240:128,1,89.9999972534181
340,276,190538,6,0,B|376:304|376:304|424:308,1,89.9999972534181
292,360,190752,2,0,P|236:360|192:348,1,89.9999972534181
180,176,190966,2,0,P|236:228|248:336,1,179.999994506836,8|0,0:0|0:0,0:0:0:0:
112,364,191288,1,0,0:0:0:0:
28,252,191395,2,0,P|28:196|40:164,1,89.9999972534181
180,60,191609,2,0,L|192:16,3,44.999998626709,0|0|0|0,1:0|0:0|0:0|0:0,0:0:0:0:
252,56,191823,2,8,L|280:20,3,44.999998626709,8|0|0|0,1:2|0:0|0:0|0:0,0:0:0:0:
316,80,192038,2,0,P|364:92|408:88,1,89.9999972534181,0|0,1:0|1:0,0:0:0:0:
484,252,192252,6,0,P|432:256|328:328,1,179.999994506836,4|0,1:0|0:0,0:0:0:0:
136,336,192573,1,0,0:0:0:0:
104,248,192680,1,8,0:0:0:0:
180,188,192788,2,0,P|212:144|228:100,1,89.9999972534181
16,180,193002,2,0,B|0:236|0:236|44:292|20:364,1,179.999994506836
232,268,193323,2,0,P|280:256|336:272,1,89.9999972534181
504,280,193537,1,8,0:0:0:0:
476,172,193645,2,0,L|420:100,1,89.9999972534181,0|0,0:0|0:0,0:0:0:0:
256,36,193859,6,0,B|241:64|264:96|264:96|248:132|248:132|268:180|258:206,2,179.999994506836
92,32,194395,2,0,L|164:88,1,89.9999972534181,8|0,0:0|0:0,0:0:0:0:
76,184,194609,2,0,L|148:240,1,89.9999972534181,0|0,0:0|0:0,0:0:0:0:
360,112,194823,2,0,L|372:52,2,59.9999981689454
288,184,195037,2,0,L|344:288,1,89.9999972534181
492,256,195252,2,0,P|448:220|404:216,1,89.9999972534181,8|0,0:0|0:0,0:0:0:0:
344,360,195466,2,0,P|392:340|416:308,1,89.9999972534181
220,136,195680,5,4,1:0:0:0:
100,140,195787,2,0,L|28:72,2,89.9999972534181
108,316,196109,1,8,0:0:0:0:
228,312,196216,2,0,P|268:280|292:224,1,89.9999972534181
160,80,196430,2,0,L|176:180,1,89.9999972534181
372,232,196645,2,0,P|424:232|464:248,2,89.9999972534181
264,376,196966,1,8,0:0:0:0:
144,348,197073,2,0,P|108:316|92:260,1,89.9999972534181
248,96,197287,1,0,0:0:0:0:
364,72,197395,6,0,L|384:16,2,59.9999981689454,4|0|0,1:2|0:0|0:0,0:0:0:0:
417,183,197609,2,0,L|470:158,2,59.9999981689454,0|0|0,1:0|0:0|0:0,3:0:0:0:
376,300,197823,1,8,0:0:0:0:
264,353,197930,2,0,L|168:372,2,89.9999972534181,0|0|0,1:0|0:0|1:0,0:0:0:0:
284,248,198252,1,0,1:0:0:0:
236,152,198359,1,0,1:0:0:0:
136,116,198466,1,0,1:0:0:0:
40,160,198573,1,0,1:0:0:0:
16,264,198680,2,0,P|36:328|56:356,1,89.9999972534181,8|0,1:2|1:0,1:0:0:0:
236,152,198895,2,0,P|225:108|203:69,1,89.9999972534181,0|0,1:0|1:0,1:0:0:0:
152,256,199109,6,0,P|208:284|324:248,1,179.999994506836,4|0,1:0|0:0,0:0:0:0:
384,40,199430,1,0,0:0:0:0:
280,68,199537,1,8,0:0:0:0:
180,28,199645,2,0,P|124:28|80:44,1,89.9999972534181,0|0,0:0|0:0,0:0:0:0:
168,208,199859,2,0,B|226:232|226:232|281:224|281:224|340:249,1,179.999994506836
192,332,200180,2,0,L|92:328,1,89.9999972534181
216,144,200395,1,8,0:0:0:0:
304,104,200502,2,0,L|404:108,1,89.9999972534181
428,340,200716,6,0,P|356:320|308:228,1,179.999994506836
456,120,201037,1,0,0:0:0:0:
512,196,201145,2,0,P|512:252|496:300,1,89.9999972534181,0|8,0:0|0:0,0:0:0:0:
376,152,201359,2,0,P|316:128|264:132,1,89.9999972534181
80,236,201573,1,0,0:0:0:0:
172,284,201680,2,0,P|224:284|260:272,1,89.9999972534181
136,136,201895,1,0,0:0:0:0:
32,100,202002,2,0,L|0:12,1,89.9999972534181,0|8,0:0|0:0,0:0:0:0:
248,100,202216,2,0,B|284:108|300:144|300:144|360:152|408:92,1,179.999994506836
364,328,202537,6,0,B|356:280|356:280|324:236,1,89.9999972534181,4|0,1:2|0:0,0:0:0:0:
148,56,202752,2,0,B|156:104|156:104|188:148,1,89.9999972534181,4|0,1:2|0:0,0:0:0:0:
460,196,202966,1,8,1:2:0:0:
416,124,203073,2,0,B|400:104|400:104|320:92,1,89.9999972534181,4|0,1:2|0:0,0:0:0:0:
120,280,203287,1,0,1:0:0:0:
120,280,203395,2,0,B|180:272|180:272|224:152,1,179.999994506836,0|0,1:0|0:0,0:0:0:0:
60,228,203716,2,0,L|24:324,1,89.9999972534181,0|8,1:0|0:0,0:0:0:0:
280,256,203930,2,0,B|364:216|364:216|352:108,1,179.999994506836,4|0,1:2|0:0,0:0:0:0:
104,40,204252,6,0,P|104:88|120:132,1,89.9999972534181,0|0,1:0|0:0,0:0:0:0:
293,343,204466,2,0,P|293:298|280:256,1,89.9999972534181,0|0,1:0|0:0,0:0:0:0:
124,220,204680,1,8,1:2:0:0:
40,152,204787,1,0,0:0:0:0:
140,112,204895,2,0,L|244:80,1,89.9999972534181,0|0,1:0|1:0,0:0:0:0:
436,84,205109,1,0,1:0:0:0:
392,208,205216,2,0,L|288:268,1,89.9999972534181
188,180,205430,1,0,1:0:0:0:
314,162,205537,2,0,L|392:208,1,89.9999972534181,8|0,0:0|0:0,0:0:0:0:
272,372,205752,1,0,1:0:0:0:
188,270,205859,2,0,L|188:180,1,89.9999972534181,0|4,0:0|1:2,0:0:0:0:
60,344,206180,5,4,1:2:0:0:
472,272,206395,2,0,L|372:304,1,89.9999972534181,8|0,0:0|0:0,0:0:0:0:
360,132,206609,2,0,L|336:244,1,89.9999972534181
309,348,206823,1,4,1:2:0:0:
224,136,207037,1,4,1:2:0:0:
20,240,207252,2,0,L|136:264,1,89.9999972534181,8|0,0:0|0:0,0:0:0:0:
240,312,207466,2,0,L|280:332,3,44.999998626709
208,292,207680,5,4,1:2:0:0:
156,176,207787,2,0,L|140:72,1,89.9999972534181,0|0,1:0|0:0,0:0:0:0:
288,200,208002,2,0,P|336:216|408:200,2,89.9999972534181,0|8|0,1:0|0:0|0:0,0:0:0:0:
248,20,208323,1,0,0:0:0:0:
360,44,208430,2,0,L|444:96,1,89.9999972534181,0|0,1:0|0:0,0:0:0:0:
364,296,208645,1,0,1:0:0:0:
260,272,208752,1,0,1:0:0:0:
172,336,208859,1,0,1:0:0:0:
84,276,208966,6,0,L|48:276,1,29.9999990844727,0|0,0:0|0:0,0:0:0:0:
70,238,209037,6,0,L|35:230,1,29.9999990844727,0|0,0:0|0:0,0:0:0:0:
64,198,209109,6,0,L|31:184,1,29.9999990844727,0|0,0:0|0:0,0:0:0:0:
67,158,209180,6,0,L|38:137,1,29.9999990844727,0|0,0:0|0:0,0:0:0:0:
78,120,209252,6,0,L|54:93,1,29.9999990844727,0|0,0:0|0:0,0:0:0:0:
97,85,209323,6,0,L|79:53,1,29.9999990844727,0|0,0:0|0:0,0:0:0:0:
122,54,209395,5,4,1:0:0:0:
296,328,209609,2,0,B|368:336|416:296|416:296|456:316|496:304,1,194.999991073609,0|8,0:0|0:0,0:0:0:0:
224,184,209930,2,0,P|176:220|152:268,1,97.4999955368044
376,220,210145,2,0,B|428:188|428:188|408:108|452:56,1,194.999991073609
252,80,210466,2,0,L|136:104,1,97.4999955368044
72,268,210680,1,8,0:0:0:0:
176,316,210787,2,0,L|292:292,1,97.4999955368044
132,176,211002,6,0,B|76:172|56:124|56:124|68:68|24:32,1,194.999991073609
240,216,211323,1,0,0:0:0:0:
320,148,211430,2,0,L|336:52,1,97.4999955368044,0|8,0:0|0:0,0:0:0:0:
360,272,211645,2,0,P|404:290|437:326,1,97.4999955368044
140,280,211859,1,0,0:0:0:0:
28,232,211966,2,0,P|12:168|20:128,1,97.4999955368044
208,72,212180,1,0,0:0:0:0:
264,184,212287,2,0,P|256:232|224:280,1,97.4999955368044,0|8,0:0|0:0,0:0:0:0:
32,360,212502,2,0,B|96:352|96:352|148:304|124:224,1,194.999991073609
24,24,212823,5,4,1:0:0:0:
64,128,212930,1,0,0:0:0:0:
28,232,213037,2,0,L|92:332,1,97.4999955368044
256,240,213252,1,8,0:0:0:0:
256,240,213359,2,0,P|196:232|136:248,1,97.4999955368044,0|0,0:0|0:0,0:0:0:0:
300,348,213574,1,0,0:0:0:0:
420,304,213681,2,0,L|460:208,1,97.4999955368044
292,60,213895,2,0,L|340:164,1,97.4999955368044
192,328,214110,2,0,L|88:320,2,97.4999955368044,8|0|0,0:0|0:0|0:0,0:0:0:0:
356,260,214431,1,0,0:0:0:0:
432,172,214538,5,0,0:0:0:0:
372,72,214645,2,0,P|312:56|248:76,1,97.4999955368044
60,224,214859,1,0,0:0:0:0:
172,276,214966,2,0,B|224:268|224:268|272:288|272:288|340:268|380:284,1,194.999991073609,8|0,0:0|0:0,0:0:0:0:
268,368,215287,1,0,0:0:0:0:
144,364,215395,2,0,B|112:356|112:356|76:276,1,97.4999955368044,0|0,1:0|0:0,0:0:0:0:
120,116,215609,2,0,L|112:60,3,48.7499977684022,0|0|0|0,1:0|0:0|0:0|0:0,0:0:0:0:
188,88,215823,2,0,L|202:33,3,48.7499977684022,8|0|0|0,1:2|0:0|0:0|0:0,0:0:0:0:
260,92,216037,2,0,P|324:84|356:68,1,97.4999955368044,0|0,1:0|1:0,0:0:0:0:
326,260,216252,6,0,P|264:187|260:92,1,194.999991073609,4|0,1:0|0:0,0:0:0:0:
460,176,216573,1,0,0:0:0:0:
472,296,216680,1,8,0:0:0:0:
372,360,216787,2,0,P|301:366|254:347,1,97.4999955368044,0|0,0:0|0:0,0:0:0:0:
88,192,217002,2,0,B|144:200|144:200|236:316,1,194.999991073609
360,224,217323,2,0,L|252:212,1,97.4999955368044
16,280,217537,1,8,0:0:0:0:
96,360,217645,2,0,L|204:372,1,97.4999955368044
444,260,217859,6,0,B|457:195|424:148|424:148|444:104|416:68,2,194.999991073609
192,260,218395,2,0,L|232:160,1,97.4999955368044,8|0,0:0|0:0,0:0:0:0:
52,84,218609,2,0,L|158:102,1,97.4999955368044
296,238,218823,2,0,L|360:224,2,64.9999970245363
192,260,219037,2,0,P|132:260|76:228,1,97.4999955368044
240,48,219252,2,0,L|252:144,1,97.4999955368044,8|0,0:0|0:0,0:0:0:0:
484,344,219466,2,0,L|384:328,1,97.4999955368044
120,324,219680,5,4,1:0:0:0:
44,232,219787,2,0,L|32:128,2,97.4999955368044
256,304,220109,1,8,0:0:0:0:
372,288,220216,2,0,P|384:228|372:188,1,97.4999955368044
240,48,220430,2,0,P|228:108|240:148,1,97.4999955368044
464,236,220645,2,0,P|496:184|500:144,2,97.4999955368044
288,376,220966,1,8,0:0:0:0:
176,336,221073,2,0,L|96:268,1,97.4999955368044
161,127,221287,1,0,0:0:0:0:
280,80,221395,6,0,L|336:32,2,64.9999970245363,0|0|0,1:0|0:0|0:0,0:0:0:0:
368,172,221609,2,0,L|434:206,2,64.9999970245363,0|0|0,1:0|0:0|0:0,0:0:0:0:
316,289,221823,1,8,0:0:0:0:
188,284,221930,2,0,L|84:308,1,97.4999955368044,0|0,1:0|0:0,0:0:0:0:
252,356,222145,1,0,1:0:0:0:
368,364,222252,5,0,1:0:0:0:
460,292,222359,1,0,1:0:0:0:
464,176,222466,1,0,1:0:0:0:
396,80,222573,1,0,1:0:0:0:
280,80,222680,2,0,B|244:88|244:88|176:72,1,97.4999955368044,8|0,1:2|1:0,0:0:0:0:
232,304,222895,2,0,B|268:296|268:296|336:312,1,97.4999955368044,0|0,1:0|1:0,0:0:0:0:
176,164,223109,6,0,P|100:196|84:320,1,194.999991073609,4|0,1:0|0:0,0:0:0:0:
252,356,223430,1,0,0:0:0:0:
332,300,223537,1,8,0:0:0:0:
356,204,223645,2,0,L|444:160,1,97.4999955368044
232,96,223859,2,0,B|152:144|84:88|84:88|52:144,1,194.999991073609
108,352,224180,2,0,P|124:276|108:224,1,97.4999955368044
84,88,224395,1,8,0:0:0:0:
164,28,224502,2,0,L|272:8,1,97.4999955368044
356,204,224716,6,0,B|296:220|296:220|264:256|264:256|216:236|144:272,1,194.999991073609
408,328,225037,1,0,0:0:0:0:
480,252,225145,2,0,P|484:172|468:136,1,97.4999955368044,0|8,0:0|0:0,0:0:0:0:
256,116,225359,2,0,P|308:116|352:88,1,97.4999955368044
340,288,225573,1,0,0:0:0:0:
240,344,225680,2,0,L|140:320,1,97.4999955368044,0|0,0:0|0:0,0:0:0:0:
60,168,225895,1,0,0:0:0:0:
144,84,226002,2,0,L|212:4,1,97.4999955368044,0|8,0:0|0:0,0:0:0:0:
160,224,226216,2,0,P|104:288|-8:264,1,194.999991073609
256,160,226537,6,0,B|304:168|304:168|360:144,1,97.4999955368044,4|0,1:2|0:0,0:0:0:0:
132,344,226752,2,0,B|84:336|84:336|28:360,1,97.4999955368044,4|0,1:2|0:0,0:0:0:0:
384,344,226966,1,8,1:2:0:0:
384,344,227073,2,0,B|420:312|420:312|420:240,1,97.4999955368044,4|0,1:2|0:0,0:0:0:0:
288,84,227287,1,0,0:0:0:0:
288,84,227395,2,0,B|192:100|192:100|180:196,1,194.999991073609,4|0,1:2|0:0,0:0:0:0:
272,292,227716,2,0,B|299:263|299:263|308:203,1,97.4999955368044,4|8,1:2|0:0,0:0:0:0:
507,381,227930,2,0,B|353:346|353:346|390:304,1,194.999991073609,4|0,1:2|0:0,0:0:0:0:
428,92,228252,6,0,L|464:192,1,97.4999955368044,0|0,1:0|0:0,0:0:0:0:
236,328,228466,2,0,L|312:252,1,97.4999955368044,0|0,1:0|0:0,0:0:0:0:
288,84,228680,1,8,1:2:0:0:
180,36,228787,1,0,0:0:0:0:
76,96,228895,2,0,L|52:204,1,97.4999955368044,0|0,1:0|1:0,0:0:0:0:
308,356,229109,1,0,1:0:0:0:
408,280,229216,2,0,L|512:276,1,97.4999955368044
260,240,229430,1,0,1:0:0:0:
160,316,229537,2,0,L|56:320,1,97.4999955368044,8|0,0:0|0:0,0:0:0:0:
80,112,229752,1,0,1:0:0:0:
180,36,229859,2,0,L|284:32,1,97.4999955368044,0|4,0:0|1:2,0:0:0:0:
445,200,230180,6,0,P|488:259|480:332,1,150,0|8,0:0|0:0,0:0:0:0:
232,300,230609,2,0,P|152:284|104:232,2,150
344,72,231252,1,8,0:0:0:0:
216,148,231466,1,0,1:0:0:0:
344,348,231680,5,4,1:2:0:0:
408,160,231895,1,0,1:0:0:0:
168,36,232109,1,8,0:0:0:0:
104,224,232324,1,0,1:0:0:0:
312,260,232537,2,0,L|392:244,1,75,0|0,1:0|0:0,0:0:0:0:
200,124,232752,2,0,L|120:140,1,75,0|0,1:0|0:0,0:0:0:0:
224,292,232966,2,0,L|216:372,1,75,0|0,1:0|0:0,0:0:0:0:
288,92,233180,2,0,L|296:12,1,75,0|0,1:0|0:0,0:0:0:0:
256,192,233395,1,4,1:0:0:0:
