osu file format v13

[General]
AudioFilename: Epimetheus.mp3
AudioLeadIn: 0
PreviewTime: -1
Countdown: 1
SampleSet: None
StackLeniency: 0.7
Mode: 3
LetterboxInBreaks: 1
SpecialStyle: 0
WidescreenStoryboard: 0

[Editor]
Bookmarks: 40960,56843,60372,92137,106254,113313,120372,134490,152137,166254,180372,205078
DistanceSpacing: 0.8
BeatDivisor: 4
GridSize: 16
TimelineZoom: 1

[Metadata]
Title:Epimetheus
TitleUnicode:Epimetheus
Artist:MuryokuP
ArtistUnicode:無力P
Creator:Zillah
Version:Hard
Source:
Tags:
BeatmapID:456878
BeatmapSetID:192053

[Difficulty]
HPDrainRate:8
CircleSize:7
OverallDifficulty:8
ApproachRate:5
SliderMultiplier:1.4
SliderTickRate:1

[Events]
//Background and Video events
//Break Periods
//Storyboard Layer 0 (Background)
//Storyboard Layer 1 (Fail)
//Storyboard Layer 2 (Pass)
//Storyboard Layer 3 (Foreground)
//Storyboard Sound Samples
//Background Colour Transformations
3,100,163,162,255

[TimingPoints]
372.496286440569,441.176470588235,4,2,0,20,1,0

[HitObjects]
182,192,372,128,0,813:0:0:0:0:
256,192,1255,128,0,1696:0:0:0:0:
329,192,2137,128,0,2578:0:0:0:0:
402,192,3020,128,0,3462:0:0:0:0:
329,192,3902,128,0,4343:0:0:0:0:
402,192,4784,128,0,5225:0:0:0:0:
256,192,5667,128,0,6109:0:0:0:0:
182,192,6549,128,0,6990:0:0:0:0:
109,192,7431,128,0,7872:0:0:0:0:
182,192,8314,128,0,8755:0:0:0:0:
256,192,9196,128,0,9637:0:0:0:0:
329,192,10078,128,0,10519:0:0:0:0:
182,192,10960,128,0,11401:0:0:0:0:
402,192,11843,128,0,12284:0:0:0:0:
109,192,12725,128,0,13166:0:0:0:0:
402,192,13608,128,0,14049:0:0:0:0:
109,192,14490,128,0,14931:0:0:0:0:
475,192,14490,1,0,0:0:0:0:
402,192,14600,1,0,0:0:0:0:
329,192,14710,1,0,0:0:0:0:
329,192,15372,1,0,0:0:0:0:
182,192,15373,128,0,15815:0:0:0:0:
402,192,15482,1,0,0:0:0:0:
475,192,15593,1,0,0:0:0:0:
475,192,16254,1,0,0:0:0:0:
256,192,16255,128,0,16696:0:0:0:0:
402,192,16365,1,0,0:0:0:0:
329,192,16475,1,0,0:0:0:0:
329,192,17137,128,0,17578:0:0:0:0:
256,192,17137,1,0,0:0:0:0:
182,192,17247,1,0,0:0:0:0:
109,192,17357,1,0,0:0:0:0:
402,192,18019,1,0,0:0:0:0:
182,192,18020,128,0,18462:0:0:0:0:
329,192,18129,1,0,0:0:0:0:
256,192,18240,1,0,0:0:0:0:
329,192,18901,128,0,19343:0:0:0:0:
36,192,18901,1,0,0:0:0:0:
109,192,19012,1,0,0:0:0:0:
182,192,19122,1,0,0:0:0:0:
36,192,19343,1,0,0:0:0:0:
182,192,19564,1,0,0:0:0:0:
256,192,19784,1,0,0:0:0:0:
329,192,19784,128,0,20225:0:0:0:0:
36,192,20005,1,0,0:0:0:0:
182,192,20225,1,0,0:0:0:0:
36,192,20446,1,0,0:0:0:0:
475,192,20667,128,0,21109:0:0:0:0:
182,192,20667,1,0,0:0:0:0:
109,192,20887,1,0,0:0:0:0:
36,192,21108,1,0,0:0:0:0:
182,192,21328,1,0,0:0:0:0:
402,192,21548,128,0,21990:0:0:0:0:
36,192,21548,1,0,0:0:0:0:
109,192,21659,1,0,0:0:0:0:
182,192,21769,1,0,0:0:0:0:
329,192,22431,128,0,22872:0:0:0:0:
109,192,22431,1,0,0:0:0:0:
182,192,22541,1,0,0:0:0:0:
256,192,22651,1,0,0:0:0:0:
256,192,23313,128,0,23754:0:0:0:0:
475,192,23313,1,0,0:0:0:0:
402,192,23423,1,0,0:0:0:0:
329,192,23534,1,0,0:0:0:0:
182,192,24196,128,0,24637:0:0:0:0:
329,192,24196,1,0,0:0:0:0:
402,192,24306,1,0,0:0:0:0:
475,192,24416,1,0,0:0:0:0:
329,192,25078,128,0,25519:0:0:0:0:
182,192,25078,1,0,0:0:0:0:
109,192,25188,1,0,0:0:0:0:
36,192,25298,1,0,0:0:0:0:
402,192,25960,128,0,26401:0:0:0:0:
109,192,25960,1,0,0:0:0:0:
182,192,26071,1,0,0:0:0:0:
256,192,26181,1,0,0:0:0:0:
182,192,26401,1,0,0:0:0:0:
36,192,26622,1,0,0:0:0:0:
256,192,26843,1,0,0:0:0:0:
182,192,26843,1,0,0:0:0:0:
36,192,27064,1,0,0:0:0:0:
109,192,27284,1,0,0:0:0:0:
182,192,27284,1,0,0:0:0:0:
329,192,27284,1,0,0:0:0:0:
256,192,27505,1,0,0:0:0:0:
402,192,27505,1,0,0:0:0:0:
329,192,27726,1,0,0:0:0:0:
475,192,27726,1,0,0:0:0:0:
36,192,27726,1,0,0:0:0:0:
182,192,27726,1,0,0:0:0:0:
402,192,27946,1,0,0:0:0:0:
256,192,27946,1,0,0:0:0:0:
36,192,28167,1,0,0:0:0:0:
182,192,28167,1,0,0:0:0:0:
109,192,28387,1,0,0:0:0:0:
256,192,28387,1,0,0:0:0:0:
475,192,28607,1,0,0:0:0:0:
329,192,28828,1,0,0:0:0:0:
402,192,29048,1,0,0:0:0:0:
329,192,29269,1,0,0:0:0:0:
256,192,29490,1,0,0:0:0:0:
109,192,29710,1,0,0:0:0:0:
182,192,29931,1,0,0:0:0:0:
109,192,30151,1,0,0:0:0:0:
36,192,30372,1,0,0:0:0:0:
182,192,30593,1,0,0:0:0:0:
109,192,30813,1,0,0:0:0:0:
182,192,31034,1,0,0:0:0:0:
256,192,31254,1,0,0:0:0:0:
402,192,31475,1,0,0:0:0:0:
329,192,31696,1,0,0:0:0:0:
475,192,31916,1,0,0:0:0:0:
36,192,32137,1,0,0:0:0:0:
109,192,32247,1,0,0:0:0:0:
36,192,32357,1,0,0:0:0:0:
182,192,32468,1,0,0:0:0:0:
329,192,32578,1,0,0:0:0:0:
182,192,32798,1,0,0:0:0:0:
256,192,33019,1,0,0:0:0:0:
182,192,33240,1,0,0:0:0:0:
329,192,33460,1,0,0:0:0:0:
402,192,33681,1,0,0:0:0:0:
475,192,33901,1,0,0:0:0:0:
402,192,34012,1,0,0:0:0:0:
475,192,34122,1,0,0:0:0:0:
329,192,34232,1,0,0:0:0:0:
182,192,34343,1,0,0:0:0:0:
329,192,34563,1,0,0:0:0:0:
256,192,34784,1,0,0:0:0:0:
329,192,35004,1,0,0:0:0:0:
182,192,35225,1,0,0:0:0:0:
109,192,35446,1,0,0:0:0:0:
402,192,35446,1,0,0:0:0:0:
329,192,35556,1,0,0:0:0:0:
256,192,35666,1,0,0:0:0:0:
475,192,35666,1,0,0:0:0:0:
402,192,35887,1,0,0:0:0:0:
182,192,36107,1,0,0:0:0:0:
109,192,36107,1,0,0:0:0:0:
475,192,36218,1,0,0:0:0:0:
402,192,36328,1,0,0:0:0:0:
475,192,36438,1,0,0:0:0:0:
256,192,36548,1,0,0:0:0:0:
109,192,36769,1,0,0:0:0:0:
36,192,36769,1,0,0:0:0:0:
329,192,36990,1,0,0:0:0:0:
256,192,37100,1,0,0:0:0:0:
402,192,37210,1,0,0:0:0:0:
182,192,37431,1,0,0:0:0:0:
36,192,37431,1,0,0:0:0:0:
182,192,37541,1,0,0:0:0:0:
36,192,37541,1,0,0:0:0:0:
329,192,37651,1,0,0:0:0:0:
256,192,37762,1,0,0:0:0:0:
475,192,37872,1,0,0:0:0:0:
402,192,37872,1,0,0:0:0:0:
109,192,38093,1,0,0:0:0:0:
329,192,38093,1,0,0:0:0:0:
182,192,38313,1,0,0:0:0:0:
109,192,38423,1,0,0:0:0:0:
256,192,38534,1,0,0:0:0:0:
329,192,38534,1,0,0:0:0:0:
402,192,38754,1,0,0:0:0:0:
329,192,38865,1,0,0:0:0:0:
475,192,38975,1,0,0:0:0:0:
402,192,39085,1,0,0:0:0:0:
36,192,39196,1,0,0:0:0:0:
182,192,39196,1,0,0:0:0:0:
256,192,39306,1,0,0:0:0:0:
402,192,39416,1,0,0:0:0:0:
329,192,39526,1,0,0:0:0:0:
182,192,39637,1,0,0:0:0:0:
109,192,39637,1,0,0:0:0:0:
256,192,39857,1,0,0:0:0:0:
402,192,40078,1,0,0:0:0:0:
329,192,40298,1,0,0:0:0:0:
109,192,40519,1,0,0:0:0:0:
256,192,40740,1,0,0:0:0:0:
36,192,40740,128,0,40960:0:0:0:0:
475,192,40740,128,0,40960:0:0:0:0:
109,192,40960,1,0,0:0:0:0:
402,192,40960,1,0,0:0:0:0:
402,192,41107,1,0,0:0:0:0:
109,192,41107,1,0,0:0:0:0:
109,192,41401,1,0,0:0:0:0:
402,192,41512,1,0,0:0:0:0:
109,192,41622,1,0,0:0:0:0:
402,192,41732,1,0,0:0:0:0:
36,192,42063,1,0,0:0:0:0:
109,192,42118,1,0,0:0:0:0:
182,192,42173,1,0,0:0:0:0:
256,192,42229,1,0,0:0:0:0:
475,192,42394,1,0,0:0:0:0:
329,192,42394,1,0,0:0:0:0:
475,192,42504,1,0,0:0:0:0:
329,192,42504,1,0,0:0:0:0:
475,192,42615,1,0,0:0:0:0:
329,192,42615,1,0,0:0:0:0:
36,192,42725,1,0,0:0:0:0:
182,192,42835,1,0,0:0:0:0:
329,192,42946,1,0,0:0:0:0:
475,192,43166,1,0,0:0:0:0:
475,192,43387,1,0,0:0:0:0:
329,192,43497,1,0,0:0:0:0:
182,192,43607,1,0,0:0:0:0:
109,192,43607,1,0,0:0:0:0:
402,192,43718,1,0,0:0:0:0:
256,192,43828,1,0,0:0:0:0:
402,192,44048,1,0,0:0:0:0:
109,192,44269,1,0,0:0:0:0:
256,192,44379,1,0,0:0:0:0:
475,192,44600,1,0,0:0:0:0:
329,192,44710,1,0,0:0:0:0:
109,192,44931,1,0,0:0:0:0:
256,192,45041,1,0,0:0:0:0:
402,192,45262,1,0,0:0:0:0:
182,192,45372,1,0,0:0:0:0:
109,192,45372,1,0,0:0:0:0:
475,192,45482,1,0,0:0:0:0:
329,192,45593,1,0,0:0:0:0:
36,192,45923,1,0,0:0:0:0:
182,192,46034,1,0,0:0:0:0:
329,192,46254,1,0,0:0:0:0:
182,192,46365,1,0,0:0:0:0:
329,192,46475,1,0,0:0:0:0:
182,192,46696,1,0,0:0:0:0:
475,192,46916,1,0,0:0:0:0:
402,192,47026,1,0,0:0:0:0:
182,192,47137,1,0,0:0:0:0:
109,192,47137,1,0,0:0:0:0:
329,192,47247,1,0,0:0:0:0:
402,192,47357,1,0,0:0:0:0:
256,192,47578,1,0,0:0:0:0:
182,192,47688,1,0,0:0:0:0:
329,192,47798,1,0,0:0:0:0:
109,192,48129,1,0,0:0:0:0:
256,192,48240,1,0,0:0:0:0:
402,192,48460,1,0,0:0:0:0:
256,192,48571,1,0,0:0:0:0:
109,192,48791,1,0,0:0:0:0:
402,192,48901,1,0,0:0:0:0:
329,192,48975,1,0,0:0:0:0:
182,192,49048,1,0,0:0:0:0:
109,192,49122,1,0,0:0:0:0:
475,192,49232,1,0,0:0:0:0:
329,192,49343,1,0,0:0:0:0:
182,192,49453,1,0,0:0:0:0:
36,192,49563,1,0,0:0:0:0:
475,192,49784,1,0,0:0:0:0:
329,192,49894,1,0,0:0:0:0:
402,192,50004,1,0,0:0:0:0:
182,192,50225,1,0,0:0:0:0:
36,192,50446,1,0,0:0:0:0:
182,192,50556,1,0,0:0:0:0:
329,192,50666,1,0,0:0:0:0:
402,192,50666,1,0,0:0:0:0:
182,192,50776,1,0,0:0:0:0:
36,192,50887,1,0,0:0:0:0:
329,192,51107,1,0,0:0:0:0:
182,192,51328,1,0,0:0:0:0:
109,192,51438,1,0,0:0:0:0:
402,192,51659,1,0,0:0:0:0:
256,192,51769,1,0,0:0:0:0:
109,192,51990,1,0,0:0:0:0:
256,192,52100,1,0,0:0:0:0:
402,192,52321,1,0,0:0:0:0:
329,192,52431,1,0,0:0:0:0:
109,192,52431,1,0,0:0:0:0:
182,192,52541,1,0,0:0:0:0:
256,192,52651,1,0,0:0:0:0:
402,192,52982,1,0,0:0:0:0:
256,192,53093,1,0,0:0:0:0:
182,192,53093,1,0,0:0:0:0:
109,192,53313,1,0,0:0:0:0:
402,192,53313,1,0,0:0:0:0:
36,192,53313,1,0,0:0:0:0:
475,192,53313,1,0,0:0:0:0:
256,192,53534,1,0,0:0:0:0:
109,192,53754,1,0,0:0:0:0:
182,192,53754,1,0,0:0:0:0:
329,192,53754,1,0,0:0:0:0:
402,192,53754,1,0,0:0:0:0:
256,192,53975,1,0,0:0:0:0:
109,192,54196,1,0,0:0:0:0:
36,192,54196,1,0,0:0:0:0:
402,192,54196,1,0,0:0:0:0:
475,192,54196,1,0,0:0:0:0:
256,192,54416,1,0,0:0:0:0:
182,192,54637,1,0,0:0:0:0:
109,192,54637,1,0,0:0:0:0:
329,192,54637,1,0,0:0:0:0:
402,192,54637,1,0,0:0:0:0:
475,192,54857,1,0,0:0:0:0:
256,192,54857,1,0,0:0:0:0:
402,192,54931,1,0,0:0:0:0:
182,192,54931,1,0,0:0:0:0:
329,192,55004,1,0,0:0:0:0:
109,192,55004,1,0,0:0:0:0:
256,192,55078,1,0,0:0:0:0:
36,192,55078,1,0,0:0:0:0:
402,192,55298,1,0,0:0:0:0:
182,192,55409,1,0,0:0:0:0:
109,192,55409,1,0,0:0:0:0:
109,192,55629,1,0,0:0:0:0:
329,192,55740,1,0,0:0:0:0:
402,192,55740,1,0,0:0:0:0:
36,192,55960,1,0,0:0:0:0:
256,192,55960,1,0,0:0:0:0:
109,192,56034,1,0,0:0:0:0:
329,192,56034,1,0,0:0:0:0:
182,192,56107,1,0,0:0:0:0:
402,192,56107,1,0,0:0:0:0:
256,192,56181,1,0,0:0:0:0:
475,192,56181,1,0,0:0:0:0:
402,192,56291,1,0,0:0:0:0:
329,192,56401,1,0,0:0:0:0:
182,192,56401,1,0,0:0:0:0:
256,192,56512,1,0,0:0:0:0:
329,192,56567,1,0,0:0:0:0:
402,192,56622,1,0,0:0:0:0:
475,192,56622,1,0,0:0:0:0:
36,192,56843,1,0,0:0:0:0:
182,192,56843,1,0,0:0:0:0:
329,192,56843,128,0,58607:0:0:0:0:
475,192,57063,1,0,0:0:0:0:
256,192,57284,1,0,0:0:0:0:
109,192,57504,1,0,0:0:0:0:
36,192,57725,1,0,0:0:0:0:
256,192,57725,1,0,0:0:0:0:
109,192,57946,1,0,0:0:0:0:
402,192,57946,1,0,0:0:0:0:
182,192,58166,1,0,0:0:0:0:
475,192,58166,1,0,0:0:0:0:
36,192,58387,1,0,0:0:0:0:
256,192,58387,1,0,0:0:0:0:
109,192,58607,128,0,60372:0:0:0:0:
475,192,58607,1,0,0:0:0:0:
182,192,58607,1,0,0:0:0:0:
402,192,58828,1,0,0:0:0:0:
329,192,59048,1,0,0:0:0:0:
256,192,59048,1,0,0:0:0:0:
182,192,59269,1,0,0:0:0:0:
402,192,59269,1,0,0:0:0:0:
475,192,59490,1,0,0:0:0:0:
36,192,59490,1,0,0:0:0:0:
182,192,59710,1,0,0:0:0:0:
329,192,59710,1,0,0:0:0:0:
256,192,59931,1,0,0:0:0:0:
402,192,59931,1,0,0:0:0:0:
329,192,60151,1,0,0:0:0:0:
475,192,60151,1,0,0:0:0:0:
402,192,60372,128,0,62137:0:0:0:0:
36,192,60372,1,0,0:0:0:0:
182,192,60372,1,0,0:0:0:0:
182,192,60666,1,0,0:0:0:0:
329,192,60666,1,0,0:0:0:0:
36,192,60960,1,0,0:0:0:0:
182,192,61254,1,0,0:0:0:0:
256,192,61254,1,0,0:0:0:0:
329,192,61254,1,0,0:0:0:0:
36,192,61548,1,0,0:0:0:0:
109,192,61696,1,0,0:0:0:0:
182,192,61843,1,0,0:0:0:0:
256,192,61843,1,0,0:0:0:0:
329,192,61843,1,0,0:0:0:0:
109,192,62137,128,0,63901:0:0:0:0:
329,192,62137,1,0,0:0:0:0:
475,192,62137,1,0,0:0:0:0:
329,192,62431,1,0,0:0:0:0:
182,192,62431,1,0,0:0:0:0:
475,192,62725,1,0,0:0:0:0:
182,192,63019,1,0,0:0:0:0:
256,192,63019,1,0,0:0:0:0:
329,192,63019,1,0,0:0:0:0:
475,192,63166,1,0,0:0:0:0:
402,192,63313,1,0,0:0:0:0:
329,192,63460,1,0,0:0:0:0:
256,192,63460,1,0,0:0:0:0:
182,192,63460,1,0,0:0:0:0:
329,192,63901,128,0,65666:0:0:0:0:
36,192,63901,1,0,0:0:0:0:
182,192,63901,1,0,0:0:0:0:
109,192,64232,1,0,0:0:0:0:
402,192,64232,1,0,0:0:0:0:
182,192,64563,1,0,0:0:0:0:
402,192,64784,1,0,0:0:0:0:
475,192,64784,1,0,0:0:0:0:
256,192,64784,1,0,0:0:0:0:
36,192,65115,1,0,0:0:0:0:
256,192,65446,1,0,0:0:0:0:
402,192,65446,1,0,0:0:0:0:
475,192,65446,1,0,0:0:0:0:
109,192,65666,128,0,67431:0:0:0:0:
36,192,65666,1,0,0:0:0:0:
182,192,65666,1,0,0:0:0:0:
182,192,65997,1,0,0:0:0:0:
329,192,65997,1,0,0:0:0:0:
475,192,66328,1,0,0:0:0:0:
36,192,66548,1,0,0:0:0:0:
182,192,66622,1,0,0:0:0:0:
256,192,66696,1,0,0:0:0:0:
329,192,66769,1,0,0:0:0:0:
475,192,66769,1,0,0:0:0:0:
402,192,66769,1,0,0:0:0:0:
36,192,66843,1,0,0:0:0:0:
256,192,66990,1,0,0:0:0:0:
475,192,66990,1,0,0:0:0:0:
402,192,66990,1,0,0:0:0:0:
329,192,67210,1,0,0:0:0:0:
182,192,67210,1,0,0:0:0:0:
36,192,67210,1,0,0:0:0:0:
182,192,67431,128,0,69196:0:0:0:0:
402,192,67431,1,0,0:0:0:0:
475,192,67431,1,0,0:0:0:0:
329,192,67762,1,0,0:0:0:0:
402,192,67762,1,0,0:0:0:0:
256,192,68093,1,0,0:0:0:0:
475,192,68313,1,0,0:0:0:0:
402,192,68313,1,0,0:0:0:0:
36,192,68313,1,0,0:0:0:0:
256,192,68644,1,0,0:0:0:0:
402,192,68975,1,0,0:0:0:0:
329,192,68975,1,0,0:0:0:0:
109,192,68975,1,0,0:0:0:0:
402,192,69196,128,0,70960:0:0:0:0:
256,192,69196,1,0,0:0:0:0:
329,192,69196,1,0,0:0:0:0:
182,192,69526,1,0,0:0:0:0:
109,192,69526,1,0,0:0:0:0:
329,192,69857,1,0,0:0:0:0:
475,192,70078,1,0,0:0:0:0:
256,192,70078,1,0,0:0:0:0:
182,192,70078,1,0,0:0:0:0:
109,192,70519,1,0,0:0:0:0:
182,192,70519,1,0,0:0:0:0:
329,192,70519,1,0,0:0:0:0:
329,192,70960,128,0,72725:0:0:0:0:
36,192,70960,1,0,0:0:0:0:
109,192,70960,1,0,0:0:0:0:
109,192,71291,1,0,0:0:0:0:
182,192,71291,1,0,0:0:0:0:
256,192,71622,1,0,0:0:0:0:
36,192,71843,1,0,0:0:0:0:
109,192,71843,1,0,0:0:0:0:
402,192,71843,1,0,0:0:0:0:
182,192,72173,1,0,0:0:0:0:
36,192,72504,1,0,0:0:0:0:
109,192,72504,1,0,0:0:0:0:
402,192,72615,1,0,0:0:0:0:
475,192,72615,1,0,0:0:0:0:
256,192,72725,1,0,0:0:0:0:
182,192,72725,1,0,0:0:0:0:
109,192,72725,1,0,0:0:0:0:
402,192,72946,1,0,0:0:0:0:
36,192,72946,1,0,0:0:0:0:
256,192,72946,1,0,0:0:0:0:
109,192,73166,1,0,0:0:0:0:
182,192,73166,1,0,0:0:0:0:
475,192,73166,1,0,0:0:0:0:
329,192,73166,1,0,0:0:0:0:
36,192,73387,1,0,0:0:0:0:
256,192,73387,1,0,0:0:0:0:
402,192,73387,1,0,0:0:0:0:
109,192,73607,1,0,0:0:0:0:
182,192,73607,1,0,0:0:0:0:
329,192,73607,1,0,0:0:0:0:
475,192,73607,1,0,0:0:0:0:
402,192,73828,1,0,0:0:0:0:
256,192,73828,1,0,0:0:0:0:
256,192,73938,1,0,0:0:0:0:
402,192,73938,1,0,0:0:0:0:
36,192,74048,1,0,0:0:0:0:
329,192,74048,1,0,0:0:0:0:
109,192,74122,1,0,0:0:0:0:
402,192,74122,1,0,0:0:0:0:
182,192,74196,1,0,0:0:0:0:
475,192,74196,1,0,0:0:0:0:
256,192,74269,1,0,0:0:0:0:
329,192,74269,1,0,0:0:0:0:
36,192,74490,128,0,76254:0:0:0:0:
182,192,74490,1,0,0:0:0:0:
402,192,74490,1,0,0:0:0:0:
475,192,74490,1,0,0:0:0:0:
402,192,74710,1,0,0:0:0:0:
182,192,74710,1,0,0:0:0:0:
182,192,74931,1,0,0:0:0:0:
402,192,74931,1,0,0:0:0:0:
109,192,74931,1,0,0:0:0:0:
182,192,75151,1,0,0:0:0:0:
402,192,75151,1,0,0:0:0:0:
256,192,75372,1,0,0:0:0:0:
329,192,75372,1,0,0:0:0:0:
475,192,75372,1,0,0:0:0:0:
182,192,75593,1,0,0:0:0:0:
402,192,75593,1,0,0:0:0:0:
182,192,75813,1,0,0:0:0:0:
402,192,75813,1,0,0:0:0:0:
109,192,75813,1,0,0:0:0:0:
182,192,76034,1,0,0:0:0:0:
402,192,76034,1,0,0:0:0:0:
182,192,76254,128,0,78019:0:0:0:0:
329,192,76254,1,0,0:0:0:0:
402,192,76254,1,0,0:0:0:0:
475,192,76254,1,0,0:0:0:0:
329,192,76475,1,0,0:0:0:0:
402,192,76475,1,0,0:0:0:0:
329,192,76696,1,0,0:0:0:0:
402,192,76696,1,0,0:0:0:0:
109,192,76696,1,0,0:0:0:0:
402,192,76916,1,0,0:0:0:0:
329,192,76916,1,0,0:0:0:0:
36,192,77137,1,0,0:0:0:0:
402,192,77137,1,0,0:0:0:0:
475,192,77137,1,0,0:0:0:0:
329,192,77357,1,0,0:0:0:0:
36,192,77468,1,0,0:0:0:0:
402,192,77468,1,0,0:0:0:0:
475,192,77468,1,0,0:0:0:0:
329,192,77578,1,0,0:0:0:0:
36,192,77798,1,0,0:0:0:0:
402,192,77798,1,0,0:0:0:0:
475,192,77798,1,0,0:0:0:0:
329,192,78019,128,0,79784:0:0:0:0:
475,192,78019,1,0,0:0:0:0:
256,192,78019,1,0,0:0:0:0:
109,192,78019,1,0,0:0:0:0:
256,192,78240,1,0,0:0:0:0:
475,192,78240,1,0,0:0:0:0:
256,192,78460,1,0,0:0:0:0:
475,192,78460,1,0,0:0:0:0:
36,192,78460,1,0,0:0:0:0:
256,192,78681,1,0,0:0:0:0:
475,192,78681,1,0,0:0:0:0:
475,192,78901,1,0,0:0:0:0:
256,192,78901,1,0,0:0:0:0:
109,192,78901,1,0,0:0:0:0:
475,192,79122,1,0,0:0:0:0:
256,192,79122,1,0,0:0:0:0:
475,192,79343,1,0,0:0:0:0:
256,192,79343,1,0,0:0:0:0:
182,192,79343,1,0,0:0:0:0:
402,192,79416,1,0,0:0:0:0:
109,192,79416,1,0,0:0:0:0:
256,192,79490,1,0,0:0:0:0:
36,192,79490,1,0,0:0:0:0:
182,192,79563,1,0,0:0:0:0:
109,192,79563,1,0,0:0:0:0:
475,192,79784,128,0,81548:0:0:0:0:
36,192,79784,1,0,0:0:0:0:
182,192,79784,1,0,0:0:0:0:
402,192,79784,1,0,0:0:0:0:
402,192,80004,1,0,0:0:0:0:
182,192,80004,1,0,0:0:0:0:
36,192,80004,1,0,0:0:0:0:
402,192,80225,1,0,0:0:0:0:
182,192,80225,1,0,0:0:0:0:
36,192,80225,1,0,0:0:0:0:
402,192,80446,1,0,0:0:0:0:
182,192,80446,1,0,0:0:0:0:
36,192,80446,1,0,0:0:0:0:
36,192,80666,1,0,0:0:0:0:
256,192,80666,1,0,0:0:0:0:
109,192,80740,1,0,0:0:0:0:
329,192,80740,1,0,0:0:0:0:
182,192,80813,1,0,0:0:0:0:
402,192,80813,1,0,0:0:0:0:
256,192,80887,1,0,0:0:0:0:
329,192,80887,1,0,0:0:0:0:
109,192,80960,1,0,0:0:0:0:
402,192,80960,1,0,0:0:0:0:
329,192,81107,1,0,0:0:0:0:
256,192,81107,1,0,0:0:0:0:
182,192,81218,1,0,0:0:0:0:
109,192,81218,1,0,0:0:0:0:
402,192,81328,1,0,0:0:0:0:
256,192,81328,1,0,0:0:0:0:
36,192,81328,1,0,0:0:0:0:
109,192,81548,1,0,0:0:0:0:
182,192,81548,1,0,0:0:0:0:
329,192,81548,1,0,0:0:0:0:
402,192,81548,1,0,0:0:0:0:
109,192,81769,1,0,0:0:0:0:
402,192,81769,1,0,0:0:0:0:
109,192,81990,1,0,0:0:0:0:
329,192,81990,1,0,0:0:0:0:
402,192,81990,1,0,0:0:0:0:
109,192,82210,1,0,0:0:0:0:
402,192,82210,1,0,0:0:0:0:
109,192,82431,1,0,0:0:0:0:
182,192,82431,1,0,0:0:0:0:
402,192,82431,1,0,0:0:0:0:
402,192,82651,1,0,0:0:0:0:
256,192,82651,1,0,0:0:0:0:
109,192,82651,1,0,0:0:0:0:
36,192,82872,1,0,0:0:0:0:
109,192,82872,1,0,0:0:0:0:
475,192,82946,1,0,0:0:0:0:
402,192,82946,1,0,0:0:0:0:
109,192,83019,1,0,0:0:0:0:
182,192,83019,1,0,0:0:0:0:
402,192,83093,1,0,0:0:0:0:
329,192,83093,1,0,0:0:0:0:
182,192,83203,1,0,0:0:0:0:
329,192,83203,1,0,0:0:0:0:
36,192,83313,1,0,0:0:0:0:
109,192,83313,1,0,0:0:0:0:
402,192,83313,1,0,0:0:0:0:
475,192,83313,1,0,0:0:0:0:
329,192,83387,1,0,0:0:0:0:
256,192,83460,1,0,0:0:0:0:
182,192,83534,1,0,0:0:0:0:
109,192,83534,1,0,0:0:0:0:
329,192,83607,1,0,0:0:0:0:
402,192,83607,1,0,0:0:0:0:
36,192,83754,1,0,0:0:0:0:
109,192,83754,1,0,0:0:0:0:
182,192,83828,1,0,0:0:0:0:
329,192,83901,1,0,0:0:0:0:
402,192,83975,1,0,0:0:0:0:
475,192,83975,1,0,0:0:0:0:
36,192,84196,1,0,0:0:0:0:
329,192,84196,1,0,0:0:0:0:
402,192,84269,1,0,0:0:0:0:
109,192,84269,1,0,0:0:0:0:
182,192,84343,1,0,0:0:0:0:
475,192,84343,1,0,0:0:0:0:
109,192,84416,1,0,0:0:0:0:
402,192,84416,1,0,0:0:0:0:
475,192,84526,1,0,0:0:0:0:
256,192,84526,1,0,0:0:0:0:
402,192,84637,1,0,0:0:0:0:
182,192,84637,1,0,0:0:0:0:
329,192,84710,1,0,0:0:0:0:
109,192,84710,1,0,0:0:0:0:
256,192,84784,1,0,0:0:0:0:
36,192,84784,1,0,0:0:0:0:
182,192,84857,1,0,0:0:0:0:
329,192,85004,1,0,0:0:0:0:
402,192,85004,1,0,0:0:0:0:
36,192,85078,1,0,0:0:0:0:
109,192,85078,1,0,0:0:0:0:
256,192,85078,1,0,0:0:0:0:
475,192,85078,128,0,85298:0:0:0:0:
402,192,85298,128,0,85519:0:0:0:0:
475,192,85519,128,0,85740:0:0:0:0:
256,192,85519,128,0,85740:0:0:0:0:
402,192,85740,128,0,85960:0:0:0:0:
256,192,85960,128,0,86181:0:0:0:0:
36,192,85960,128,0,86181:0:0:0:0:
402,192,86181,128,0,86401:0:0:0:0:
109,192,86401,128,0,86622:0:0:0:0:
256,192,86401,128,0,86622:0:0:0:0:
475,192,86622,128,0,86843:0:0:0:0:
329,192,86843,128,0,87063:0:0:0:0:
109,192,87063,128,0,87284:0:0:0:0:
256,192,87063,128,0,87284:0:0:0:0:
402,192,87284,128,0,87504:0:0:0:0:
182,192,87504,128,0,87725:0:0:0:0:
36,192,87725,128,0,87946:0:0:0:0:
475,192,87725,128,0,87946:0:0:0:0:
402,192,87946,128,0,88166:0:0:0:0:
329,192,88166,128,0,88387:0:0:0:0:
109,192,88166,128,0,88387:0:0:0:0:
256,192,88387,128,0,88607:0:0:0:0:
109,192,88607,128,0,88828:0:0:0:0:
182,192,88607,1,0,0:0:0:0:
36,192,88828,128,0,89048:0:0:0:0:
329,192,89048,128,0,89269:0:0:0:0:
182,192,89269,128,0,89490:0:0:0:0:
109,192,89269,128,0,89490:0:0:0:0:
402,192,89490,128,0,89710:0:0:0:0:
475,192,89710,128,0,89931:0:0:0:0:
402,192,89931,128,0,90151:0:0:0:0:
329,192,89931,128,0,90151:0:0:0:0:
256,192,90151,128,0,90372:0:0:0:0:
182,192,90372,1,0,0:0:0:0:
109,192,90372,128,0,90593:0:0:0:0:
475,192,90372,128,0,90593:0:0:0:0:
329,192,90593,128,0,90813:0:0:0:0:
36,192,90813,128,0,91034:0:0:0:0:
182,192,90813,1,0,0:0:0:0:
402,192,90813,128,0,91034:0:0:0:0:
182,192,91034,128,0,91254:0:0:0:0:
256,192,91328,1,0,0:0:0:0:
329,192,91401,1,0,0:0:0:0:
402,192,91475,1,0,0:0:0:0:
475,192,91475,1,0,0:0:0:0:
36,192,91585,1,0,0:0:0:0:
182,192,91585,1,0,0:0:0:0:
109,192,91585,1,0,0:0:0:0:
329,192,91696,1,0,0:0:0:0:
402,192,91696,1,0,0:0:0:0:
109,192,91916,1,0,0:0:0:0:
36,192,91916,1,0,0:0:0:0:
402,192,92026,1,0,0:0:0:0:
475,192,92026,1,0,0:0:0:0:
36,192,92137,128,0,93901:0:0:0:0:
182,192,92137,1,0,0:0:0:0:
329,192,92247,1,0,0:0:0:0:
182,192,92357,1,0,0:0:0:0:
329,192,92578,1,0,0:0:0:0:
182,192,92798,1,0,0:0:0:0:
329,192,92909,1,0,0:0:0:0:
402,192,93019,1,0,0:0:0:0:
475,192,93019,1,0,0:0:0:0:
182,192,93901,128,0,95666:0:0:0:0:
36,192,94563,1,0,0:0:0:0:
109,192,94673,1,0,0:0:0:0:
329,192,94784,1,0,0:0:0:0:
402,192,94784,1,0,0:0:0:0:
36,192,95004,1,0,0:0:0:0:
109,192,95115,1,0,0:0:0:0:
36,192,95335,1,0,0:0:0:0:
109,192,95446,1,0,0:0:0:0:
475,192,95666,128,0,97431:0:0:0:0:
329,192,95666,1,0,0:0:0:0:
109,192,95776,1,0,0:0:0:0:
329,192,95887,1,0,0:0:0:0:
109,192,96107,1,0,0:0:0:0:
329,192,96328,1,0,0:0:0:0:
256,192,96438,1,0,0:0:0:0:
109,192,96548,1,0,0:0:0:0:
36,192,96548,1,0,0:0:0:0:
329,192,97431,128,0,99196:0:0:0:0:
475,192,98093,1,0,0:0:0:0:
182,192,98203,1,0,0:0:0:0:
109,192,98313,1,0,0:0:0:0:
36,192,98313,1,0,0:0:0:0:
475,192,98534,1,0,0:0:0:0:
182,192,98644,1,0,0:0:0:0:
475,192,98865,1,0,0:0:0:0:
182,192,98975,1,0,0:0:0:0:
36,192,99196,128,0,100960:0:0:0:0:
256,192,99196,1,0,0:0:0:0:
475,192,99306,1,0,0:0:0:0:
256,192,99416,1,0,0:0:0:0:
475,192,99637,1,0,0:0:0:0:
256,192,99857,1,0,0:0:0:0:
329,192,99968,1,0,0:0:0:0:
475,192,100078,1,0,0:0:0:0:
402,192,100078,1,0,0:0:0:0:
182,192,100960,128,0,102725:0:0:0:0:
36,192,101622,1,0,0:0:0:0:
256,192,101732,1,0,0:0:0:0:
402,192,101843,1,0,0:0:0:0:
475,192,101843,1,0,0:0:0:0:
36,192,102063,1,0,0:0:0:0:
256,192,102173,1,0,0:0:0:0:
36,192,102394,1,0,0:0:0:0:
256,192,102504,1,0,0:0:0:0:
475,192,102725,128,0,104490:0:0:0:0:
402,192,102725,1,0,0:0:0:0:
109,192,102835,1,0,0:0:0:0:
402,192,102946,1,0,0:0:0:0:
109,192,103166,1,0,0:0:0:0:
402,192,103387,1,0,0:0:0:0:
329,192,103497,1,0,0:0:0:0:
182,192,103607,1,0,0:0:0:0:
109,192,103607,1,0,0:0:0:0:
329,192,104490,128,0,106254:0:0:0:0:
475,192,105151,1,0,0:0:0:0:
402,192,105262,1,0,0:0:0:0:
182,192,105372,1,0,0:0:0:0:
109,192,105372,1,0,0:0:0:0:
475,192,105593,1,0,0:0:0:0:
402,192,105703,1,0,0:0:0:0:
475,192,105923,1,0,0:0:0:0:
402,192,106034,1,0,0:0:0:0:
36,192,106254,128,0,108019:0:0:0:0:
256,192,106254,1,0,0:0:0:0:
182,192,106254,128,0,106696:0:0:0:0:
402,192,106365,1,0,0:0:0:0:
256,192,106475,1,0,0:0:0:0:
402,192,106696,1,0,0:0:0:0:
109,192,106696,128,0,106916:0:0:0:0:
256,192,106916,1,0,0:0:0:0:
182,192,106916,128,0,107137:0:0:0:0:
329,192,107026,1,0,0:0:0:0:
402,192,107137,1,0,0:0:0:0:
475,192,107137,1,0,0:0:0:0:
109,192,107137,128,0,107357:0:0:0:0:
256,192,107247,1,0,0:0:0:0:
402,192,107357,1,0,0:0:0:0:
256,192,107578,1,0,0:0:0:0:
182,192,107578,128,0,107798:0:0:0:0:
256,192,107798,1,0,0:0:0:0:
109,192,107798,128,0,108019:0:0:0:0:
402,192,107909,1,0,0:0:0:0:
182,192,108019,128,0,109784:0:0:0:0:
475,192,108019,128,0,108240:0:0:0:0:
256,192,108129,1,0,0:0:0:0:
402,192,108240,1,0,0:0:0:0:
256,192,108460,1,0,0:0:0:0:
109,192,108460,128,0,108681:0:0:0:0:
402,192,108571,1,0,0:0:0:0:
475,192,108681,128,0,108901:0:0:0:0:
256,192,108791,1,0,0:0:0:0:
329,192,108901,1,0,0:0:0:0:
402,192,108901,1,0,0:0:0:0:
36,192,108901,128,0,109122:0:0:0:0:
256,192,109012,1,0,0:0:0:0:
402,192,109122,1,0,0:0:0:0:
475,192,109232,128,0,109453:0:0:0:0:
256,192,109453,1,0,0:0:0:0:
402,192,109563,1,0,0:0:0:0:
109,192,109563,128,0,109784:0:0:0:0:
475,192,109784,128,0,111548:0:0:0:0:
402,192,109784,1,0,0:0:0:0:
36,192,109784,128,0,110004:0:0:0:0:
329,192,109894,1,0,0:0:0:0:
182,192,110004,1,0,0:0:0:0:
182,192,110225,1,0,0:0:0:0:
402,192,110225,128,0,110446:0:0:0:0:
182,192,110446,1,0,0:0:0:0:
36,192,110446,128,0,110666:0:0:0:0:
256,192,110556,1,0,0:0:0:0:
329,192,110666,1,0,0:0:0:0:
402,192,110666,1,0,0:0:0:0:
109,192,110666,128,0,110887:0:0:0:0:
182,192,110776,1,0,0:0:0:0:
329,192,110887,1,0,0:0:0:0:
402,192,110887,128,0,111107:0:0:0:0:
182,192,111107,1,0,0:0:0:0:
36,192,111107,128,0,111328:0:0:0:0:
329,192,111218,1,0,0:0:0:0:
182,192,111328,1,0,0:0:0:0:
109,192,111328,128,0,111548:0:0:0:0:
329,192,111548,128,0,113313:0:0:0:0:
402,192,111548,128,0,111769:0:0:0:0:
256,192,111659,1,0,0:0:0:0:
182,192,111769,1,0,0:0:0:0:
475,192,111769,128,0,111990:0:0:0:0:
256,192,111990,1,0,0:0:0:0:
402,192,111990,128,0,112210:0:0:0:0:
182,192,112100,1,0,0:0:0:0:
36,192,112321,1,0,0:0:0:0:
109,192,112431,1,0,0:0:0:0:
182,192,112504,1,0,0:0:0:0:
256,192,112578,1,0,0:0:0:0:
109,192,112651,1,0,0:0:0:0:
182,192,112762,1,0,0:0:0:0:
402,192,112872,1,0,0:0:0:0:
475,192,112872,1,0,0:0:0:0:
182,192,112982,1,0,0:0:0:0:
109,192,112982,1,0,0:0:0:0:
256,192,113093,1,0,0:0:0:0:
402,192,113093,1,0,0:0:0:0:
475,192,113093,1,0,0:0:0:0:
36,192,113313,128,0,115078:0:0:0:0:
182,192,113313,1,0,0:0:0:0:
475,192,113313,1,0,0:0:0:0:
402,192,113423,1,0,0:0:0:0:
329,192,113534,1,0,0:0:0:0:
109,192,113754,128,0,114196:0:0:0:0:
182,192,113754,128,0,113975:0:0:0:0:
475,192,113754,1,0,0:0:0:0:
256,192,113975,128,0,114196:0:0:0:0:
329,192,113975,1,0,0:0:0:0:
402,192,114085,1,0,0:0:0:0:
475,192,114196,128,0,114416:0:0:0:0:
329,192,114196,1,0,0:0:0:0:
182,192,114196,1,0,0:0:0:0:
402,192,114306,1,0,0:0:0:0:
329,192,114416,1,0,0:0:0:0:
256,192,114637,128,0,115078:0:0:0:0:
329,192,114637,128,0,114857:0:0:0:0:
475,192,114637,1,0,0:0:0:0:
475,192,114857,128,0,115078:0:0:0:0:
402,192,114857,1,0,0:0:0:0:
109,192,114968,1,0,0:0:0:0:
182,192,115078,128,0,116843:0:0:0:0:
402,192,115078,128,0,115298:0:0:0:0:
329,192,115188,1,0,0:0:0:0:
109,192,115298,1,0,0:0:0:0:
36,192,115519,128,0,115960:0:0:0:0:
256,192,115519,128,0,115740:0:0:0:0:
329,192,115519,1,0,0:0:0:0:
402,192,115629,1,0,0:0:0:0:
475,192,115740,128,0,115960:0:0:0:0:
402,192,115850,1,0,0:0:0:0:
329,192,115960,1,0,0:0:0:0:
109,192,115960,128,0,116181:0:0:0:0:
256,192,115960,1,0,0:0:0:0:
402,192,116071,1,0,0:0:0:0:
475,192,116181,1,0,0:0:0:0:
402,192,116291,128,0,116512:0:0:0:0:
109,192,116401,128,0,116843:0:0:0:0:
329,192,116512,1,0,0:0:0:0:
256,192,116622,128,0,116843:0:0:0:0:
475,192,116622,1,0,0:0:0:0:
475,192,116843,128,0,118607:0:0:0:0:
36,192,116843,128,0,117063:0:0:0:0:
402,192,116843,1,0,0:0:0:0:
329,192,116953,1,0,0:0:0:0:
256,192,117063,1,0,0:0:0:0:
109,192,117284,128,0,117504:0:0:0:0:
182,192,117284,1,0,0:0:0:0:
402,192,117284,128,0,117725:0:0:0:0:
36,192,117504,128,0,117725:0:0:0:0:
329,192,117504,1,0,0:0:0:0:
256,192,117615,1,0,0:0:0:0:
109,192,117725,128,0,117946:0:0:0:0:
182,192,117725,1,0,0:0:0:0:
329,192,117725,1,0,0:0:0:0:
256,192,117835,1,0,0:0:0:0:
329,192,117946,1,0,0:0:0:0:
36,192,118056,128,0,118276:0:0:0:0:
256,192,118056,1,0,0:0:0:0:
182,192,118166,128,0,118607:0:0:0:0:
329,192,118276,1,0,0:0:0:0:
256,192,118387,128,0,118607:0:0:0:0:
109,192,118387,1,0,0:0:0:0:
329,192,118607,128,0,118828:0:0:0:0:
475,192,118718,1,0,0:0:0:0:
402,192,118828,128,0,119269:0:0:0:0:
109,192,118828,1,0,0:0:0:0:
36,192,118938,128,0,119159:0:0:0:0:
329,192,119048,1,0,0:0:0:0:
256,192,119159,1,0,0:0:0:0:
182,192,119269,128,0,119710:0:0:0:0:
109,192,119269,128,0,119490:0:0:0:0:
256,192,119379,1,0,0:0:0:0:
475,192,119490,1,0,0:0:0:0:
329,192,119490,1,0,0:0:0:0:
402,192,119563,1,0,0:0:0:0:
36,192,119600,128,0,119821:0:0:0:0:
329,192,119637,1,0,0:0:0:0:
256,192,119710,128,0,120372:0:0:0:0:
475,192,119710,1,0,0:0:0:0:
109,192,119821,128,0,120041:0:0:0:0:
402,192,119821,1,0,0:0:0:0:
475,192,119931,1,0,0:0:0:0:
329,192,120041,1,0,0:0:0:0:
402,192,120151,1,0,0:0:0:0:
182,192,120151,1,0,0:0:0:0:
109,192,120262,1,0,0:0:0:0:
36,192,120372,1,0,0:0:0:0:
475,192,120372,1,0,0:0:0:0:
329,192,120372,128,0,123901:0:0:0:0:
182,192,120372,1,0,0:0:0:0:
402,192,120593,1,0,0:0:0:0:
182,192,120813,1,0,0:0:0:0:
402,192,121034,1,0,0:0:0:0:
182,192,121254,1,0,0:0:0:0:
402,192,121475,1,0,0:0:0:0:
182,192,121696,1,0,0:0:0:0:
402,192,121806,1,0,0:0:0:0:
475,192,121806,1,0,0:0:0:0:
256,192,121916,1,0,0:0:0:0:
182,192,122026,1,0,0:0:0:0:
109,192,122026,1,0,0:0:0:0:
36,192,122137,128,0,125666:0:0:0:0:
402,192,122137,1,0,0:0:0:0:
182,192,122357,1,0,0:0:0:0:
402,192,122578,1,0,0:0:0:0:
182,192,122798,1,0,0:0:0:0:
402,192,123019,1,0,0:0:0:0:
475,192,123019,1,0,0:0:0:0:
109,192,123240,1,0,0:0:0:0:
182,192,123350,1,0,0:0:0:0:
256,192,123350,1,0,0:0:0:0:
402,192,123460,1,0,0:0:0:0:
109,192,123681,1,0,0:0:0:0:
182,192,123681,1,0,0:0:0:0:
256,192,123901,128,0,127431:0:0:0:0:
475,192,123901,1,0,0:0:0:0:
182,192,124122,1,0,0:0:0:0:
475,192,124343,1,0,0:0:0:0:
182,192,124563,1,0,0:0:0:0:
475,192,124784,1,0,0:0:0:0:
182,192,125004,1,0,0:0:0:0:
109,192,125225,1,0,0:0:0:0:
182,192,125335,1,0,0:0:0:0:
329,192,125446,1,0,0:0:0:0:
402,192,125446,1,0,0:0:0:0:
475,192,125666,128,0,129196:0:0:0:0:
109,192,125666,1,0,0:0:0:0:
402,192,125887,1,0,0:0:0:0:
109,192,126107,1,0,0:0:0:0:
402,192,126328,1,0,0:0:0:0:
402,192,126548,1,0,0:0:0:0:
329,192,126622,1,0,0:0:0:0:
182,192,126696,1,0,0:0:0:0:
109,192,126769,1,0,0:0:0:0:
36,192,126769,1,0,0:0:0:0:
402,192,126879,1,0,0:0:0:0:
182,192,126990,1,0,0:0:0:0:
109,192,126990,1,0,0:0:0:0:
329,192,127100,1,0,0:0:0:0:
402,192,127100,1,0,0:0:0:0:
36,192,127100,1,0,0:0:0:0:
182,192,127210,1,0,0:0:0:0:
109,192,127431,128,0,130960:0:0:0:0:
36,192,127431,1,0,0:0:0:0:
402,192,127651,1,0,0:0:0:0:
36,192,127872,1,0,0:0:0:0:
402,192,128093,1,0,0:0:0:0:
36,192,128313,1,0,0:0:0:0:
182,192,128387,1,0,0:0:0:0:
256,192,128460,1,0,0:0:0:0:
329,192,128534,1,0,0:0:0:0:
36,192,128754,1,0,0:0:0:0:
36,192,128975,1,0,0:0:0:0:
182,192,128975,1,0,0:0:0:0:
256,192,129085,1,0,0:0:0:0:
402,192,129085,1,0,0:0:0:0:
329,192,129196,128,0,134490:0:0:0:0:
182,192,129196,1,0,0:0:0:0:
402,192,129416,1,0,0:0:0:0:
182,192,129637,1,0,0:0:0:0:
402,192,129857,1,0,0:0:0:0:
182,192,130078,1,0,0:0:0:0:
256,192,130078,1,0,0:0:0:0:
475,192,130298,1,0,0:0:0:0:
256,192,130409,1,0,0:0:0:0:
36,192,130409,1,0,0:0:0:0:
402,192,130519,1,0,0:0:0:0:
256,192,130740,1,0,0:0:0:0:
182,192,130740,1,0,0:0:0:0:
36,192,130960,128,0,132725:0:0:0:0:
475,192,130960,1,0,0:0:0:0:
256,192,131181,1,0,0:0:0:0:
475,192,131401,1,0,0:0:0:0:
256,192,131622,1,0,0:0:0:0:
182,192,131843,1,0,0:0:0:0:
109,192,131843,1,0,0:0:0:0:
475,192,132063,1,0,0:0:0:0:
475,192,132284,1,0,0:0:0:0:
402,192,132357,1,0,0:0:0:0:
256,192,132431,1,0,0:0:0:0:
182,192,132504,1,0,0:0:0:0:
109,192,132504,1,0,0:0:0:0:
256,192,132725,128,0,134490:0:0:0:0:
402,192,132725,1,0,0:0:0:0:
475,192,132725,1,0,0:0:0:0:
109,192,132946,1,0,0:0:0:0:
402,192,133166,1,0,0:0:0:0:
475,192,133166,1,0,0:0:0:0:
36,192,133240,1,0,0:0:0:0:
109,192,133313,1,0,0:0:0:0:
182,192,133387,1,0,0:0:0:0:
402,192,133387,1,0,0:0:0:0:
402,192,133534,1,0,0:0:0:0:
182,192,133534,1,0,0:0:0:0:
109,192,133607,1,0,0:0:0:0:
36,192,133681,1,0,0:0:0:0:
475,192,133754,1,0,0:0:0:0:
402,192,133828,1,0,0:0:0:0:
182,192,133828,1,0,0:0:0:0:
109,192,133938,1,0,0:0:0:0:
36,192,134048,1,0,0:0:0:0:
475,192,134048,1,0,0:0:0:0:
402,192,134122,1,0,0:0:0:0:
182,192,134196,1,0,0:0:0:0:
36,192,134269,128,0,134490:0:0:0:0:
475,192,134269,128,0,134490:0:0:0:0:
182,192,134490,128,0,135151:0:0:0:0:
402,192,134490,1,0,0:0:0:0:
329,192,134600,1,0,0:0:0:0:
402,192,134710,1,0,0:0:0:0:
256,192,135151,128,0,135813:0:0:0:0:
475,192,135151,1,0,0:0:0:0:
475,192,135372,1,0,0:0:0:0:
402,192,135482,1,0,0:0:0:0:
329,192,135593,1,0,0:0:0:0:
182,192,135813,128,0,136254:0:0:0:0:
36,192,135813,1,0,0:0:0:0:
109,192,136034,1,0,0:0:0:0:
329,192,136254,128,0,137137:0:0:0:0:
475,192,136254,1,0,0:0:0:0:
109,192,136365,1,0,0:0:0:0:
402,192,136475,1,0,0:0:0:0:
36,192,136585,1,0,0:0:0:0:
256,192,136696,1,0,0:0:0:0:
109,192,136806,1,0,0:0:0:0:
182,192,136916,1,0,0:0:0:0:
256,192,137026,1,0,0:0:0:0:
475,192,137137,128,0,137578:0:0:0:0:
256,192,137137,1,0,0:0:0:0:
182,192,137137,1,0,0:0:0:0:
109,192,137247,1,0,0:0:0:0:
36,192,137357,1,0,0:0:0:0:
109,192,137468,1,0,0:0:0:0:
402,192,137578,128,0,138019:0:0:0:0:
36,192,137578,1,0,0:0:0:0:
109,192,137688,1,0,0:0:0:0:
182,192,137798,1,0,0:0:0:0:
256,192,137909,1,0,0:0:0:0:
329,192,138019,128,0,138681:0:0:0:0:
36,192,138019,1,0,0:0:0:0:
475,192,138129,1,0,0:0:0:0:
109,192,138240,1,0,0:0:0:0:
402,192,138350,1,0,0:0:0:0:
475,192,138460,1,0,0:0:0:0:
36,192,138460,1,0,0:0:0:0:
109,192,138571,1,0,0:0:0:0:
182,192,138681,128,0,139343:0:0:0:0:
475,192,138681,1,0,0:0:0:0:
36,192,138791,1,0,0:0:0:0:
402,192,138901,1,0,0:0:0:0:
109,192,139012,1,0,0:0:0:0:
402,192,139122,1,0,0:0:0:0:
36,192,139232,1,0,0:0:0:0:
109,192,139343,128,0,139784:0:0:0:0:
475,192,139343,1,0,0:0:0:0:
256,192,139453,1,0,0:0:0:0:
402,192,139563,1,0,0:0:0:0:
182,192,139673,1,0,0:0:0:0:
36,192,139784,128,0,140225:0:0:0:0:
256,192,139784,1,0,0:0:0:0:
402,192,139894,1,0,0:0:0:0:
329,192,140004,1,0,0:0:0:0:
182,192,140115,1,0,0:0:0:0:
109,192,140225,128,0,140666:0:0:0:0:
402,192,140225,1,0,0:0:0:0:
329,192,140335,1,0,0:0:0:0:
475,192,140446,1,0,0:0:0:0:
256,192,140556,1,0,0:0:0:0:
182,192,140666,128,0,141107:0:0:0:0:
402,192,140666,1,0,0:0:0:0:
329,192,140776,1,0,0:0:0:0:
475,192,140887,1,0,0:0:0:0:
329,192,140997,1,0,0:0:0:0:
256,192,141107,128,0,141548:0:0:0:0:
109,192,141218,1,0,0:0:0:0:
36,192,141328,1,0,0:0:0:0:
182,192,141438,1,0,0:0:0:0:
329,192,141548,128,0,142431:0:0:0:0:
109,192,141548,1,0,0:0:0:0:
475,192,141548,1,0,0:0:0:0:
402,192,141659,1,0,0:0:0:0:
256,192,141769,1,0,0:0:0:0:
36,192,141879,1,0,0:0:0:0:
109,192,141990,1,0,0:0:0:0:
256,192,142100,1,0,0:0:0:0:
36,192,142210,1,0,0:0:0:0:
475,192,142321,1,0,0:0:0:0:
402,192,142431,128,0,142872:0:0:0:0:
109,192,142431,1,0,0:0:0:0:
36,192,142541,1,0,0:0:0:0:
182,192,142651,1,0,0:0:0:0:
256,192,142762,1,0,0:0:0:0:
329,192,142872,128,0,143093:0:0:0:0:
109,192,142872,1,0,0:0:0:0:
182,192,142982,1,0,0:0:0:0:
256,192,143093,128,0,143313:0:0:0:0:
402,192,143313,128,0,143975:0:0:0:0:
182,192,143313,1,0,0:0:0:0:
36,192,143534,1,0,0:0:0:0:
256,192,143534,1,0,0:0:0:0:
109,192,143754,1,0,0:0:0:0:
329,192,143754,1,0,0:0:0:0:
475,192,143975,128,0,144637:0:0:0:0:
182,192,143975,1,0,0:0:0:0:
256,192,144196,1,0,0:0:0:0:
402,192,144196,1,0,0:0:0:0:
182,192,144416,1,0,0:0:0:0:
329,192,144416,1,0,0:0:0:0:
402,192,144637,128,0,145078:0:0:0:0:
256,192,144637,1,0,0:0:0:0:
109,192,144637,1,0,0:0:0:0:
182,192,144857,1,0,0:0:0:0:
36,192,144857,1,0,0:0:0:0:
329,192,145078,128,0,146401:0:0:0:0:
109,192,145078,1,0,0:0:0:0:
256,192,145078,1,0,0:0:0:0:
182,192,145298,1,0,0:0:0:0:
36,192,145298,1,0,0:0:0:0:
182,192,145519,1,0,0:0:0:0:
402,192,145519,1,0,0:0:0:0:
475,192,145740,1,0,0:0:0:0:
256,192,145740,1,0,0:0:0:0:
402,192,145960,1,0,0:0:0:0:
256,192,145960,1,0,0:0:0:0:
182,192,146181,1,0,0:0:0:0:
36,192,146181,1,0,0:0:0:0:
109,192,146401,128,0,146843:0:0:0:0:
475,192,146401,1,0,0:0:0:0:
402,192,146401,1,0,0:0:0:0:
329,192,146622,1,0,0:0:0:0:
256,192,146622,1,0,0:0:0:0:
402,192,146843,128,0,148607:0:0:0:0:
182,192,146843,1,0,0:0:0:0:
36,192,146843,1,0,0:0:0:0:
475,192,146843,1,0,0:0:0:0:
329,192,146916,1,0,0:0:0:0:
256,192,146990,1,0,0:0:0:0:
182,192,147063,1,0,0:0:0:0:
36,192,147063,1,0,0:0:0:0:
36,192,147284,1,0,0:0:0:0:
329,192,147357,1,0,0:0:0:0:
475,192,147431,1,0,0:0:0:0:
329,192,147504,1,0,0:0:0:0:
256,192,147578,1,0,0:0:0:0:
475,192,147651,1,0,0:0:0:0:
36,192,147725,1,0,0:0:0:0:
182,192,147798,1,0,0:0:0:0:
256,192,147872,1,0,0:0:0:0:
329,192,147946,1,0,0:0:0:0:
475,192,148019,1,0,0:0:0:0:
329,192,148093,1,0,0:0:0:0:
256,192,148166,1,0,0:0:0:0:
109,192,148240,1,0,0:0:0:0:
182,192,148313,1,0,0:0:0:0:
256,192,148387,1,0,0:0:0:0:
36,192,148460,1,0,0:0:0:0:
109,192,148534,1,0,0:0:0:0:
182,192,148607,128,0,149931:0:0:0:0:
329,192,148607,1,0,0:0:0:0:
256,192,148754,1,0,0:0:0:0:
402,192,148828,1,0,0:0:0:0:
329,192,149048,1,0,0:0:0:0:
475,192,149269,1,0,0:0:0:0:
256,192,149490,1,0,0:0:0:0:
109,192,149710,1,0,0:0:0:0:
36,192,149931,128,0,150372:0:0:0:0:
402,192,149931,1,0,0:0:0:0:
256,192,150151,1,0,0:0:0:0:
109,192,150372,128,0,152137:0:0:0:0:
182,192,150372,1,0,0:0:0:0:
402,192,150372,1,0,0:0:0:0:
256,192,150593,1,0,0:0:0:0:
475,192,150593,1,0,0:0:0:0:
402,192,150813,1,0,0:0:0:0:
182,192,150813,1,0,0:0:0:0:
36,192,151034,1,0,0:0:0:0:
475,192,151034,1,0,0:0:0:0:
182,192,151254,1,0,0:0:0:0:
329,192,151254,1,0,0:0:0:0:
256,192,151475,1,0,0:0:0:0:
402,192,151475,1,0,0:0:0:0:
475,192,151696,1,0,0:0:0:0:
182,192,151696,1,0,0:0:0:0:
475,192,152137,1,0,0:0:0:0:
329,192,152357,1,0,0:0:0:0:
182,192,152578,1,0,0:0:0:0:
36,192,152798,1,0,0:0:0:0:
402,192,153019,1,0,0:0:0:0:
256,192,153240,1,0,0:0:0:0:
109,192,153460,1,0,0:0:0:0:
36,192,153901,1,0,0:0:0:0:
182,192,154122,1,0,0:0:0:0:
329,192,154343,1,0,0:0:0:0:
475,192,154563,1,0,0:0:0:0:
109,192,154784,1,0,0:0:0:0:
256,192,155004,1,0,0:0:0:0:
402,192,155225,1,0,0:0:0:0:
475,192,155666,1,0,0:0:0:0:
329,192,155887,1,0,0:0:0:0:
182,192,156107,1,0,0:0:0:0:
329,192,156328,1,0,0:0:0:0:
182,192,156548,1,0,0:0:0:0:
36,192,156769,1,0,0:0:0:0:
182,192,156990,1,0,0:0:0:0:
329,192,157210,1,0,0:0:0:0:
256,192,157431,1,0,0:0:0:0:
182,192,157651,1,0,0:0:0:0:
109,192,157872,1,0,0:0:0:0:
182,192,158093,1,0,0:0:0:0:
256,192,158313,1,0,0:0:0:0:
182,192,158534,1,0,0:0:0:0:
109,192,158754,1,0,0:0:0:0:
182,192,159196,1,0,0:0:0:0:
256,192,159416,1,0,0:0:0:0:
329,192,159637,1,0,0:0:0:0:
402,192,159857,1,0,0:0:0:0:
109,192,160078,1,0,0:0:0:0:
182,192,160298,1,0,0:0:0:0:
256,192,160519,1,0,0:0:0:0:
402,192,160960,1,0,0:0:0:0:
329,192,161181,1,0,0:0:0:0:
256,192,161401,1,0,0:0:0:0:
182,192,161622,1,0,0:0:0:0:
36,192,161843,1,0,0:0:0:0:
109,192,162063,1,0,0:0:0:0:
182,192,162284,1,0,0:0:0:0:
475,192,162725,1,0,0:0:0:0:
402,192,162946,1,0,0:0:0:0:
329,192,163166,1,0,0:0:0:0:
256,192,163387,1,0,0:0:0:0:
402,192,163607,1,0,0:0:0:0:
329,192,163828,1,0,0:0:0:0:
256,192,164048,1,0,0:0:0:0:
182,192,164269,1,0,0:0:0:0:
36,192,164490,1,0,0:0:0:0:
109,192,164710,1,0,0:0:0:0:
182,192,164931,1,0,0:0:0:0:
256,192,165151,1,0,0:0:0:0:
182,192,165372,1,0,0:0:0:0:
256,192,165593,1,0,0:0:0:0:
329,192,165813,1,0,0:0:0:0:
402,192,166034,1,0,0:0:0:0:
182,192,166034,1,0,0:0:0:0:
109,192,166144,1,0,0:0:0:0:
256,192,166254,1,0,0:0:0:0:
36,192,166254,1,0,0:0:0:0:
329,192,166254,1,0,0:0:0:0:
475,192,166475,1,0,0:0:0:0:
109,192,166696,1,0,0:0:0:0:
402,192,166916,1,0,0:0:0:0:
475,192,166916,1,0,0:0:0:0:
329,192,167137,1,0,0:0:0:0:
402,192,167357,1,0,0:0:0:0:
109,192,167578,1,0,0:0:0:0:
182,192,167798,1,0,0:0:0:0:
475,192,167798,1,0,0:0:0:0:
402,192,167909,1,0,0:0:0:0:
256,192,168019,1,0,0:0:0:0:
36,192,168019,1,0,0:0:0:0:
329,192,168019,1,0,0:0:0:0:
402,192,168240,1,0,0:0:0:0:
475,192,168460,1,0,0:0:0:0:
182,192,168681,1,0,0:0:0:0:
109,192,168901,1,0,0:0:0:0:
475,192,168901,1,0,0:0:0:0:
402,192,168901,1,0,0:0:0:0:
329,192,169122,1,0,0:0:0:0:
475,192,169232,1,0,0:0:0:0:
402,192,169232,1,0,0:0:0:0:
182,192,169343,1,0,0:0:0:0:
329,192,169563,1,0,0:0:0:0:
182,192,169563,1,0,0:0:0:0:
36,192,169563,1,0,0:0:0:0:
109,192,169784,1,0,0:0:0:0:
402,192,169784,1,0,0:0:0:0:
475,192,169784,1,0,0:0:0:0:
475,192,170004,1,0,0:0:0:0:
182,192,170225,1,0,0:0:0:0:
402,192,170446,1,0,0:0:0:0:
109,192,170446,1,0,0:0:0:0:
36,192,170446,1,0,0:0:0:0:
329,192,170666,1,0,0:0:0:0:
182,192,170887,1,0,0:0:0:0:
402,192,171107,1,0,0:0:0:0:
109,192,171328,1,0,0:0:0:0:
256,192,171328,1,0,0:0:0:0:
329,192,171438,1,0,0:0:0:0:
402,192,171548,1,0,0:0:0:0:
475,192,171548,1,0,0:0:0:0:
329,192,171769,1,0,0:0:0:0:
256,192,171990,1,0,0:0:0:0:
182,192,172210,1,0,0:0:0:0:
36,192,172431,1,0,0:0:0:0:
329,192,172431,1,0,0:0:0:0:
475,192,172431,1,0,0:0:0:0:
402,192,172431,1,0,0:0:0:0:
182,192,172651,1,0,0:0:0:0:
256,192,172872,1,0,0:0:0:0:
475,192,173093,1,0,0:0:0:0:
36,192,173093,1,0,0:0:0:0:
109,192,173203,1,0,0:0:0:0:
182,192,173313,1,0,0:0:0:0:
256,192,173313,1,0,0:0:0:0:
329,192,173754,1,0,0:0:0:0:
256,192,173975,1,0,0:0:0:0:
109,192,173975,1,0,0:0:0:0:
36,192,173975,1,0,0:0:0:0:
475,192,174196,1,0,0:0:0:0:
109,192,174416,1,0,0:0:0:0:
256,192,174637,1,0,0:0:0:0:
329,192,174857,1,0,0:0:0:0:
36,192,174857,1,0,0:0:0:0:
109,192,174968,1,0,0:0:0:0:
182,192,175078,1,0,0:0:0:0:
475,192,175078,1,0,0:0:0:0:
256,192,175078,1,0,0:0:0:0:
402,192,175298,1,0,0:0:0:0:
256,192,175519,1,0,0:0:0:0:
109,192,175740,1,0,0:0:0:0:
329,192,175740,1,0,0:0:0:0:
402,192,175740,1,0,0:0:0:0:
475,192,175960,1,0,0:0:0:0:
182,192,176181,1,0,0:0:0:0:
402,192,176401,1,0,0:0:0:0:
182,192,176622,1,0,0:0:0:0:
36,192,176843,1,0,0:0:0:0:
402,192,176843,1,0,0:0:0:0:
475,192,176843,1,0,0:0:0:0:
256,192,177063,1,0,0:0:0:0:
109,192,177284,1,0,0:0:0:0:
329,192,177504,1,0,0:0:0:0:
475,192,177725,1,0,0:0:0:0:
256,192,177946,1,0,0:0:0:0:
402,192,178166,1,0,0:0:0:0:
182,192,178387,1,0,0:0:0:0:
256,192,178607,128,0,180372:0:0:0:0:
182,192,178607,1,0,0:0:0:0:
109,192,178718,1,0,0:0:0:0:
36,192,178828,128,0,179490:0:0:0:0:
109,192,179048,128,0,179710:0:0:0:0:
182,192,179269,128,0,179931:0:0:0:0:
475,192,179931,128,0,181696:0:0:0:0:
329,192,180041,128,0,181696:0:0:0:0:
182,192,180372,128,0,181696:0:0:0:0:
36,192,180372,1,0,0:0:0:0:
402,192,180372,1,0,0:0:0:0:
109,192,180703,128,0,181696:0:0:0:0:
36,192,181034,128,0,181696:0:0:0:0:
402,192,181254,1,0,0:0:0:0:
256,192,181254,1,0,0:0:0:0:
402,192,181916,128,0,183240:0:0:0:0:
256,192,182137,128,0,183240:0:0:0:0:
36,192,182137,1,0,0:0:0:0:
182,192,182137,1,0,0:0:0:0:
329,192,182137,1,0,0:0:0:0:
109,192,182468,128,0,183240:0:0:0:0:
36,192,182798,128,0,183240:0:0:0:0:
182,192,183019,1,0,0:0:0:0:
329,192,183019,1,0,0:0:0:0:
256,192,183460,1,0,0:0:0:0:
182,192,183460,1,0,0:0:0:0:
475,192,183681,128,0,185225:0:0:0:0:
329,192,183901,128,0,185225:0:0:0:0:
36,192,183901,1,0,0:0:0:0:
182,192,183901,1,0,0:0:0:0:
402,192,183901,1,0,0:0:0:0:
256,192,184232,128,0,185225:0:0:0:0:
182,192,184563,128,0,185225:0:0:0:0:
109,192,184784,128,0,185225:0:0:0:0:
402,192,184784,1,0,0:0:0:0:
36,192,184784,1,0,0:0:0:0:
36,192,185004,128,0,185225:0:0:0:0:
402,192,185298,1,0,0:0:0:0:
402,192,185446,128,0,186548:0:0:0:0:
36,192,185519,1,0,0:0:0:0:
256,192,185666,128,0,186548:0:0:0:0:
182,192,185666,1,0,0:0:0:0:
109,192,185887,128,0,186548:0:0:0:0:
36,192,186107,1,0,0:0:0:0:
475,192,186107,1,0,0:0:0:0:
329,192,186622,1,0,0:0:0:0:
256,192,186696,1,0,0:0:0:0:
182,192,186769,1,0,0:0:0:0:
109,192,186769,1,0,0:0:0:0:
402,192,186879,1,0,0:0:0:0:
256,192,186879,1,0,0:0:0:0:
475,192,186990,128,0,188313:0:0:0:0:
329,192,186990,1,0,0:0:0:0:
182,192,186990,1,0,0:0:0:0:
36,192,186990,1,0,0:0:0:0:
402,192,187210,128,0,188313:0:0:0:0:
329,192,187431,128,0,188313:0:0:0:0:
36,192,187431,1,0,0:0:0:0:
182,192,187431,1,0,0:0:0:0:
256,192,187651,128,0,188313:0:0:0:0:
109,192,187651,1,0,0:0:0:0:
109,192,187872,1,0,0:0:0:0:
36,192,188093,128,0,189196:0:0:0:0:
109,192,188093,1,0,0:0:0:0:
109,192,188313,1,0,0:0:0:0:
182,192,188534,128,0,189196:0:0:0:0:
109,192,188534,1,0,0:0:0:0:
109,192,188754,1,0,0:0:0:0:
402,192,188865,1,0,0:0:0:0:
475,192,188865,1,0,0:0:0:0:
329,192,188975,128,0,189196:0:0:0:0:
256,192,188975,1,0,0:0:0:0:
109,192,189085,1,0,0:0:0:0:
256,192,189085,1,0,0:0:0:0:
475,192,189196,128,0,190078:0:0:0:0:
402,192,189196,1,0,0:0:0:0:
256,192,189416,128,0,190078:0:0:0:0:
109,192,189416,1,0,0:0:0:0:
329,192,189637,1,0,0:0:0:0:
36,192,189857,128,0,190078:0:0:0:0:
182,192,189857,1,0,0:0:0:0:
329,192,190078,1,0,0:0:0:0:
402,192,190078,1,0,0:0:0:0:
109,192,190298,128,0,192063:0:0:0:0:
182,192,190298,1,0,0:0:0:0:
256,192,190409,1,0,0:0:0:0:
329,192,190409,1,0,0:0:0:0:
402,192,190519,1,0,0:0:0:0:
329,192,190740,1,0,0:0:0:0:
402,192,190740,1,0,0:0:0:0:
256,192,190960,128,0,192063:0:0:0:0:
475,192,190960,1,0,0:0:0:0:
329,192,191181,1,0,0:0:0:0:
475,192,191401,1,0,0:0:0:0:
329,192,191622,1,0,0:0:0:0:
475,192,191843,1,0,0:0:0:0:
402,192,192063,128,0,193607:0:0:0:0:
329,192,192063,1,0,0:0:0:0:
256,192,192284,128,0,193607:0:0:0:0:
475,192,192284,1,0,0:0:0:0:
329,192,192357,1,0,0:0:0:0:
182,192,192431,1,0,0:0:0:0:
109,192,192504,128,0,193607:0:0:0:0:
36,192,192504,1,0,0:0:0:0:
475,192,192504,1,0,0:0:0:0:
182,192,192725,1,0,0:0:0:0:
329,192,192946,1,0,0:0:0:0:
182,192,193166,1,0,0:0:0:0:
329,192,193387,1,0,0:0:0:0:
36,192,193607,1,0,0:0:0:0:
182,192,193681,1,0,0:0:0:0:
256,192,193754,1,0,0:0:0:0:
329,192,193828,1,0,0:0:0:0:
402,192,193828,1,0,0:0:0:0:
109,192,193938,1,0,0:0:0:0:
475,192,194048,128,0,195372:0:0:0:0:
182,192,194048,1,0,0:0:0:0:
256,192,194048,1,0,0:0:0:0:
109,192,194159,1,0,0:0:0:0:
36,192,194159,1,0,0:0:0:0:
402,192,194269,128,0,195372:0:0:0:0:
329,192,194269,1,0,0:0:0:0:
256,192,194490,128,0,195372:0:0:0:0:
182,192,194490,1,0,0:0:0:0:
36,192,194490,1,0,0:0:0:0:
109,192,194710,128,0,195372:0:0:0:0:
329,192,194821,1,0,0:0:0:0:
36,192,195151,128,0,195372:0:0:0:0:
182,192,195151,1,0,0:0:0:0:
182,192,195372,1,0,0:0:0:0:
329,192,195372,1,0,0:0:0:0:
256,192,195703,1,0,0:0:0:0:
329,192,196034,128,0,197357:0:0:0:0:
109,192,196034,1,0,0:0:0:0:
36,192,196034,1,0,0:0:0:0:
182,192,196254,128,0,197357:0:0:0:0:
402,192,196254,1,0,0:0:0:0:
109,192,196585,1,0,0:0:0:0:
36,192,196696,128,0,197357:0:0:0:0:
475,192,196916,128,0,197357:0:0:0:0:
402,192,196916,1,0,0:0:0:0:
256,192,197137,1,0,0:0:0:0:
109,192,197137,1,0,0:0:0:0:
256,192,197578,1,0,0:0:0:0:
109,192,197578,1,0,0:0:0:0:
402,192,197578,1,0,0:0:0:0:
402,192,197798,128,0,198681:0:0:0:0:
329,192,198019,128,0,198681:0:0:0:0:
256,192,198019,1,0,0:0:0:0:
36,192,198019,1,0,0:0:0:0:
109,192,198350,1,0,0:0:0:0:
256,192,198460,128,0,198681:0:0:0:0:
182,192,198681,128,0,199563:0:0:0:0:
475,192,198681,1,0,0:0:0:0:
109,192,198901,128,0,199563:0:0:0:0:
402,192,198901,1,0,0:0:0:0:
329,192,198901,1,0,0:0:0:0:
36,192,199122,128,0,199563:0:0:0:0:
256,192,199232,1,0,0:0:0:0:
402,192,199563,128,0,200666:0:0:0:0:
329,192,199563,1,0,0:0:0:0:
256,192,199673,1,0,0:0:0:0:
329,192,199784,128,0,200666:0:0:0:0:
182,192,199784,1,0,0:0:0:0:
36,192,199784,1,0,0:0:0:0:
109,192,199784,1,0,0:0:0:0:
256,192,200004,128,0,200666:0:0:0:0:
475,192,200004,1,0,0:0:0:0:
109,192,200225,1,0,0:0:0:0:
36,192,200225,1,0,0:0:0:0:
475,192,200446,1,0,0:0:0:0:
182,192,200666,1,0,0:0:0:0:
36,192,200666,1,0,0:0:0:0:
256,192,200887,1,0,0:0:0:0:
182,192,200997,1,0,0:0:0:0:
109,192,201107,128,0,202651:0:0:0:0:
475,192,201107,1,0,0:0:0:0:
402,192,201181,1,0,0:0:0:0:
329,192,201254,1,0,0:0:0:0:
256,192,201328,128,0,202651:0:0:0:0:
182,192,201328,1,0,0:0:0:0:
36,192,201328,1,0,0:0:0:0:
402,192,201548,128,0,202651:0:0:0:0:
475,192,201548,1,0,0:0:0:0:
329,192,201548,1,0,0:0:0:0:
182,192,201548,1,0,0:0:0:0:
36,192,201769,1,0,0:0:0:0:
329,192,201990,1,0,0:0:0:0:
182,192,201990,1,0,0:0:0:0:
475,192,202210,1,0,0:0:0:0:
329,192,202431,1,0,0:0:0:0:
182,192,202431,1,0,0:0:0:0:
36,192,202651,1,0,0:0:0:0:
475,192,202872,128,0,204196:0:0:0:0:
182,192,202872,1,0,0:0:0:0:
256,192,202946,1,0,0:0:0:0:
329,192,203019,1,0,0:0:0:0:
402,192,203093,128,0,204196:0:0:0:0:
36,192,203093,1,0,0:0:0:0:
109,192,203203,1,0,0:0:0:0:
256,192,203313,128,0,204196:0:0:0:0:
182,192,203313,1,0,0:0:0:0:
329,192,203313,1,0,0:0:0:0:
109,192,203387,1,0,0:0:0:0:
36,192,203460,1,0,0:0:0:0:
329,192,203534,1,0,0:0:0:0:
182,192,203644,1,0,0:0:0:0:
109,192,203754,128,0,204196:0:0:0:0:
329,192,203754,1,0,0:0:0:0:
182,192,203865,1,0,0:0:0:0:
36,192,203975,128,0,204196:0:0:0:0:
329,192,203975,1,0,0:0:0:0:
329,192,204196,1,0,0:0:0:0:
182,192,204269,1,0,0:0:0:0:
402,192,204343,1,0,0:0:0:0:
182,192,204416,128,0,204857:0:0:0:0:
329,192,204416,128,0,204857:0:0:0:0:
36,192,204416,1,0,0:0:0:0:
475,192,204416,1,0,0:0:0:0:
402,192,204526,1,0,0:0:0:0:
256,192,204637,1,0,0:0:0:0:
109,192,204747,1,0,0:0:0:0:
475,192,204857,1,0,0:0:0:0:
36,192,204857,1,0,0:0:0:0:
402,192,205078,128,0,205519:0:0:0:0:
36,192,205078,128,0,205298:0:0:0:0:
329,192,205078,1,0,0:0:0:0:
256,192,205188,1,0,0:0:0:0:
182,192,205298,1,0,0:0:0:0:
109,192,205409,128,0,205629:0:0:0:0:
329,192,205519,1,0,0:0:0:0:
256,192,205740,1,0,0:0:0:0:
182,192,205850,128,0,206071:0:0:0:0:
402,192,205850,1,0,0:0:0:0:
329,192,205960,128,0,206401:0:0:0:0:
36,192,205960,1,0,0:0:0:0:
475,192,205960,1,0,0:0:0:0:
109,192,206071,128,0,206291:0:0:0:0:
402,192,206071,1,0,0:0:0:0:
475,192,206181,1,0,0:0:0:0:
182,192,206401,128,0,206622:0:0:0:0:
256,192,206401,1,0,0:0:0:0:
256,192,206622,128,0,206843:0:0:0:0:
475,192,206622,1,0,0:0:0:0:
329,192,206732,1,0,0:0:0:0:
182,192,206843,128,0,207284:0:0:0:0:
402,192,206843,128,0,207063:0:0:0:0:
109,192,206953,1,0,0:0:0:0:
256,192,207063,1,0,0:0:0:0:
329,192,207173,128,0,207394:0:0:0:0:
109,192,207284,1,0,0:0:0:0:
256,192,207504,128,0,207725:0:0:0:0:
182,192,207504,1,0,0:0:0:0:
109,192,207615,1,0,0:0:0:0:
36,192,207725,128,0,208166:0:0:0:0:
402,192,207725,1,0,0:0:0:0:
475,192,207725,1,0,0:0:0:0:
182,192,207835,128,0,208056:0:0:0:0:
329,192,207835,1,0,0:0:0:0:
256,192,207946,1,0,0:0:0:0:
475,192,208166,128,0,208387:0:0:0:0:
109,192,208166,1,0,0:0:0:0:
182,192,208276,1,0,0:0:0:0:
329,192,208387,128,0,208607:0:0:0:0:
256,192,208387,1,0,0:0:0:0:
109,192,208607,128,0,209048:0:0:0:0:
182,192,208607,128,0,208828:0:0:0:0:
475,192,208607,1,0,0:0:0:0:
402,192,208718,1,0,0:0:0:0:
329,192,208828,1,0,0:0:0:0:
402,192,209048,128,0,209269:0:0:0:0:
36,192,209048,1,0,0:0:0:0:
182,192,209269,128,0,209490:0:0:0:0:
475,192,209269,1,0,0:0:0:0:
329,192,209379,1,0,0:0:0:0:
256,192,209490,128,0,209931:0:0:0:0:
36,192,209490,128,0,209710:0:0:0:0:
402,192,209490,1,0,0:0:0:0:
475,192,209490,1,0,0:0:0:0:
329,192,209600,1,0,0:0:0:0:
182,192,209710,1,0,0:0:0:0:
109,192,209821,128,0,210041:0:0:0:0:
475,192,209931,1,0,0:0:0:0:
402,192,209931,1,0,0:0:0:0:
182,192,210151,128,0,210372:0:0:0:0:
36,192,210151,1,0,0:0:0:0:
256,192,210262,1,0,0:0:0:0:
402,192,210372,128,0,210813:0:0:0:0:
329,192,210372,128,0,210593:0:0:0:0:
109,192,210482,1,0,0:0:0:0:
182,192,210593,1,0,0:0:0:0:
256,192,210703,128,0,210923:0:0:0:0:
36,192,210813,1,0,0:0:0:0:
182,192,211034,128,0,211254:0:0:0:0:
329,192,211034,1,0,0:0:0:0:
402,192,211144,1,0,0:0:0:0:
475,192,211254,128,0,211696:0:0:0:0:
329,192,211254,1,0,0:0:0:0:
36,192,211254,1,0,0:0:0:0:
256,192,211328,1,0,0:0:0:0:
109,192,211365,128,0,211585:0:0:0:0:
402,192,211401,1,0,0:0:0:0:
329,192,211475,1,0,0:0:0:0:
256,192,211585,1,0,0:0:0:0:
182,192,211696,128,0,211916:0:0:0:0:
36,192,211696,1,0,0:0:0:0:
109,192,211806,1,0,0:0:0:0:
256,192,211916,128,0,212137:0:0:0:0:
329,192,211916,1,0,0:0:0:0:
475,192,211916,1,0,0:0:0:0:
402,192,212137,128,0,212578:0:0:0:0:
36,192,212137,128,0,212357:0:0:0:0:
329,192,212137,1,0,0:0:0:0:
256,192,212247,1,0,0:0:0:0:
182,192,212357,1,0,0:0:0:0:
109,192,212468,128,0,212688:0:0:0:0:
329,192,212578,1,0,0:0:0:0:
475,192,212578,1,0,0:0:0:0:
182,192,212798,128,0,213019:0:0:0:0:
329,192,212798,1,0,0:0:0:0:
256,192,212798,1,0,0:0:0:0:
402,192,212909,1,0,0:0:0:0:
329,192,213019,128,0,213460:0:0:0:0:
109,192,213019,128,0,213240:0:0:0:0:
475,192,213019,1,0,0:0:0:0:
36,192,213019,1,0,0:0:0:0:
402,192,213129,1,0,0:0:0:0:
256,192,213240,1,0,0:0:0:0:
256,192,213460,128,0,213681:0:0:0:0:
182,192,213460,1,0,0:0:0:0:
329,192,213681,128,0,213901:0:0:0:0:
36,192,213681,1,0,0:0:0:0:
109,192,213791,1,0,0:0:0:0:
182,192,213901,128,0,214343:0:0:0:0:
475,192,213901,128,0,214122:0:0:0:0:
256,192,214012,1,0,0:0:0:0:
329,192,214122,1,0,0:0:0:0:
402,192,214232,128,0,214453:0:0:0:0:
109,192,214343,1,0,0:0:0:0:
475,192,214563,128,0,214784:0:0:0:0:
182,192,214563,1,0,0:0:0:0:
256,192,214673,1,0,0:0:0:0:
36,192,214784,128,0,215225:0:0:0:0:
329,192,214784,128,0,215004:0:0:0:0:
402,192,214784,1,0,0:0:0:0:
182,192,214784,1,0,0:0:0:0:
109,192,214894,1,0,0:0:0:0:
182,192,215004,1,0,0:0:0:0:
256,192,215115,128,0,215335:0:0:0:0:
402,192,215225,1,0,0:0:0:0:
109,192,215335,1,0,0:0:0:0:
182,192,215446,128,0,215666:0:0:0:0:
402,192,215446,1,0,0:0:0:0:
329,192,215666,128,0,216107:0:0:0:0:
36,192,215666,128,0,215887:0:0:0:0:
475,192,215666,128,0,215887:0:0:0:0:
402,192,215666,1,0,0:0:0:0:
256,192,215776,1,0,0:0:0:0:
182,192,215887,1,0,0:0:0:0:
256,192,215997,128,0,216218:0:0:0:0:
109,192,215997,128,0,216218:0:0:0:0:
36,192,216107,1,0,0:0:0:0:
475,192,216328,128,0,216548:0:0:0:0:
329,192,216328,128,0,216548:0:0:0:0:
36,192,216328,1,0,0:0:0:0:
109,192,216438,1,0,0:0:0:0:
182,192,216548,128,0,216990:0:0:0:0:
36,192,216548,1,0,0:0:0:0:
402,192,216659,128,0,216879:0:0:0:0:
256,192,216659,128,0,216879:0:0:0:0:
329,192,216659,1,0,0:0:0:0:
475,192,216769,1,0,0:0:0:0:
36,192,216990,128,0,217210:0:0:0:0:
329,192,216990,128,0,217210:0:0:0:0:
475,192,216990,1,0,0:0:0:0:
109,192,217210,128,0,217431:0:0:0:0:
475,192,217210,128,0,217431:0:0:0:0:
402,192,217210,1,0,0:0:0:0:
256,192,217321,1,0,0:0:0:0:
329,192,217431,128,0,217872:0:0:0:0:
182,192,217431,128,0,217651:0:0:0:0:
402,192,217431,128,0,217651:0:0:0:0:
256,192,217541,1,0,0:0:0:0:
109,192,217651,1,0,0:0:0:0:
256,192,217762,128,0,217982:0:0:0:0:
36,192,217762,128,0,217982:0:0:0:0:
475,192,217872,1,0,0:0:0:0:
109,192,218093,128,0,218313:0:0:0:0:
329,192,218093,128,0,218313:0:0:0:0:
402,192,218093,1,0,0:0:0:0:
475,192,218203,1,0,0:0:0:0:
182,192,218313,128,0,218754:0:0:0:0:
402,192,218313,1,0,0:0:0:0:
36,192,218313,1,0,0:0:0:0:
109,192,218387,1,0,0:0:0:0:
475,192,218423,128,0,218644:0:0:0:0:
256,192,218423,128,0,218644:0:0:0:0:
36,192,218460,1,0,0:0:0:0:
402,192,218534,1,0,0:0:0:0:
329,192,218644,1,0,0:0:0:0:
402,192,218754,128,0,218975:0:0:0:0:
36,192,218754,128,0,218975:0:0:0:0:
109,192,218754,1,0,0:0:0:0:
182,192,218865,1,0,0:0:0:0:
109,192,218975,128,0,219196:0:0:0:0:
256,192,218975,128,0,219196:0:0:0:0:
329,192,219085,1,0,0:0:0:0:
36,192,219196,128,0,229784:0:0:0:0:
182,192,219196,128,0,228019:0:0:0:0:
475,192,219196,128,0,224490:0:0:0:0:
329,192,219196,128,0,226254:0:0:0:0:
