osu file format v12

[General]
AudioFilename: Catastrophe.mp3
AudioLeadIn: 0
PreviewTime: 19030
Countdown: 0
SampleSet: Normal
StackLeniency: 0.7
Mode: 0
LetterboxInBreaks: 1

[Editor]
DistanceSpacing: 1.2
BeatDivisor: 4
GridSize: 4

[Metadata]
Title:Catastrophe
TitleUnicode:Catastrophe
Artist:MuryokuP
ArtistUnicode:無力P
Creator:meiikyuu
Version:Nightmare
Source:
Tags:eschatology lunarsakuya haruka sweet_serenitee makar makar8000
BeatmapID:207661
BeatmapSetID:72740

[Difficulty]
HPDrainRate:6
CircleSize:4
OverallDifficulty:6
ApproachRate:7
SliderMultiplier:1.5
SliderTickRate:1

[Events]
//Background and Video events
0,0,"bg3.jpg",0,0
//Break Periods
2,10080,11230
2,12480,13630
2,57929,66430
//Storyboard Layer 0 (Background)
//Storyboard Layer 1 (Fail)
//Storyboard Layer 2 (Pass)
//Storyboard Layer 3 (Foreground)
//Storyboard Sound Samples
//Background Colour Transformations
3,100,128,128,64

[TimingPoints]
130,300,4,1,1,75,1,0
14530,-100,4,1,1,45,0,0
19330,-100,4,1,1,75,0,1
19405,-100,4,1,1,75,0,0
38530,-100,4,1,1,75,0,1
57730,-200,4,1,1,75,0,0
58330,-200,4,2,1,30,0,0
67330,-133.333333333333,4,2,1,60,0,0
72130,-100,4,1,1,45,0,0
74530,-100,4,1,1,75,0,0
115330,-100,4,1,1,75,0,1
134530,-100,4,1,1,75,0,0
156205,-100,4,1,1,30,0,0
158530,-100,4,1,1,50,0,0

[Colours]
Combo1 : 160,194,192
Combo2 : 255,128,0
Combo3 : 255,45,45

[HitObjects]
256,76,9730,2,0,L|256:152,1,75,4|0,0:0|0:0,0:0:0:0:
256,120,12130,6,0,L|256:200,1,75,4|0,0:0|0:0,0:0:0:0:
256,272,14530,5,4,0:0:0:0:
295,348,14830,1,0,0:0:0:0:
373,306,15130,1,4,0:0:0:0:
332,228,15430,1,0,0:0:0:0:
216,184,15730,5,4,0:0:0:0:
90,247,16030,1,0,0:0:0:0:
24,120,16330,1,4,0:0:0:0:
152,58,16630,1,0,0:0:0:0:
256,192,16930,12,0,19030,0:0:0:0:
200,336,19330,6,0,P|280:340|344:304,1,150,4|8,0:0|0:0,0:0:0:0:
364,228,19780,1,0,0:0:0:0:
312,164,19930,2,0,P|292:200|288:244,2,75,0|0|8,0:0|0:0|0:0,0:0:0:0:
256,104,20380,2,0,P|220:125|195:161,2,75
216,32,20830,2,0,P|174:32|134:51,1,75,8|0,0:0|0:0,0:0:0:0:
72,100,21130,1,0,0:0:0:0:
88,264,21430,1,8,0:0:0:0:
224,168,21730,6,0,P|254:262|236:321,1,150,4|8,0:0|0:0,0:0:0:0:
320,340,22180,2,0,P|386:266|446:252,1,150,0|0,0:0|0:0,0:0:0:0:
420,172,22630,2,0,P|331:155|282:106,1,150,8|0,0:0|0:0,0:0:0:0:
228,60,23080,2,0,L|304:32,2,75,0|8|0,0:0|0:0|0:0,0:0:0:0:
152,96,23530,2,0,L|152:140,3,37.5
152,176,23830,2,0,L|164:216,3,37.5
180,248,24130,6,0,P|244:296|312:296,1,150,4|8,0:0|0:0,0:0:0:0:
372,240,24580,1,0,0:0:0:0:
408,168,24730,2,0,P|440:136|480:116,1,75
344,112,25030,2,0,P|312:140|272:156,1,75,8|0,0:0|0:0,0:0:0:0:
200,128,25330,2,0,L|172:208,1,75
156,284,25630,2,0,P|104:224|100:132,2,150,0|0|8,0:0|0:0|0:0,0:0:0:0:
336,304,26530,6,0,L|412:344,2,75,12|0|0,0:0|0:0|0:0,0:0:0:0:
312,208,26980,2,0,L|392:176,2,75,8|0|0,0:0|0:0|0:0,0:0:0:0:
200,208,27430,2,0,L|120:176,2,75,8|0|0,0:0|0:0|0:0,0:0:0:0:
176,304,27880,2,0,L|100:344,2,75,8|0|0,0:0|0:0|0:0,0:0:0:0:
256,236,28330,2,0,L|256:188,3,37.5
256,156,28630,2,0,L|256:112,3,37.5
256,76,28930,6,0,P|188:52|112:76,1,150,4|8,0:0|0:0,0:0:0:0:
76,148,29380,2,0,L|84:240,1,75
168,256,29680,2,0,L|160:164,2,75,0|8|0,0:0|0:0|0:0,0:0:0:0:
236,304,30130,2,0,P|276:304|324:288,1,75
368,236,30430,2,0,P|384:156|348:68,2,150,8|0|8,0:0|0:0|0:0,0:0:0:0:
160,148,31330,6,0,P|240:180|320:164,1,150,4|8,0:0|0:0,0:0:0:0:
384,156,31780,2,0,P|368:240|396:320,1,150
324,356,32230,2,0,P|260:304|180:292,2,150,8|0|8,0:0|0:0|0:0,0:0:0:0:
396,312,32980,1,0,0:0:0:0:
424,232,33130,2,8,L|416:184,3,37.5
404,156,33430,2,8,L|388:116,3,37.5
368,84,33730,6,0,P|284:96|216:68,1,150,4|8,0:0|0:0,0:0:0:0:
144,88,34180,1,0,0:0:0:0:
120,168,34330,2,0,L|140:256,1,75
104,316,34630,2,0,L|24:348,2,75,8|0|0,0:0|0:0|0:0,0:0:0:0:
180,348,35080,1,0,0:0:0:0:
228,280,35230,2,0,P|296:244|376:240,2,150,8|0|8,0:0|0:0|0:0,0:0:0:0:
392,239,36130,6,0,L|432:164,2,75,12|0|0,0:0|0:0|0:0,0:0:0:0:
312,164,36580,2,0,L|320:72,2,75,8|0|0,0:0|0:0|0:0,0:0:0:0:
200,164,37030,2,0,L|192:72,2,75,8|0|0,0:0|0:0|0:0,0:0:0:0:
119,239,37480,2,0,L|80:164,2,75,8|0|0,0:0|0:0|0:0,0:0:0:0:
208,312,37930,2,0,L|256:300,3,37.5
284,296,38230,2,8,L|328:304,3,37.5
360,316,38530,6,0,P|408:264|408:164,1,150,4|0,0:0|0:0,0:0:0:0:
264,124,39130,2,0,P|265:82|274:38,2,75,0|0|8,0:0|0:0|0:0,0:0:0:0:
292,200,39580,2,0,P|209:221|130:185,1,150,4|0,0:0|0:0,0:0:0:0:
104,132,40030,1,8,0:0:0:0:
52,196,40180,2,0,L|16:364,1,150
104,336,40630,2,0,B|144:312|184:336|220:356|264:332,2,150,8|4|8,0:0|0:0|0:0,0:0:0:0:
248,256,41530,6,0,P|312:252|356:284,2,112.5
176,220,42130,2,0,P|156:160|172:52,1,150,0|8,0:0|0:0,0:0:0:0:
236,36,42580,1,0,0:0:0:0:
316,48,42730,2,8,L|332:92,3,37.5
356,116,43030,2,8,L|352:164,3,37.5
352,196,43330,6,0,P|328:232|292:260,2,75,0|0|8,0:0|0:0|0:0,0:0:0:0:
280,156,43780,2,0,P|212:204|136:196,1,150
196,124,44230,1,8,0:0:0:0:
112,88,44380,2,0,P|180:40|252:48,1,150,4|0,0:0|0:0,0:0:0:0:
324,84,44830,1,8,0:0:0:0:
356,168,44980,2,0,P|348:244|276:308,1,150
212,304,45430,1,8,0:0:0:0:
156,132,45730,6,0,P|228:152|276:216,1,150,4|8,0:0|0:0,0:0:0:0:
184,216,46180,2,0,P|112:196|60:116,1,150,0|8,0:0|0:0,0:0:0:0:
156,133,46630,2,0,P|224:113|264:41,1,150,4|8,0:0|0:0,0:0:0:0:
352,48,47080,2,0,L|404:120,2,75,0|0|8,0:0|0:0|0:0,0:0:0:0:
440,44,47530,2,0,P|480:128|328:156,1,300,8|4,0:0|0:0,0:0:0:0:
136,184,48430,6,0,P|136:248|184:328,1,150,0|8,0:0|0:0,0:0:0:0:
268,312,48880,2,0,P|308:304|352:308,1,75,0|8,0:0|0:0,0:0:0:0:
416,256,49180,2,0,P|400:168|356:116,1,150,4|0,0:0|0:0,0:0:0:0:
284,80,49630,1,0,0:0:0:0:
196,96,49780,2,0,P|172:136|160:176,2,75,0|8|0,0:0|0:0|0:0,0:0:0:0:
244,172,50230,2,0,P|220:240|128:280,2,150,0|4|8,0:0|0:0|0:0,0:0:0:0:
72,224,51130,6,0,P|60:276|84:344,2,112.5,8|0|0,0:0|0:0|0:0,0:0:0:0:
88,136,51730,2,0,P|144:72|228:64,1,150,0|8,0:0|0:0,0:0:0:0:
284,100,52180,1,0,0:0:0:0:
340,172,52330,2,8,L|352:224,3,37.5
360,252,52630,2,8,L|352:296,3,37.5
340,332,52930,6,0,L|164:296,1,150,4|0,0:0|0:0,0:0:0:0:
88,156,53530,2,0,L|264:192,1,150,8|0,0:0|0:0,0:0:0:0:
340,332,54130,2,0,L|396:164,1,150
280,44,54730,2,0,L|232:192,1,150,8|0,0:0|0:0,0:0:0:0:
96,316,55330,6,0,P|176:300|264:336,2,150,4|8|8,0:0|0:0|0:0,0:0:0:0:
246,223,56230,2,0,L|246:131,2,75,8|8|0,0:0|0:0|0:0,0:0:0:0:
176,168,56680,2,0,P|244:192|320:168,1,150
252,108,57130,2,0,P|128:76|100:224,1,300,0|4,0:0|0:0,0:0:0:0:
196,112,67330,6,0,P|252:128|320:116,1,112.500004291535,4|0,0:0|0:0,0:0:0:0:
364,88,67780,1,0,0:0:0:0:
384,220,68080,2,0,L|388:288,1,56.2500021457673
256,332,68530,2,0,P|200:300|136:296,1,112.500004291535,0|0,0:0|0:0,0:0:0:0:
88,304,68980,1,0,0:0:0:0:
88,168,69280,2,0,L|100:96,1,56.2500021457673
164,104,69580,6,0,L|188:44,2,56.2500021457673
272,188,70180,2,0,P|324:152|340:84,1,112.500004291535
320,44,70630,1,0,0:0:0:0:
208,136,70930,2,0,B|176:188|188:244|188:244|228:252|256:280,2,168.750006437302,0|0|0,0:0|0:0|0:0,0:0:0:0:
364,244,72130,5,4,0:0:0:0:
203,300,72430,1,0,0:0:0:0:
147,139,72730,1,0,0:0:0:0:
308,83,73030,1,0,0:0:0:0:
198,216,73330,6,0,P|155:259|116:268,2,75
260,129,73780,2,0,P|244:70|255:32,2,75
304,225,74230,2,0,P|363:241|390:269,1,75
256,192,74530,12,4,76930,0:0:0:0:
328,196,77230,6,0,B|372:156|452:216|492:176,2,150,8|0|8,0:0|0:0|0:0,0:0:0:0:
256,136,77980,1,0,0:0:0:0:
184,196,78130,2,0,B|140:156|60:216|20:176,2,150,0|8|0,0:0|0:0|0:0,0:0:0:0:
256,256,78880,1,0,0:0:0:0:
328,196,79030,2,0,P|372:184|408:156,1,75,8|0,0:0|0:0,0:0:0:0:
320,116,79330,6,0,P|252:104|192:32,1,150,4|8,0:0|0:0,0:0:0:0:
112,76,79780,2,0,P|140:156|120:232,1,150
188,284,80230,2,0,P|244:220|316:212,2,150,8|0|8,0:0|0:0|0:0,0:0:0:0:
408,160,81130,2,8,L|412:208,3,37.5
408,244,81430,2,8,L|392:288,3,37.5
368,316,81730,6,0,P|288:324|224:272,1,150,4|8,0:0|0:0,0:0:0:0:
196,204,82180,2,0,L|184:116,1,75
272,156,82480,2,0,L|280:240,2,75,0|8|0,0:0|0:0|0:0,0:0:0:0:
196,204,82930,2,0,P|124:200|64:128,2,150,0|8|0,0:0|0:0|0:0,0:0:0:0:
324,76,83830,1,8,0:0:0:0:
348,240,84130,6,0,L|376:324,2,75,12|0|0,0:0|0:0|0:0,0:0:0:0:
256,192,84580,2,0,L|228:108,2,75,8|0|0,0:0|0:0|0:0,0:0:0:0:
196,276,85030,2,0,L|224:360,2,75,12|0|0,0:0|0:0|0:0,0:0:0:0:
112,220,85480,2,0,L|84:136,2,75,8|0|0,0:0|0:0|0:0,0:0:0:0:
196,276,85930,6,2,B|204:268|204:268|208:276|208:276|216:268|216:268|220:276|220:276|228:268|228:268|232:276|232:276|240:268|240:268|244:276|244:276|252:268|252:268|256:276|256:276|264:268|264:268|268:276|268:276|276:268|276:268|280:276|280:276|288:268|288:268|292:276|292:276|300:268|300:268,1,150
372,300,86380,1,0,0:0:0:0:
368,212,86530,6,0,P|332:152|332:48,1,150,4|8,0:0|0:0,0:0:0:0:
420,72,86980,2,0,P|436:108|440:156,1,75
368,212,87280,2,0,P|328:224|280:220,2,75,0|8|0,0:0|0:0|0:0,0:0:0:0:
308,140,87730,2,0,P|268:136|224:144,1,75
148,172,88030,2,0,P|100:228|100:324,2,150,8|0|8,0:0|0:0|0:0,0:0:0:0:
364,172,88930,6,0,P|412:228|412:324,1,150,4|8,0:0|0:0,0:0:0:0:
324,304,89380,2,0,B|288:304|256:328|256:328|220:304|180:304,1,150
256,244,89830,2,0,L|256:160,2,75,8|0|0,0:0|0:0|0:0,0:0:0:0:
332,160,90280,2,0,P|320:116|284:88,2,75,0|8|0,0:0|0:0|0:0,0:0:0:0:
208,96,90730,2,8,L|180:128,3,37.5
164,164,91030,2,8,L|156:212,3,37.5
161,244,91330,6,0,P|185:304|281:340,1,150,4|8,0:0|0:0,0:0:0:0:
340,304,91780,2,0,P|380:284|420:280,2,75
280,236,92230,2,0,L|252:156,1,75,8|0,0:0|0:0,0:0:0:0:
212,88,92530,2,0,P|128:72|48:112,2,150,0|8|0,0:0|0:0|0:0,0:0:0:0:
152,260,93430,1,8,0:0:0:0:
280,116,93730,6,0,L|340:52,2,75,12|0|0,0:0|0:0|0:0,0:0:0:0:
364,160,94180,2,0,L|448:140,2,75,8|0|0,0:0|0:0|0:0,0:0:0:0:
408,240,94630,2,0,L|492:264,2,75,12|0|0,0:0|0:0|0:0,0:0:0:0:
408,328,95080,2,0,L|480:372,2,75,8|0|0,0:0|0:0|0:0,0:0:0:0:
280,328,95530,2,0,L|236:316,3,37.5
204,296,95830,2,8,L|152:248,3,37.5
156,232,96130,5,4,0:0:0:0:
336,248,96430,2,0,P|392:228|448:136,2,150,8|0|8,0:0|0:0|0:0,0:0:0:0:
195,111,97330,2,0,P|139:131|83:223,1,150,0|8,0:0|0:0,0:0:0:0:
116,292,97780,1,8,0:0:0:0:
116,291,97930,2,0,B|192:331|192:331|264:331,1,150,0|8,0:0|0:0,0:0:0:0:
412,204,98530,6,0,B|316:204|316:204|260:236,1,150,0|8,0:0|0:0,0:0:0:0:
292,320,98980,1,0,0:0:0:0:
368,272,99130,2,0,P|368:184|328:132,1,150,0|8,0:0|0:0,0:0:0:0:
144,272,99730,2,0,P|144:184|184:132,1,150,0|8,0:0|0:0,0:0:0:0:
256,196,100180,1,0,0:0:0:0:
328,252,100330,2,8,L|372:288,2,37.5
256,312,100630,2,8,L|256:368,2,37.5
160,280,100930,6,0,B|116:316|56:304|56:304|20:248,2,150,4|8|0,0:0|0:0|0:0,0:0:0:0:
208,100,101830,2,0,L|284:136,1,75,8|0,0:0|0:0,0:0:0:0:
320,212,102130,2,0,B|376:172|372:116|372:116|340:68,2,150,0|8|0,0:0|0:0|0:0,0:0:0:0:
180,340,103030,2,0,L|140:264,1,75,8|0,0:0|0:0,0:0:0:0:
168,188,103330,2,0,P|132:244|32:276,2,150,0|8|0,0:0|0:0|0:0,0:0:0:0:
256,172,104080,2,0,L|256:260,2,75,0|8|0,0:0|0:0|0:0,0:0:0:0:
344,188,104530,6,0,P|364:228|404:256,1,75
420,164,104830,2,0,P|400:124|360:96,1,75,8|0,0:0|0:0,0:0:0:0:
292,72,105130,2,8,L|276:28,2,37.5
216,116,105430,2,8,L|208:164,2,37.5
132,84,105730,6,0,P|60:124|28:204,2,150,4|8|0,0:0|0:0|0:0,0:0:0:0:
124,176,106480,2,0,L|100:260,1,75,0|8,0:0|0:0,0:0:0:0:
280,292,106930,2,0,P|360:292|436:240,2,150,0|8|0,0:0|0:0|0:0,0:0:0:0:
312,208,107680,2,0,L|332:116,1,75,0|8,0:0|0:0,0:0:0:0:
156,184,108130,6,0,P|156:272|208:336,2,150,0|8|0,0:0|0:0|0:0,0:0:0:0:
192,100,108880,2,0,L|260:160,1,75,0|8,0:0|0:0,0:0:0:0:
420,208,109330,2,0,P|440:136|424:44,2,150,0|8|8,0:0|0:0|0:0,0:0:0:0:
356,272,110080,2,0,L|272:280,2,75,0|8|0,0:0|0:0|0:0,0:0:0:0:
308,352,110530,6,0,B|224:352|224:352|208:340|208:340|148:340,1,150,6|0,0:0|0:0,0:0:0:0:
88,288,110980,1,0,0:0:0:0:
40,212,111130,2,0,P|32:140|84:56,1,150,8|0,0:0|0:0,0:0:0:0:
152,104,111580,1,0,0:0:0:0:
240,116,111730,2,0,B|284:140|360:88|412:120,1,150,2|0,0:0|0:0,0:0:0:0:
364,196,112180,1,0,0:0:0:0:
396,280,112330,2,0,B|352:304|276:252|224:284,2,150,8|0|6,0:0|0:0|0:0,0:0:0:0:
364,196,113080,6,0,P|372:152|372:104,2,75
292,144,113530,2,0,P|247:145|201:162,1,75,8|0,0:0|0:0,0:0:0:0:
156,220,113830,2,0,P|175:260|208:296,1,75,8|0,0:0|0:0,0:0:0:0:
256,348,114130,6,0,B|300:276|256:216|208:148|256:60,2,300,8|8|12,0:0|0:0|0:0,0:0:0:0:
320,132,115630,6,0,P|400:152|460:116,1,150,8|0,0:0|0:0,0:0:0:0:
384,68,116080,2,0,L|300:36,1,75,0|8,0:0|0:0,0:0:0:0:
228,68,116380,2,0,P|176:128|100:140,1,150
52,72,116830,1,8,0:0:0:0:
136,44,116980,2,0,L|216:196,1,150
224,280,117430,2,0,B|184:288|148:264|108:232|68:244,2,150,8|4|8,0:0|0:0|0:0,0:0:0:0:
400,316,118330,6,0,P|352:352|280:348,2,112.5
428,228,118930,2,0,P|424:144|368:76,1,150,0|8,0:0|0:0,0:0:0:0:
304,64,119380,1,0,0:0:0:0:
216,80,119530,2,8,L|192:116,3,37.5
168,148,119830,2,8,L|152:192,3,37.5
144,228,120130,6,0,P|168:284|268:312,1,150,4|8,0:0|0:0,0:0:0:0:
320,264,120580,2,0,P|384:224|460:240,1,150
488,320,121030,1,8,0:0:0:0:
400,308,121180,2,0,L|376:132,1,150,4|0,0:0|0:0,0:0:0:0:
364,72,121630,2,0,P|284:84|232:140,2,150,8|0|8,0:0|0:0|0:0,0:0:0:0:
276,208,122530,6,0,P|202:251|123:238,1,150,4|8,0:0|0:0,0:0:0:0:
48,244,122980,2,0,P|116:280|144:348,1,150,0|8,0:0|0:0,0:0:0:0:
232,368,123430,2,0,P|295:317|364:316,1,150,4|8,0:0|0:0,0:0:0:0:
440,272,123880,2,0,P|460:312|460:356,2,75
392,196,124330,2,0,P|316:228|300:68,1,300,8|4,0:0|0:0,0:0:0:0:
328,144,125230,5,0,0:0:0:0:
148,136,125530,2,0,P|100:132|64:108,2,75,8|0|8,0:0|0:0|0:0,0:0:0:0:
232,100,125980,2,0,P|292:48|368:48,1,150,4|0,0:0|0:0,0:0:0:0:
416,116,126430,1,0,0:0:0:0:
432,204,126580,2,0,P|372:256|292:260,1,150,0|0,0:0|0:0,0:0:0:0:
340,180,127030,2,8,P|384:256|368:328,2,150,0|4|0,0:0|0:0|0:0,0:0:0:0:
164,136,127930,6,0,P|156:72|188:12,2,112.5,8|8|0,0:0|0:0|0:0,0:0:0:0:
232,196,128530,2,0,P|308:184|360:116,1,150,0|8,0:0|0:0,0:0:0:0:
312,52,128980,1,0,0:0:0:0:
224,60,129130,2,8,L|184:88,3,37.5
160,112,129430,2,8,L|136:148,3,37.5
124,184,129730,6,0,B|128:264|128:264|140:300|188:344,1,150,4|0,0:0|0:0,0:0:0:0:
300,204,130330,2,0,B|296:124|296:124|284:88|236:44,1,150,8|0,0:0|0:0,0:0:0:0:
232,260,130930,2,0,B|284:292|340:280|340:280|388:244,1,150,8|0,0:0|0:0,0:0:0:0:
396,64,131530,2,0,B|344:32|288:44|288:44|240:80,1,150,8|0,0:0|0:0,0:0:0:0:
108,204,132130,6,0,P|168:232|208:304,1,150,12|8,0:0|0:0,0:0:0:0:
404,204,132730,2,0,P|344:232|304:304,1,150,8|8,0:0|0:0,0:0:0:0:
256,84,133330,1,0,0:0:0:0:
256,84,133480,2,0,L|256:236,1,150
176,156,133930,2,0,L|152:124,2,37.5
336,156,134230,2,0,L|360:124,2,37.5
348,256,134530,6,0,P|412:236|448:160,2,150,4|0|8,0:0|0:0|0:0,0:0:0:0:
268,216,135280,1,0,0:0:0:0:
52,112,135730,2,0,P|36:212|196:264,2,300,0|0|4,0:0|0:0|0:0,0:0:0:0:
208,60,137230,5,0,0:0:0:0:
368,104,137530,2,0,L|376:180,1,75,8|0,0:0|0:0,0:0:0:0:
164,308,138130,2,0,P|204:240|392:288,2,300,0|0|4,0:0|0:0|0:0,0:0:0:0:
64,176,139630,5,0,0:0:0:0:
180,56,139930,2,0,L|256:40,1,75,8|0,0:0|0:0,0:0:0:0:
416,116,140380,1,12,0:0:0:0:
412,204,140530,2,0,L|336:184,1,75
280,120,140830,2,0,P|256:168|264:264,2,150,8|0|8,0:0|0:0|0:0,0:0:0:0:
180,252,141730,6,0,P|88:220|96:40,1,300,4|8,0:0|0:0,0:0:0:0:
412,148,142930,2,0,P|441:240|293:342,1,300,4|8,0:0|0:0,0:0:0:0:
136,312,143830,2,0,L|93:245,1,75,8|8,0:0|0:0,0:0:0:0:
68,173,144130,6,0,P|85:94|147:43,2,150,4|0|8,0:0|0:0|0:0,0:0:0:0:
151,178,144880,1,0,0:0:0:0:
376,276,145330,2,0,B|316:348|240:292|164:228|100:296,2,300,0|0|4,0:0|0:0|0:0,0:0:0:0:
432,120,146830,5,0,0:0:0:0:
304,224,147130,2,0,L|280:140,1,75,8|0,0:0|0:0,0:0:0:0:
120,128,147580,1,8,0:0:0:0:
56,76,147730,2,0,B|116:4|192:60|268:124|332:56,2,300,0|8|4,0:0|0:0|0:0,0:0:0:0:
88,236,149230,5,0,0:0:0:0:
228,324,149530,2,0,L|300:300,1,75,8|0,0:0|0:0,0:0:0:0:
416,180,149980,1,8,0:0:0:0:
332,212,150130,2,0,L|168:220,1,150
116,52,150730,2,8,L|280:44,1,150,8|0,0:0|0:0,0:0:0:0:
348,80,151180,1,8,0:0:0:0:
392,156,151330,6,0,P|372:216|296:252,1,150,4|0,0:0|0:0,0:0:0:0:
132,180,151930,2,0,L|120:260,1,75,8|0,0:0|0:0,0:0:0:0:
260,140,152380,2,0,L|248:60,2,75,0|8|0,0:0|0:0|0:0,0:0:0:0:
320,208,152830,2,0,L|380:256,1,75,8|0,0:0|0:0,0:0:0:0:
412,168,153130,2,4,L|400:120,3,37.5
384,96,153430,2,4,L|352:64,3,37.5
324,48,153730,2,0,L|288:40,1,37.5,4|4,0:0|0:0,0:0:0:0:
256,280,155530,6,0,L|256:328,2,37.5,0|0|0,0:0|0:0|0:0,0:0:0:0:
256,196,155830,2,2,B|284:152|196:112|236:48|268:64|264:92,1,150,10|4,0:0|0:0,0:0:0:0:
256,192,156205,12,4,158530,0:0:0:0:
