osu file format v12

[General]
AudioFilename: Catastrophe.mp3
AudioLeadIn: 0
PreviewTime: 19030
Countdown: 0
SampleSet: Normal
StackLeniency: 0.7
Mode: 0
LetterboxInBreaks: 1

[Editor]
DistanceSpacing: 0.9
BeatDivisor: 4
GridSize: 4

[Metadata]
Title:Catastrophe
TitleUnicode:Catastrophe
Artist:MuryokuP
ArtistUnicode:無力P
Creator:meiikyuu
Version:Darkness
Source:
Tags:eschatology lunarsakuya haruka sweet_serenitee makar makar8000
BeatmapID:207660
BeatmapSetID:72740

[Difficulty]
HPDrainRate:4
CircleSize:3
OverallDifficulty:4
ApproachRate:5
SliderMultiplier:1.1
SliderTickRate:1

[Events]
//Background and Video events
0,0,"bg3.jpg",0,0
//Break Periods
2,9930,10930
2,12330,13330
2,57929,66130
//Storyboard Layer 0 (Background)
//Storyboard Layer 1 (Fail)
//Storyboard Layer 2 (Pass)
//Storyboard Layer 3 (Foreground)
//Storyboard Sound Samples
//Background Colour Transformations
3,100,128,128,64

[TimingPoints]
130,300,4,1,1,75,1,0
14530,-100,4,1,1,45,0,0
19330,-100,4,1,1,75,0,1
19405,-100,4,1,1,75,0,0
38530,-100,4,1,1,75,0,1
57730,-100,4,1,1,75,0,0
67330,-125,4,2,1,75,0,0
72130,-100,4,1,1,45,0,0
74530,-100,4,1,1,75,0,0
115330,-100,4,1,1,75,0,1
134530,-100,4,1,1,75,0,0
156430,-100,4,1,1,30,0,0
158530,-100,4,1,1,50,0,0

[Colours]
Combo1 : 160,194,192
Combo2 : 255,128,0
Combo3 : 255,45,45

[HitObjects]
256,192,9730,1,4,0:0:0:0:
256,192,12130,5,4,0:0:0:0:
112,252,14530,6,0,P|160:292|224:300,1,110,4|0,0:0|0:0,0:0:0:0:
306,301,15130,2,0,P|352:292|400:252,1,110
400,152,15730,2,0,P|352:112|306:103,1,110
205,102,16331,2,0,P|159:111|111:151,1,110
256,192,16930,12,4,19330,0:0:0:0:
404,152,19930,6,0,P|384:208|344:252,1,110,0|8,0:0|0:0,0:0:0:0:
253,274,20530,2,8,P|197:254|129:258,1,110
64,200,21130,2,0,L|104:88,1,110,0|8,0:0|0:0,0:0:0:0:
200,108,21730,6,0,B|248:128|288:112|288:112|312:80|364:76,2,165,4|0|8,0:0|0:0|0:0,0:0:0:0:
160,200,22930,1,0,0:0:0:0:
116,288,23230,1,8,0:0:0:0:
184,360,23530,2,0,P|288:352|344:252,1,220,8|4,0:0|0:0,0:0:0:0:
340,160,24430,6,0,P|320:108|332:48,2,110,8|0|8,0:0|0:0|0:0,0:0:0:0:
420,220,25330,2,0,P|467:191|495:136,2,110,0|8|0,0:0|0:0|0:0,0:0:0:0:
384,312,26230,1,0,0:0:0:0:
304,256,26530,2,4,P|220:240|148:272,2,165,4|12|4,0:0|0:0|0:0,0:0:0:0:
288,108,27880,2,0,P|204:124|132:92,1,165,8|0,0:0|0:0,0:0:0:0:
64,164,28630,1,8,0:0:0:0:
68,264,28930,6,0,B|100:320|100:320|152:336,1,110,4|8,0:0|0:0,0:0:0:0:
244,336,29530,2,0,B|287:322|287:322|319:266,1,110,0|8,0:0|0:0,0:0:0:0:
364,180,30130,2,0,P|408:216|416:272,2,110,0|8|0,0:0|0:0|0:0,0:0:0:0:
268,148,31030,1,8,0:0:0:0:
188,204,31330,6,0,B|140:248|72:256|72:256|40:296,2,165,4|0|8,0:0|0:0|0:0,0:0:0:0:
252,276,32530,2,0,P|280:328|324:352,1,110,0|8,0:0|0:0,0:0:0:0:
416,316,33130,2,0,P|456:216|400:108,1,220,8|4,0:0|0:0,0:0:0:0:
316,132,34030,5,8,0:0:0:0:
220,164,34330,2,0,P|220:100|248:56,2,110,0|8|0,0:0|0:0|0:0,0:0:0:0:
256,256,35230,1,8,0:0:0:0:
356,244,35530,2,0,P|344:304|308:344,1,110,0|8,0:0|0:0,0:0:0:0:
212,340,36130,2,0,B|156:332|120:284|120:284|68:304,2,165,4|8|4,0:0|0:0|0:0,0:0:0:0:
156,204,37480,2,0,P|132:120|180:48,1,165,8|0,0:0|0:0,0:0:0:0:
268,44,38230,1,8,0:0:0:0:
360,80,38530,6,0,L|368:208,1,110,4|8,0:0|0:0,0:0:0:0:
324,280,39130,1,0,0:0:0:0:
240,228,39430,1,8,0:0:0:0:
140,252,39730,2,0,P|92:176|96:92,2,165,0|0|8,0:0|0:0|0:0,0:0:0:0:
156,348,40930,6,0,P|212:336|284:344,2,110,0|8|0,0:0|0:0|0:0,0:0:0:0:
64,308,41830,1,8,0:0:0:0:
52,208,42130,2,0,L|40:136,2,55,0|0|8,0:0|0:0|0:0,0:0:0:0:
152,196,42730,2,8,L|164:136,2,55
232,252,43330,6,0,P|292:220|320:172,1,110,4|8,0:0|0:0,0:0:0:0:
408,148,43930,2,0,P|424:196|420:268,2,110,0|8|0,0:0|0:0|0:0,0:0:0:0:
344,72,44830,1,8,0:0:0:0:
244,60,45130,2,0,L|168:88,1,55
144,96,45430,1,0,0:0:0:0:
136,196,45730,6,0,P|88:216|20:220,2,110,4|0|0,0:0|0:0|0:0,0:0:0:0:
232,224,46630,2,0,B|320:208|320:208|384:152,2,165,0|0|8,0:0|0:0|0:0,0:0:0:0:
168,300,47830,1,8,0:0:0:0:
76,272,48130,6,0,P|56:176|96:60,1,220,4|8,0:0|0:0,0:0:0:0:
280,136,49330,2,0,P|317:249|297:345,2,220,0|8|0,0:0|0:0|0:0,0:0:0:0:
200,80,50830,2,0,L|80:64,1,110,8|8,0:0|0:0,0:0:0:0:
40,152,51430,2,0,L|149:166,2,110,8|0|8,0:0|0:0|0:0,0:0:0:0:
44,252,52330,2,0,P|120:308|244:288,1,220
356,132,53530,6,0,B|412:204|412:204|424:268|380:332,2,220,8|0|8,0:0|0:0|0:0,0:0:0:0:
156,132,55330,2,0,B|100:204|100:204|88:268|132:332,2,220,4|0|0,0:0|0:0|0:0,0:0:0:0:
256,304,57130,6,0,L|256:72,1,220,0|4,0:0|0:0,0:0:0:0:
172,272,67330,6,0,B|112:280|112:280|56:256|0:292,2,176,4|0|0,0:0|0:0|0:0,0:0:0:0:
256,140,69130,1,0,0:0:0:0:
340,272,69730,2,0,B|400:280|400:280|456:256|512:292,2,176,0|0|0,0:0|0:0|0:0,0:0:0:0:
256,140,71530,1,0,0:0:0:0:
444,76,72130,6,0,P|472:128|468:200,2,110,4|0|0,0:0|0:0|0:0,0:0:0:0:
344,72,73030,1,0,0:0:0:0:
244,72,73330,2,0,P|216:124|220:196,2,110
344,72,74230,1,8,0:0:0:0:
256,192,74530,12,4,76930,0:0:0:0:
100,248,77530,6,0,P|80:188|92:132,2,110,0|8|0,0:0|0:0|0:0,0:0:0:0:
180,308,78430,1,8,0:0:0:0:
256,244,78730,2,0,P|276:184|264:128,1,110,0|8,0:0|0:0,0:0:0:0:
324,56,79330,6,0,B|360:96|364:140|364:140|416:192|392:268,2,220,4|0|0,0:0|0:0|0:0,0:0:0:0:
224,52,80830,1,8,0:0:0:0:
124,56,81130,2,4,B|88:96|84:140|84:140|32:192|56:268,1,220,8|0,0:0|0:0,0:0:0:0:
136,308,82030,5,8,0:0:0:0:
236,296,82330,2,0,P|288:272|356:272,1,110,0|8,0:0|0:0,0:0:0:0:
436,252,82930,2,0,P|448:192|440:132,1,110,0|8,0:0|0:0,0:0:0:0:
412,48,83530,1,0,0:0:0:0:
316,64,83830,1,8,0:0:0:0:
244,132,84130,6,0,B|212:200|212:200|184:224|124:220,2,165,4|8|4,0:0|0:0|0:0,0:0:0:0:
316,260,85480,2,0,B|348:328|348:328|376:352|436:348,1,165,8|0,0:0|0:0,0:0:0:0:
464,252,86230,1,8,0:0:0:0:
460,152,86530,6,0,P|448:96|400:44,2,110,4|8|0,0:0|0:0|0:0,0:0:0:0:
364,168,87430,1,8,0:0:0:0:
264,180,87730,2,0,P|240:228|184:264,1,110,0|8,0:0|0:0,0:0:0:0:
112,204,88330,2,0,P|136:156|192:120,1,110,0|8,0:0|0:0,0:0:0:0:
264,180,88930,6,0,B|316:200|336:256|336:256|396:288,2,165,4|0|8,0:0|0:0|0:0,0:0:0:0:
312,92,90130,2,0,P|360:120|404:168,1,110,0|8,0:0|0:0,0:0:0:0:
467,229,90730,2,0,P|355:257|275:333,1,220,8|4,0:0|0:0,0:0:0:0:
184,312,91630,1,8,0:0:0:0:
108,248,91930,6,0,P|92:184|108:120,2,110,0|8|0,0:0|0:0|0:0,0:0:0:0:
184,188,92830,1,8,0:0:0:0:
216,96,93130,2,0,P|268:88|332:96,1,110,0|8,0:0|0:0,0:0:0:0:
380,176,93730,6,0,B|416:252|416:252|400:344,2,165,4|8|4,0:0|0:0|0:0,0:0:0:0:
236,212,95080,2,0,B|208:272|208:272|172:300,1,110,8|0,0:0|0:0,0:0:0:0:
124,300,95530,2,0,P|68:216|104:104,1,220,0|4,0:0|0:0,0:0:0:0:
296,72,96730,6,0,B|356:72|356:72|408:32,2,110,0|8|0,0:0|0:0|0:0,0:0:0:0:
280,172,97630,1,8,0:0:0:0:
260,268,97930,2,0,B|296:316|296:316|360:328,1,110,0|8,0:0|0:0,0:0:0:0:
432,276,98530,2,0,P|448:192|424:100,2,165,0|0|8,0:0|0:0|0:0,0:0:0:0:
348,220,99730,2,0,P|344:160|316:108,1,110,0|8,0:0|0:0,0:0:0:0:
240,64,100330,2,0,P|156:92|80:204,1,220,8|4,0:0|0:0,0:0:0:0:
256,288,101530,6,0,P|320:272|368:224,1,110,0|8,0:0|0:0,0:0:0:0:
336,148,102130,2,0,P|272:164|224:212,1,110,0|8,0:0|0:0,0:0:0:0:
164,256,102730,2,0,B|112:288|112:288|84:332,2,110,0|8|0,0:0|0:0|0:0,0:0:0:0:
136,160,103630,1,8,0:0:0:0:
152,64,103930,2,0,P|248:40|364:80,1,220
372,176,104830,1,8,0:0:0:0:
360,276,105130,2,0,P|264:300|148:260,1,220,8|4,0:0|0:0,0:0:0:0:
148,64,106330,6,0,L|212:160,1,110,0|8,0:0|0:0,0:0:0:0:
308,156,106930,2,0,L|369:64,2,110,0|8|0,0:0|0:0|0:0,0:0:0:0:
256,240,107830,1,8,0:0:0:0:
336,296,108130,2,0,B|384:316|432:300|432:300|468:224,2,165,0|0|8,0:0|0:0|0:0,0:0:0:0:
256,240,109330,2,0,P|200:256|164:296,1,110,0|8,0:0|0:0,0:0:0:0:
72,260,109930,2,0,P|48:196|56:144,1,110,8|0,0:0|0:0,0:0:0:0:
120,84,110530,6,4,B|236:56|236:56|352:76,2,220,4|8|0,0:0|0:0|0:0,0:0:0:0:
120,280,112330,2,0,B|236:308|236:308|352:288,2,220,8|4|8,0:0|0:0|0:0,0:0:0:0:
168,88,114130,2,0,P|276:104|368:188,1,220,0|8,0:0|0:0,0:0:0:0:
324,268,115030,2,0,L|216:304,1,110,8|4,0:0|0:0,0:0:0:0:
128,264,115630,5,8,0:0:0:0:
28,276,115930,2,0,P|28:212|56:160,1,110,0|8,0:0|0:0,0:0:0:0:
144,152,116530,2,0,B|200:128|216:80|216:80|276:48,2,165,0|0|8,0:0|0:0|0:0,0:0:0:0:
204,232,117730,6,0,P|256:200|292:152,1,110,4|8,0:0|0:0,0:0:0:0:
384,148,118330,1,0,0:0:0:0:
448,224,118630,1,8,0:0:0:0:
412,316,118930,2,0,B|337:337|337:337|245:328,2,165,0|0|8,0:0|0:0|0:0,0:0:0:0:
448,224,120130,6,0,L|435:113,1,110,4|8,0:0|0:0,0:0:0:0:
376,36,120730,2,0,P|332:72|308:140,1,110,0|8,0:0|0:0,0:0:0:0:
268,208,121330,2,0,P|212:132|264:16,2,220,0|0|4,0:0|0:0|0:0,0:0:0:0:
132,268,122980,6,0,P|88:172|88:100,2,165,0|4|0,0:0|0:0|0:0,0:0:0:0:
180,284,124030,2,0,L|248:260,1,55
280,256,124330,2,0,B|348:224|420:284|420:284|492:256,1,220,8|4,0:0|0:0,0:0:0:0:
412,76,125530,6,0,P|308:44|188:56,1,220,8|0,0:0|0:0,0:0:0:0:
124,120,126430,1,0,0:0:0:0:
88,212,126730,2,0,P|76:268|92:332,2,110,8|0|4,0:0|0:0|0:0,0:0:0:0:
176,260,127630,6,8,P|193:314|239:361,2,110,8|8|8,0:0|0:0|0:0,0:0:0:0:
264,212,128530,2,0,B|312:184|368:204|368:204|432:308,1,220,0|8,0:0|0:0,0:0:0:0:
332,328,129430,1,8,0:0:0:0:
236,304,129730,6,0,P|168:236|200:120,2,220,4|8|4,0:0|0:0|0:0,0:0:0:0:
328,272,131230,2,0,P|368:232|384:172,1,110,0|8,0:0|0:0,0:0:0:0:
194,125,132130,6,0,P|282:73|410:65,2,220,4|8|4,0:0|0:0|0:0,0:0:0:0:
144,212,133630,1,0,0:0:0:0:
164,312,133930,2,0,P|264:348|384:320,1,220,0|4,0:0|0:0,0:0:0:0:
380,128,135130,6,0,L|292:216,1,110,8|0,0:0|0:0,0:0:0:0:
204,204,135730,2,0,P|164:156|160:104,1,110,0|8,0:0|0:0,0:0:0:0:
68,152,136330,2,0,L|28:272,1,110,0|8,0:0|0:0,0:0:0:0:
104,328,136930,6,0,B|168:300|240:344|264:352|336:312,1,220,4|0,0:0|0:0,0:0:0:0:
392,256,137830,1,0,0:0:0:0:
388,156,138130,2,0,P|336:172|296:232,1,110
208,180,138730,2,0,L|192:64,1,110,8|8,0:0|0:0,0:0:0:0:
96,80,139330,6,0,P|56:176|72:292,1,220,4|8,0:0|0:0,0:0:0:0:
268,288,140530,2,0,P|282:175|242:79,2,220,0|0|4,0:0|0:0|0:0,0:0:0:0:
96,188,142330,1,8,0:0:0:0:
256,304,142930,1,0,0:0:0:0:
416,188,143530,1,8,0:0:0:0:
256,72,144130,6,0,B|284:144|236:232|260:304,1,220,4|8,0:0|0:0,0:0:0:0:
160,268,145030,2,0,P|160:216|172:144,2,110,0|0|8,0:0|0:0|0:0,0:0:0:0:
208,356,145930,2,0,B|272:384|316:344|316:344|360:244,2,220,0|4|8,0:0|0:0|0:0,0:0:0:0:
112,328,147430,1,0,0:0:0:0:
52,248,147730,2,0,P|56:188|84:136,1,110
168,188,148330,2,0,P|189:143|193:83,1,110,8|8,0:0|0:0,0:0:0:0:
292,64,148930,6,0,B|372:144|372:144|392:188|376:264,1,220,4|8,0:0|0:0,0:0:0:0:
312,324,149830,1,0,0:0:0:0:
256,244,150130,2,0,B|192:212|192:212|144:276|56:264,2,220,0|8|4,0:0|0:0|0:0,0:0:0:0:
324,172,151630,2,0,L|224:120,2,110,0|8|0,0:0|0:0|0:0,0:0:0:0:
364,264,152530,2,0,P|436:196|416:76,1,220,0|8,0:0|0:0,0:0:0:0:
328,56,153430,1,8,0:0:0:0:
228,52,153730,6,0,P|156:120|176:240,2,220,4|0|0,0:0|0:0|0:0,0:0:0:0:
384,176,155530,2,0,B|384:216|404:268|404:268|336:272|272:312,1,220,0|4,0:0|0:0,0:0:0:0:
256,192,156430,12,4,158530,0:0:0:0:
