osu file format v12

[General]
AudioFilename: Catastrophe.mp3
AudioLeadIn: 0
PreviewTime: 19030
Countdown: 0
SampleSet: Normal
StackLeniency: 0.7
Mode: 0
LetterboxInBreaks: 1

[Editor]
DistanceSpacing: 1.1
BeatDivisor: 4
GridSize: 4

[Metadata]
Title:Catastrophe
TitleUnicode:Catastrophe
Artist:MuryokuP
ArtistUnicode:無力P
Creator:meiikyuu
Version:Cataclysm
Source:
Tags:eschatology lunarsakuya haruka sweet_serenitee makar makar8000
BeatmapID:207659
BeatmapSetID:72740

[Difficulty]
HPDrainRate:7
CircleSize:4
OverallDifficulty:7
ApproachRate:9
SliderMultiplier:1.7
SliderTickRate:1

[Events]
//Background and Video events
0,0,"bg3.jpg",0,0
//Break Periods
2,59130,65830
//Storyboard Layer 0 (Background)
//Storyboard Layer 1 (Fail)
//Storyboard Layer 2 (Pass)
//Storyboard Layer 3 (Foreground)
//Storyboard Sound Samples
//Background Colour Transformations
3,100,128,128,64

[TimingPoints]
130,300,4,1,1,75,1,0
9130,-100,4,1,1,40,0,0
9730,-100,4,1,1,50,0,0
14530,-100,4,1,1,45,0,0
19330,-100,4,1,1,75,0,1
19405,-100,4,1,1,75,0,0
38530,-100,4,1,1,75,0,1
57730,-200,4,1,1,75,0,0
58330,-200,4,2,1,30,0,0
67330,-125,4,2,1,75,0,0
70930,-125,4,2,0,75,0,0
72130,-100,4,1,1,45,0,0
74530,-100,4,1,1,75,0,0
115330,-100,4,1,1,75,0,1
134530,-100,4,1,1,75,0,0
154180,-100,4,2,1,60,0,0
155530,-100,4,1,1,50,0,0
156430,-100,4,1,1,30,0,0
158530,-100,4,1,1,50,0,0

[Colours]
Combo1 : 160,194,192
Combo2 : 255,128,0
Combo3 : 255,45,45

[HitObjects]
256,192,9130,1,0,0:0:0:0:
256,192,9205,1,0,0:0:0:0:
256,192,9280,1,0,0:0:0:0:
256,192,9355,1,0,0:0:0:0:
256,192,9430,1,0,0:0:0:0:
256,192,9505,1,0,0:0:0:0:
256,192,9580,1,0,0:0:0:0:
256,192,9655,1,0,0:0:0:0:
256,192,9730,1,0,0:0:0:0:
256,192,12130,5,0,0:0:0:0:
256,260,14530,5,4,0:0:0:0:
180,192,14830,1,0,0:0:0:0:
256,124,15130,1,4,0:0:0:0:
332,192,15430,1,0,0:0:0:0:
144,284,15730,5,4,0:0:0:0:
144,100,16030,1,0,0:0:0:0:
368,100,16330,1,4,0:0:0:0:
368,284,16630,1,0,0:0:0:0:
256,192,16930,12,0,19030,0:0:0:0:
200,296,19330,6,0,P|112:272|72:196,1,170,4|8,0:0|0:0,0:0:0:0:
112,112,19780,1,0,0:0:0:0:
207,77,19930,2,0,L|288:48,1,85
192,236,20230,2,0,L|216:328,1,85,8|0,0:0|0:0,0:0:0:0:
340,336,20530,6,0,L|422:316,1,85
284,220,20830,2,0,L|368:160,1,85,8|8,0:0|0:0,0:0:0:0:
420,288,21130,2,0,L|508:292,1,85
376,188,21430,2,0,L|428:108,1,85,8|0,0:0|0:0,0:0:0:0:
332,48,21730,6,0,P|252:36|160:76,1,170,0|8,0:0|0:0,0:0:0:0:
116,184,22180,2,0,P|196:196|288:156,1,170
171,68,22630,2,0,L|135:156,1,85,8|0,0:0|0:0,0:0:0:0:
276,240,22930,2,0,L|309:162,1,85
160,252,23230,2,0,L|124:340,1,85,8|0,0:0|0:0,0:0:0:0:
280,344,23530,2,0,L|328:324,3,42.5
344,304,23830,1,0,0:0:0:0:
360,276,23905,1,0,0:0:0:0:
364,244,23980,1,0,0:0:0:0:
360,212,24055,1,0,0:0:0:0:
344,184,24130,6,0,P|316:148|268:136,1,85,4|0,0:0|0:0,0:0:0:0:
159,151,24430,2,0,L|172:252,1,85,8|0,0:0|0:0,0:0:0:0:
260,317,24730,2,0,L|344:304,1,85
448,280,25030,1,8,0:0:0:0:
448,176,25180,2,0,B|424:92|424:92|360:36,1,170
256,55,25630,2,0,L|256:140,1,85,8|8,0:0|0:0,0:0:0:0:
154,267,25930,2,0,L|184:188,1,85
328,188,26230,2,0,L|360:276,1,85,8|0,0:0|0:0,0:0:0:0:
180,136,26530,6,0,L|124:64,2,85,12|0|0,0:0|0:0|0:0,0:0:0:0:
332,136,26980,2,0,L|388:64,2,85,8|0|0,0:0|0:0|0:0,0:0:0:0:
180,248,27430,2,0,L|124:320,2,85,12|0|0,0:0|0:0|0:0,0:0:0:0:
332,248,27880,2,0,L|388:320,2,85,8|0|0,0:0|0:0|0:0,0:0:0:0:
280,104,28330,2,0,L|340:88,3,42.5
356,96,28630,1,0,0:0:0:0:
384,112,28705,1,0,0:0:0:0:
404,140,28780,1,0,0:0:0:0:
412,172,28855,1,0,0:0:0:0:
412,204,28930,6,0,L|388:288,1,85,4|0,0:0|0:0,0:0:0:0:
268,332,29230,2,0,P|228:256|244:172,1,170,8|0,0:0|0:0,0:0:0:0:
319,267,29680,2,0,P|304:300|268:332,1,85,0|8,0:0|0:0,0:0:0:0:
144,240,29980,2,0,P|148:192|164:148,1,85
280,104,30280,2,0,P|304:136|312:188,1,85,0|8,0:0|0:0,0:0:0:0:
319,266,30580,1,0,0:0:0:0:
232,316,30730,2,0,L|155:354,1,85
232,212,31030,2,0,L|144:168,1,85,8|0,0:0|0:0,0:0:0:0:
319,266,31330,6,0,B|364:264|424:328|484:316,1,170,0|8,0:0|0:0,0:0:0:0:
464,188,31780,2,0,B|436:188|416:160|380:156,1,85
304,180,32080,1,0,0:0:0:0:
249,306,32230,2,0,P|289:297|319:266,1,85,8|0,0:0|0:0,0:0:0:0:
280,96,32530,2,0,P|240:105|210:136,1,85
152,248,32830,2,0,L|111:322,1,85,8|0,0:0|0:0,0:0:0:0:
216,304,33130,1,0,0:0:0:0:
244,284,33205,1,0,0:0:0:0:
276,276,33280,1,0,0:0:0:0:
308,280,33355,1,0,0:0:0:0:
336,296,33430,2,0,P|356:312|384:324,3,42.5
412,328,33730,6,0,P|456:304|480:260,1,85,4|0,0:0|0:0,0:0:0:0:
388,120,34030,2,0,P|344:144|325:172,1,85,8|0,0:0|0:0,0:0:0:0:
448,200,34330,2,0,L|472:104,1,85
264,109,34630,2,0,L|244:192,1,85,8|0,0:0|0:0,0:0:0:0:
332,324,34930,2,0,L|352:241,1,85
172,196,35230,2,0,L|140:288,1,85,8|8,0:0|0:0,0:0:0:0:
36,192,35530,1,0,0:0:0:0:
44,100,35680,1,0,0:0:0:0:
124,48,35830,2,0,P|164:36|216:48,1,85,8|8,0:0|0:0,0:0:0:0:
268,192,36130,6,0,L|306:268,2,85,12|0|0,0:0|0:0|0:0,0:0:0:0:
313,95,36580,2,0,L|352:172,1,85,8|0,0:0|0:0,0:0:0:0:
312,282,36880,1,0,0:0:0:0:
204,256,37030,2,0,L|165:179,1,85,12|0,0:0|0:0,0:0:0:0:
207,81,37330,1,0,0:0:0:0:
313,95,37480,2,0,L|392:152,1,85,8|0,0:0|0:0,0:0:0:0:
448,220,37780,1,0,0:0:0:0:
384,344,37930,5,0,0:0:0:0:
360,324,38005,1,0,0:0:0:0:
340,300,38080,1,0,0:0:0:0:
324,276,38155,1,0,0:0:0:0:
312,248,38230,1,0,0:0:0:0:
304,220,38305,1,0,0:0:0:0:
304,192,38380,1,0,0:0:0:0:
308,164,38455,1,0,0:0:0:0:
324,140,38530,6,0,P|392:100|476:128,1,170,4|8,0:0|0:0,0:0:0:0:
456,248,38980,1,0,0:0:0:0:
384,344,39130,2,0,L|292:320,1,85
204,236,39430,1,8,0:0:0:0:
236,108,39580,2,0,P|304:56|396:64,1,170,4|0,0:0|0:0,0:0:0:0:
320,240,40030,2,0,P|289:220|265:180,1,85,8|0,0:0|0:0,0:0:0:0:
456,208,40330,2,0,P|444:252|416:292,1,85
312,344,40630,1,8,0:0:0:0:
188,296,40780,1,0,0:0:0:0:
180,284,40855,1,0,0:0:0:0:
172,272,40930,6,0,L|136:176,1,85,4|0,0:0|0:0,0:0:0:0:
206,100,41230,2,0,L|236:180,1,85,8|0,0:0|0:0,0:0:0:0:
64,240,41530,2,0,L|32:152,1,85
40,112,41755,1,0,0:0:0:0:
64,72,41830,2,0,P|104:56|136:24,1,85,8|0,0:0|0:0,0:0:0:0:
206,100,42130,2,0,B|183:140|183:140|182:196,1,85
306,284,42430,2,0,B|329:244|329:244|330:188,1,85,8|0,0:0|0:0,0:0:0:0:
176,196,42730,2,0,L|168:244,3,42.5
172,272,43030,1,0,0:0:0:0:
180,304,43105,1,0,0:0:0:0:
200,332,43180,1,0,0:0:0:0:
228,352,43255,1,0,0:0:0:0:
260,364,43330,6,0,L|356:360,1,85,4|0,0:0|0:0,0:0:0:0:
400,232,43630,2,0,L|315:235,1,85,8|0,0:0|0:0,0:0:0:0:
208,196,43930,1,0,0:0:0:0:
240,108,44080,1,0,0:0:0:0:
332,96,44230,1,8,0:0:0:0:
416,140,44380,2,0,P|452:216|436:312,1,170,4|0,0:0|0:0,0:0:0:0:
304,324,44830,2,0,P|284:276|284:244,1,85,8|0,0:0|0:0,0:0:0:0:
288,152,45130,1,0,0:0:0:0:
288,152,45205,1,0,0:0:0:0:
288,152,45280,1,0,0:0:0:0:
368,204,45430,2,0,P|388:252|388:284,1,85,8|0,0:0|0:0,0:0:0:0:
208,296,45730,6,0,B|152:284|92:340|28:296,1,170,4|8,0:0|0:0,0:0:0:0:
44,208,46180,2,0,B|94:171|154:227|208:216,1,170,8|0,0:0|0:0,0:0:0:0:
288,152,46630,1,8,0:0:0:0:
348,280,46780,2,0,P|392:252|416:212,1,85
388,136,47080,1,8,0:0:0:0:
388,136,47155,1,8,0:0:0:0:
388,136,47230,2,0,L|284:148,1,85,8|0,0:0|0:0,0:0:0:0:
168,172,47530,2,0,L|156:128,3,42.5
164,84,47830,2,0,L|188:32,3,42.5
228,44,48130,6,0,P|276:88|348:104,1,127.5,4|0,0:0|0:0,0:0:0:0:
380,92,48430,2,0,P|420:160|400:248,1,170,0|8,0:0|0:0,0:0:0:0:
344,320,48880,1,8,0:0:0:0:
280,252,49030,1,8,0:0:0:0:
324,168,49180,2,0,P|412:164|476:232,1,170
344,320,49630,2,0,P|300:296|285:266,1,85
224,140,49930,2,0,P|232:84|248:56,1,85,8|0,0:0|0:0,0:0:0:0:
324,168,50230,2,0,P|292:204|256:216,1,85,8|0,0:0|0:0,0:0:0:0:
212,228,50455,1,0,0:0:0:0:
164,220,50530,6,0,P|120:196|88:164,1,85,4|0,0:0|0:0,0:0:0:0:
168,112,50830,2,0,P|208:80|236:44,1,85,8|0,0:0|0:0,0:0:0:0:
180,300,51130,2,0,P|140:332|112:368,1,85,8|0,0:0|0:0,0:0:0:0:
72,368,51355,2,0,B|40:300|40:300|40:244,1,127.5,8|0,0:0|0:0,0:0:0:0:
120,132,51730,2,0,P|168:100|240:92,1,127.5,8|0,0:0|0:0,0:0:0:0:
280,104,52030,2,0,P|320:124|348:156,1,85,8|0,0:0|0:0,0:0:0:0:
360,268,52330,2,0,P|344:320|312:356,1,85,8|0,0:0|0:0,0:0:0:0:
232,332,52630,1,8,0:0:0:0:
152,284,52780,1,8,0:0:0:0:
200,176,52930,6,0,B|248:128|316:136|360:188,1,170,4|0,0:0|0:0,0:0:0:0:
264,244,53380,1,0,0:0:0:0:
124,156,53530,2,0,P|180:92|272:68,1,170,8|0,0:0|0:0,0:0:0:0:
324,316,53980,1,0,0:0:0:0:
324,316,54130,2,0,P|244:336|160:308,1,170,8|0,0:0|0:0,0:0:0:0:
132,148,54580,1,0,0:0:0:0:
132,148,54730,2,0,P|212:128|296:156,1,170,8|0,0:0|0:0,0:0:0:0:
244,232,55180,1,0,0:0:0:0:
324,316,55330,6,0,B|380:248|380:248|396:168,1,170,8|8,0:0|0:0,0:0:0:0:
188,68,55930,2,0,B|132:136|132:136|116:216,1,170,8|8,0:0|0:0,0:0:0:0:
204,300,56380,1,0,0:0:0:0:
324,316,56530,2,0,L|407:301,1,85
296,228,56830,2,0,L|360:164,1,85
320,80,57130,1,0,0:0:0:0:
280,76,57205,1,0,0:0:0:0:
244,84,57280,1,0,0:0:0:0:
212,100,57355,1,0,0:0:0:0:
184,128,57430,2,0,L|164:168,3,42.5
172,204,57730,6,0,B|188:248|188:248|226:229|275:244|296:280|296:280|308:236|308:236|344:220|348:180|320:148|284:159,1,340,4|0,0:0|0:0,0:0:0:0:
402,59,67330,6,0,L|348:100,2,68,4|0|0,0:0|0:0|0:0,0:0:0:0:
427,163,67930,2,0,L|360:172,2,68,2|0|0,0:0|0:0|0:0,0:0:0:0:
414,274,68529,2,0,L|352:248,2,68,0|0|0,0:0|0:0|0:0,0:0:0:0:
344,358,69130,2,0,L|304:304,2,68,2|0|0,0:0|0:0|0:0,0:0:0:0:
168,358,69730,6,0,P|212:294|218:218,1,136,0|0,0:0|0:0,0:0:0:0:
172,180,70180,2,0,B|112:212|112:212|80:200|64:164,1,136
120,116,70630,2,0,P|148:92|160:60,1,68
104,240,70930,2,0,B|116:324|188:360|188:360|248:344,2,204,0|0|0,0:0|0:0|0:0,0:0:0:0:
256,92,72130,5,4,0:0:0:0:
336,312,72430,1,0,0:0:0:0:
108,264,72730,1,0,0:0:0:0:
340,139,73030,1,0,0:0:0:0:
196,323,73330,5,0,0:0:0:0:
116,104,73630,1,0,0:0:0:0:
340,139,73930,1,0,0:0:0:0:
292,316,74230,1,0,0:0:0:0:
292,316,74305,1,0,0:0:0:0:
292,316,74380,1,0,0:0:0:0:
292,316,74455,1,0,0:0:0:0:
292,316,74530,6,0,L|269:224,1,85
328,97,74980,1,0,0:0:0:0:
328,97,75055,1,0,0:0:0:0:
328,97,75130,6,0,L|349:180,1,85,8|0,0:0|0:0,0:0:0:0:
237,116,75430,2,0,L|261:28,1,85,8|0,0:0|0:0,0:0:0:0:
432,176,75730,2,0,L|409:258,1,85,8|0,0:0|0:0,0:0:0:0:
248,288,76030,2,0,L|271:206,1,85,8|0,0:0|0:0,0:0:0:0:
368,148,76330,1,8,0:0:0:0:
368,180,76405,1,0,0:0:0:0:
364,212,76480,1,0,0:0:0:0:
352,244,76555,1,0,0:0:0:0:
336,272,76630,1,0,0:0:0:0:
316,300,76705,1,0,0:0:0:0:
288,320,76780,1,0,0:0:0:0:
256,336,76855,1,0,0:0:0:0:
224,344,76930,6,0,B|152:285|152:285|128:252|128:212,1,170,4|8,0:0|0:0,0:0:0:0:
168,88,77380,1,0,0:0:0:0:
300,86,77530,2,0,L|276:168,1,85
248,248,77830,1,8,0:0:0:0:
216,96,77980,2,0,P|300:84|368:136,1,170
332,324,78430,2,0,P|288:328|244:320,1,85,8|8,0:0|0:0,0:0:0:0:
148,220,78730,2,0,P|112:184|81:169,1,85
140,312,79030,2,0,P|104:348|73:362,1,85,8|0,0:0|0:0,0:0:0:0:
224,268,79330,6,0,B|280:256|336:316|412:292,1,170,0|8,0:0|0:0,0:0:0:0:
448,224,79780,1,0,0:0:0:0:
433,96,79930,2,0,P|420:124|380:160,1,85
204,96,80230,2,0,P|218:68|258:32,1,85,8|0,0:0|0:0,0:0:0:0:
300,216,80530,2,0,P|287:244|247:280,1,85
156,166,80830,2,0,L|204:96,1,85,8|0,0:0|0:0,0:0:0:0:
340,124,81130,1,0,0:0:0:0:
352,148,81205,1,0,0:0:0:0:
360,172,81280,1,0,0:0:0:0:
364,196,81355,1,0,0:0:0:0:
364,220,81430,1,0,0:0:0:0:
360,244,81505,1,0,0:0:0:0:
356,268,81580,1,0,0:0:0:0:
344,292,81655,1,0,0:0:0:0:
328,312,81730,6,0,P|252:348|148:340,1,170,0|8,0:0|0:0,0:0:0:0:
88,296,82180,1,0,0:0:0:0:
64,204,82330,2,0,L|48:112,1,85
159,32,82630,2,0,L|144:116,1,85,8|0,0:0|0:0,0:0:0:0:
160,256,82930,2,0,P|204:244|240:208,1,85
252,56,83230,2,0,L|237:140,1,85,8|0,0:0|0:0,0:0:0:0:
280,284,83530,1,0,0:0:0:0:
392,313,83680,2,0,L|412:365,2,42.5,0|0|8,0:0|0:0|0:0,0:0:0:0:
396,172,83980,1,0,0:0:0:0:
464,236,84130,6,0,L|492:148,1,85,4|0,0:0|0:0,0:0:0:0:
396,172,84430,1,0,0:0:0:0:
392,312,84580,2,0,L|488:280,1,85,8|0,0:0|0:0,0:0:0:0:
396,172,84880,1,0,0:0:0:0:
292,204,85030,2,0,L|211:230,2,85,12|0|0,0:0|0:0|0:0,0:0:0:0:
236,108,85480,2,0,L|155:134,1,85,8|0,0:0|0:0,0:0:0:0:
88,212,85780,1,0,0:0:0:0:
136,300,85930,2,0,B|176:320|176:320|196:304|196:304|212:316|212:316|244:308|244:308|260:320|260:320|288:304,1,170,0|8,0:0|0:0,0:0:0:0:
348,216,86380,1,0,0:0:0:0:
360,196,86455,1,0,0:0:0:0:
372,176,86530,6,0,L|424:96,1,85,4|0,0:0|0:0,0:0:0:0:
468,184,86830,2,0,P|456:224|420:260,1,85,8|0,0:0|0:0,0:0:0:0:
304,116,87130,2,0,P|316:76|352:40,1,85
348,216,87430,2,0,L|256:244,1,85,8|0,0:0|0:0,0:0:0:0:
146,172,87730,2,0,L|228:148,1,85
76,248,88030,2,0,L|56:152,1,85,8|8,0:0|0:0,0:0:0:0:
210,65,88330,2,0,L|227:148,1,85
248,256,88630,2,0,P|272:336|344:388,1,170,8|4,0:0|0:0,0:0:0:0:
148,228,89230,6,0,L|184:312,1,85,0|0,0:0|0:0,0:0:0:0:
316,208,89530,2,0,L|282:129,1,85,0|0,0:0|0:0,0:0:0:0:
152,80,89830,1,8,0:0:0:0:
100,180,89980,1,0,0:0:0:0:
148,280,90130,2,0,L|108:368,1,85
256,212,90430,2,0,L|308:140,1,85,8|0,0:0|0:0,0:0:0:0:
400,128,90730,2,0,L|428:168,3,42.5
436,196,91030,1,0,0:0:0:0:
440,228,91105,1,0,0:0:0:0:
436,260,91180,1,0,0:0:0:0:
420,292,91255,1,0,0:0:0:0:
396,316,91330,6,0,P|352:328|296:324,1,85,4|0,0:0|0:0,0:0:0:0:
272,244,91630,2,0,L|304:164,1,85,8|0,0:0|0:0,0:0:0:0:
484,192,91930,2,0,L|452:270,1,85
304,165,92230,2,0,L|336:85,1,85,8|0,0:0|0:0,0:0:0:0:
392,161,92530,1,0,0:0:0:0:
244,100,92680,2,0,P|200:88|156:88,2,85,0|8|8,0:0|0:0|0:0,0:0:0:0:
392,161,93130,2,0,P|436:173|480:173,1,85
404,296,93430,2,0,P|364:296|320:308,1,85,8|8,0:0|0:0,0:0:0:0:
184,272,93730,6,0,L|100:212,2,85,4|0|0,0:0|0:0|0:0,0:0:0:0:
308,144,94180,2,0,L|317:41,2,85,8|0|0,0:0|0:0|0:0,0:0:0:0:
224,188,94630,2,0,L|181:94,2,85,12|0|0,0:0|0:0|0:0,0:0:0:0:
400,168,95080,2,0,L|460:84,2,85,8|0|0,0:0|0:0|0:0,0:0:0:0:
376,260,95530,1,0,0:0:0:0:
368,272,95605,1,0,0:0:0:0:
360,284,95680,1,0,0:0:0:0:
352,296,95755,1,0,0:0:0:0:
344,308,95830,1,0,0:0:0:0:
336,320,95905,1,0,0:0:0:0:
328,332,95980,1,0,0:0:0:0:
320,344,96055,1,0,0:0:0:0:
308,360,96130,6,0,B|216:340|216:340|172:268,1,170,4|8,0:0|0:0,0:0:0:0:
180,156,96580,1,0,0:0:0:0:
256,64,96730,2,0,P|336:88|392:172,1,170,0|8,0:0|0:0,0:0:0:0:
320,236,97180,1,0,0:0:0:0:
256,320,97330,2,0,P|176:296|120:212,1,170,0|8,0:0|0:0,0:0:0:0:
116,136,97780,1,8,0:0:0:0:
176,64,97930,2,0,L|268:36,1,85
340,152,98230,2,0,L|290:220,1,85,8|0,0:0|0:0,0:0:0:0:
124,230,98530,6,0,L|79:54,1,170,0|8,0:0|0:0,0:0:0:0:
192,152,98980,1,0,0:0:0:0:
244,280,99130,2,0,P|204:296|152:288,1,85
152,80,99430,2,0,L|232:20,1,85,8|0,0:0|0:0,0:0:0:0:
312,52,99730,2,0,B|384:80|384:80|440:160,1,170,0|8,0:0|0:0,0:0:0:0:
452,248,100180,1,0,0:0:0:0:
392,320,100330,1,0,0:0:0:0:
372,324,100405,1,0,0:0:0:0:
352,328,100480,1,0,0:0:0:0:
332,332,100555,1,0,0:0:0:0:
312,336,100630,1,0,0:0:0:0:
292,340,100705,1,0,0:0:0:0:
272,344,100780,1,0,0:0:0:0:
252,348,100855,1,0,0:0:0:0:
232,352,100930,6,0,P|148:312|112:240,1,170,4|8,0:0|0:0,0:0:0:0:
120,152,101380,1,0,0:0:0:0:
176,80,101530,2,0,P|216:80|268:112,1,85
304,232,101830,2,0,P|264:251|224:251,1,85,8|0,0:0|0:0,0:0:0:0:
272,144,102130,2,0,P|360:152|428:212,1,170,0|8,0:0|0:0,0:0:0:0:
388,288,102580,1,0,0:0:0:0:
250,226,102730,2,0,L|272:144,1,85,0|0,0:0|0:0,0:0:0:0:
444,120,103030,2,0,L|422:202,1,85,8|8,0:0|0:0,0:0:0:0:
388,288,103330,6,0,P|316:320|224:312,1,170,0|8,0:0|0:0,0:0:0:0:
144,268,103780,1,0,0:0:0:0:
144,268,103855,1,0,0:0:0:0:
144,268,103930,2,0,L|116:180,1,85
186,103,104230,2,0,L|212:184,1,85,8|0,0:0|0:0,0:0:0:0:
28,144,104530,2,0,L|72:52,1,85
220,64,104830,2,0,L|246:145,1,85,8|0,0:0|0:0,0:0:0:0:
144,268,105130,1,0,0:0:0:0:
120,244,105205,1,0,0:0:0:0:
100,216,105280,1,0,0:0:0:0:
84,188,105355,1,0,0:0:0:0:
76,156,105430,1,0,0:0:0:0:
72,124,105505,1,0,0:0:0:0:
76,92,105580,1,0,0:0:0:0:
88,60,105655,1,0,0:0:0:0:
112,36,105730,6,0,P|192:24|280:68,1,170,4|8,0:0|0:0,0:0:0:0:
360,124,106180,1,0,0:0:0:0:
368,216,106330,2,0,B|352:260|352:260|320:296,1,85
360,124,106630,2,0,B|404:140|404:140|432:165,1,85,8|0,0:0|0:0,0:0:0:0:
268,140,106930,2,0,B|272:80|312:48|312:48|384:36,1,170,0|8,0:0|0:0,0:0:0:0:
460,80,107380,1,0,0:0:0:0:
464,220,107530,2,0,L|424:316,1,85
352,344,107830,1,8,0:0:0:0:
260,352,107980,1,0,0:0:0:0:
180,300,108130,6,0,B|140:216|140:216|132:128,1,170,0|8,0:0|0:0,0:0:0:0:
56,216,108580,2,0,L|92:292,1,85
260,276,108880,2,0,L|224:200,1,85,0|8,0:0|0:0,0:0:0:0:
288,76,109180,1,0,0:0:0:0:
333,156,109330,2,0,P|241:156|196:100,1,170,0|8,0:0|0:0,0:0:0:0:
384,76,109780,2,0,P|416:108|428:164,1,85
424,172,110005,1,0,0:0:0:0:
416,196,110080,1,0,0:0:0:0:
408,220,110155,1,0,0:0:0:0:
400,244,110230,1,0,0:0:0:0:
392,268,110305,1,0,0:0:0:0:
384,292,110380,1,0,0:0:0:0:
376,316,110455,1,0,0:0:0:0:
364,340,110530,6,0,P|280:364|192:328,1,170,4|0,0:0|0:0,0:0:0:0:
148,44,111130,2,0,P|232:20|320:56,1,170,8|0,0:0|0:0,0:0:0:0:
308,140,111580,1,0,0:0:0:0:
209,236,111730,2,0,L|216:152,1,85
400,128,112030,2,0,L|394:213,1,85
297,324,112330,2,0,L|304:240,1,85,8|0,0:0|0:0,0:0:0:0:
488,216,112630,2,0,L|482:301,1,85
304,216,112930,6,0,P|324:124|380:72,1,170,4|0,0:0|0:0,0:0:0:0:
412,160,113380,1,0,0:0:0:0:
400,192,113455,1,0,0:0:0:0:
388,224,113530,2,0,L|356:308,1,85,8|0,0:0|0:0,0:0:0:0:
216,184,113830,2,0,L|246:104,1,85
304,216,114130,5,0,0:0:0:0:
186,264,114280,1,0,0:0:0:0:
132,148,114430,2,0,L|168:56,1,85
340,96,114730,1,0,0:0:0:0:
368,108,114805,1,0,0:0:0:0:
392,124,114880,1,0,0:0:0:0:
416,140,114955,1,0,0:0:0:0:
436,164,115030,1,0,0:0:0:0:
452,188,115105,1,0,0:0:0:0:
464,216,115180,1,0,0:0:0:0:
468,244,115255,1,0,0:0:0:0:
464,272,115330,6,0,L|404:344,1,85,4|0,0:0|0:0,0:0:0:0:
324,296,115630,2,0,P|236:272|140:280,1,170,8|0,0:0|0:0,0:0:0:0:
151,119,116080,2,0,P|176:140|196:188,1,85,0|8,0:0|0:0,0:0:0:0:
104,352,116380,2,0,P|36:288|36:200,1,170,4|0,0:0|0:0,0:0:0:0:
60,128,116830,2,0,P|84:88|92:36,1,85,8|0,0:0|0:0,0:0:0:0:
184,48,117130,1,0,0:0:0:0:
276,108,117280,1,0,0:0:0:0:
320,208,117430,1,8,0:0:0:0:
240,300,117580,1,0,0:0:0:0:
224,280,117655,1,0,0:0:0:0:
212,256,117730,6,0,P|192:208|196:156,1,85,4|0,0:0|0:0,0:0:0:0:
276,108,118030,2,0,P|320:108|368:128,1,85,8|0,0:0|0:0,0:0:0:0:
360,296,118330,2,0,P|321:309|277:309,1,85
168,168,118630,2,0,L|208:84,1,85,8|0,0:0|0:0,0:0:0:0:
336,40,118930,2,0,P|368:72|380:124,1,85
388,156,119155,1,0,0:0:0:0:
372,200,119230,2,0,P|360:244|368:292,1,85,8|0,0:0|0:0,0:0:0:0:
276,340,119530,1,0,0:0:0:0:
252,320,119605,1,0,0:0:0:0:
236,296,119680,1,0,0:0:0:0:
228,268,119755,1,0,0:0:0:0:
224,240,119830,1,0,0:0:0:0:
228,212,119905,1,0,0:0:0:0:
232,184,119980,1,0,0:0:0:0:
244,156,120055,1,0,0:0:0:0:
260,132,120130,6,0,P|296:104|348:96,1,85,4|0,0:0|0:0,0:0:0:0:
376,192,120430,1,8,0:0:0:0:
376,192,120580,2,0,P|360:104|392:32,1,170
296,28,121030,1,8,0:0:0:0:
280,120,121180,6,0,P|224:176|128:184,1,170,4|0,0:0|0:0,0:0:0:0:
184,104,121630,1,8,0:0:0:0:
296,236,121780,2,0,P|352:180|448:172,1,170
392,252,122230,1,8,0:0:0:0:
388,344,122380,1,0,0:0:0:0:
252,316,122530,6,0,P|208:260|216:164,1,170,4|8,0:0|0:0,0:0:0:0:
356,101,122980,2,0,P|400:157|392:251,1,170,0|8,0:0|0:0,0:0:0:0:
268,135,123430,2,0,P|284:44|360:8,1,170,4|8,0:0|0:0,0:0:0:0:
268,135,123880,2,0,L|176:104,1,85
144,192,124180,1,0,0:0:0:0:
172,280,124330,1,0,0:0:0:0:
200,264,124405,1,0,0:0:0:0:
232,256,124480,1,0,0:0:0:0:
264,264,124555,1,0,0:0:0:0:
288,288,124630,2,0,P|312:308|348:312,3,42.5
356,312,124930,6,0,P|412:248|396:156,1,170,4|0,0:0|0:0,0:0:0:0:
256,52,125530,1,8,0:0:0:0:
224,188,125680,1,8,0:0:0:0:
296,128,125830,1,8,0:0:0:0:
264,264,125980,2,0,P|180:260|144:188,1,170,4|0,0:0|0:0,0:0:0:0:
204,112,126430,2,0,P|248:112|288:144,1,85
264,264,126730,2,0,P|252:308|224:340,1,85,8|0,0:0|0:0,0:0:0:0:
132,356,127030,1,0,0:0:0:0:
48,316,127180,1,0,0:0:0:0:
24,228,127330,6,0,P|24:180|44:140,1,85,4|0,0:0|0:0,0:0:0:0:
172,196,127630,2,0,P|172:244|157:277,1,85,8|0,0:0|0:0,0:0:0:0:
112,124,127930,2,0,B|160:88|224:100|224:100|272:140,1,170,8|8,0:0|0:0,0:0:0:0:
280,224,128380,1,0,0:0:0:0:
308,244,128455,1,0,0:0:0:0:
340,248,128530,2,0,P|408:240|456:200,1,127.5
444,160,128830,2,0,P|428:116|436:60,1,85,8|0,0:0|0:0,0:0:0:0:
308,152,129130,1,0,0:0:0:0:
252,296,129280,1,0,0:0:0:0:
152,248,129430,1,0,0:0:0:0:
148,136,129580,1,0,0:0:0:0:
236,68,129730,6,0,B|315:41|315:41|408:62,1,170,4|0,0:0|0:0,0:0:0:0:
410,197,130180,1,0,0:0:0:0:
410,197,130330,2,0,B|330:223|330:223|237:202,1,170,8|0,0:0|0:0,0:0:0:0:
148,136,130780,1,0,0:0:0:0:
192,268,130930,2,0,P|120:280|96:192,1,170
246,204,131380,2,0,P|285:222|307:269,1,85,0|8,0:0|0:0,0:0:0:0:
380,336,131680,2,0,P|424:320|456:288,2,85
344,172,132130,6,0,B|376:80|376:80|440:28,1,170,8|0,0:0|0:0,0:0:0:0:
432,200,132580,1,0,0:0:0:0:
280,291,132730,2,0,P|276:208|344:172,1,170,8|8,0:0|0:0,0:0:0:0:
364,280,133180,1,0,0:0:0:0:
200,296,133330,2,0,P|188:252|192:208,1,85,8|0,0:0|0:0,0:0:0:0:
261,55,133630,2,0,P|256:96|232:132,1,85
191,217,133930,5,0,0:0:0:0:
172,228,134005,1,0,0:0:0:0:
152,240,134080,1,0,0:0:0:0:
132,248,134155,1,0,0:0:0:0:
112,252,134230,1,0,0:0:0:0:
92,252,134305,1,0,0:0:0:0:
72,248,134380,1,0,0:0:0:0:
52,240,134455,1,0,0:0:0:0:
36,228,134530,6,0,P|16:144|64:76,1,170,4|0,0:0|0:0,0:0:0:0:
144,120,134980,1,0,0:0:0:0:
191,217,135130,2,0,L|220:300,1,85,8|0,0:0|0:0,0:0:0:0:
321,167,135430,2,0,L|292:84,1,85
191,217,135730,2,0,P|259:269|347:277,1,170,0|8,0:0|0:0,0:0:0:0:
428,112,136330,2,0,P|360:60|272:52,1,170,0|8,0:0|0:0,0:0:0:0:
188,68,136780,1,0,0:0:0:0:
188,68,136855,1,0,0:0:0:0:
188,68,136930,6,0,L|132:132,1,85,4|0,0:0|0:0,0:0:0:0:
160,240,137230,2,0,L|216:176,1,85,0|0,0:0|0:0,0:0:0:0:
292,232,137530,2,0,P|276:316|206:352,1,170,8|0,0:0|0:0,0:0:0:0:
252,148,137980,2,0,P|296:144|340:168,1,85
392,288,138280,2,0,P|432:264|456:224,1,85
444,124,138580,1,0,0:0:0:0:
360,52,138730,2,0,P|316:40|268:48,1,85,8|0,0:0|0:0,0:0:0:0:
169,140,139030,2,0,P|213:152|251:147,1,85,8|0,0:0|0:0,0:0:0:0:
96,80,139330,6,0,P|64:160|80:248,1,170,4|0,0:0|0:0,0:0:0:0:
128,320,139780,1,0,0:0:0:0:
156,340,139855,1,0,0:0:0:0:
188,352,139930,2,0,P|240:356|288:336,1,85,8|0,0:0|0:0,0:0:0:0:
294,175,140230,2,0,L|256:252,1,85
224,116,140530,2,0,L|320:100,1,85
340,237,140830,2,0,L|256:250,1,85,8|0,0:0|0:0,0:0:0:0:
140,136,141130,2,0,B|140:80|168:52|168:52|248:20,1,170,0|8,0:0|0:0,0:0:0:0:
324,64,141580,1,0,0:0:0:0:
348,88,141655,1,0,0:0:0:0:
372,112,141730,6,0,P|392:152|396:192,1,85,4|0,0:0|0:0,0:0:0:0:
332,284,142030,1,0,0:0:0:0:
240,224,142180,1,0,0:0:0:0:
241,85,142330,2,0,L|324:64,1,85,8|0,0:0|0:0,0:0:0:0:
432,84,142630,1,0,0:0:0:0:
488,180,142780,1,0,0:0:0:0:
396,240,142930,6,0,L|304:272,1,85,8|0,0:0|0:0,0:0:0:0:
284,356,143230,1,0,0:0:0:0:
240,224,143380,1,0,0:0:0:0:
240,224,143455,1,0,0:0:0:0:
240,224,143530,1,0,0:0:0:0:
156,308,143680,1,0,0:0:0:0:
80,220,143830,2,0,P|72:172|80:120,1,85,8|8,0:0|0:0,0:0:0:0:
180,40,144130,6,0,P|200:116|176:220,1,170,4|0,0:0|0:0,0:0:0:0:
272,124,144580,2,0,L|361:112,1,85,0|8,0:0|0:0,0:0:0:0:
352,228,144880,1,0,0:0:0:0:
296,304,145030,1,0,0:0:0:0:
204,312,145180,1,0,0:0:0:0:
96,220,145330,2,0,P|116:156|176:112,1,127.5
208,112,145630,2,0,L|296:116,1,85
323,211,145930,2,0,L|380:148,1,85
380,288,146230,1,8,0:0:0:0:
408,268,146305,1,0,0:0:0:0:
432,244,146380,1,0,0:0:0:0:
448,216,146455,1,0,0:0:0:0:
460,184,146530,1,4,0:0:0:0:
262,263,146830,6,0,L|217:351,1,85
189,211,147130,2,0,P|208:160|236:136,1,85,8|0,0:0|0:0,0:0:0:0:
323,211,147430,2,0,P|304:262|276:286,1,85
100,204,147730,2,0,P|112:160|140:116,1,85
268,160,148030,2,0,P|312:148|352:120,1,85
416,248,148330,2,0,P|396:280|344:320,1,85
328,320,148555,1,0,0:0:0:0:
296,324,148630,2,0,P|256:324|208:304,1,85
188,172,148930,6,0,P|112:216|80:304,1,170,4|0,0:0|0:0,0:0:0:0:
220,248,149380,2,0,P|212:208|188:172,1,85,0|8,0:0|0:0,0:0:0:0:
48,212,149680,2,0,P|57:253|81:289,1,85
168,328,149980,1,0,0:0:0:0:
300,232,150130,2,0,P|288:184|272:148,1,85
172,56,150430,2,0,P|128:64|80:96,1,85
39,241,150730,2,0,P|124:216|160:148,1,170,8|0,0:0|0:0,0:0:0:0:
232,208,151180,1,0,0:0:0:0:
232,208,151255,1,0,0:0:0:0:
232,208,151330,6,0,L|256:308,1,85,4|0,0:0|0:0,0:0:0:0:
179,354,151630,2,0,L|160:272,1,85
328,236,151930,2,0,L|347:318,1,85,8|0,0:0|0:0,0:0:0:0:
240,128,152230,2,0,L|316:72,1,85
384,193,152530,2,0,P|312:232|232:208,1,170
136,160,152980,1,0,0:0:0:0:
120,136,153055,1,0,0:0:0:0:
112,108,153130,2,0,P|112:64|148:32,1,85
152,252,153430,2,0,P|136:288|96:320,1,85,8|0,0:0|0:0,0:0:0:0:
240,340,153730,6,0,B|324:332|360:264|360:264|324:152,1,255,4|0,0:0|0:0,0:0:0:0:
256,40,154330,2,0,L|256:140,1,85,2|0,0:0|0:0,0:0:0:0:
164,152,154630,2,0,L|144:60,1,85,0|0,0:0|0:0,0:0:0:0:
366,68,154930,2,0,L|348:152,1,85,2|0,0:0|0:0,0:0:0:0:
324,240,155230,1,0,0:0:0:0:
256,308,155380,1,0,0:0:0:0:
164,284,155530,5,0,0:0:0:0:
144,264,155605,1,0,0:0:0:0:
132,236,155680,1,0,0:0:0:0:
128,208,155755,1,0,0:0:0:0:
124,180,155830,2,0,B|140:120|216:116|244:36,1,170,0|4,0:0|0:0,0:0:0:0:
256,192,156205,12,4,158530,0:0:0:0:
