osu file format v12

[General]
AudioFilename: Catastrophe.mp3
AudioLeadIn: 0
PreviewTime: -1
Countdown: 1
SampleSet: Soft
StackLeniency: 0.7
Mode: 3
LetterboxInBreaks: 1
SpecialStyle: 0
WidescreenStoryboard: 1

[Editor]
DistanceSpacing: 1.1
BeatDivisor: 4
GridSize: 4

[Metadata]
Title:Catastrophe
TitleUnicode:Catastrophe
Artist:MuryokuP
ArtistUnicode:無力P
Creator:Entozer
Version:Insane
Source:
Tags:
BeatmapID:284390
BeatmapSetID:108862

[Difficulty]
HPDrainRate:7
CircleSize:7
OverallDifficulty:8
ApproachRate:5
SliderMultiplier:1.4
SliderTickRate:1

[Events]
//Background and Video events
0,0,"bg3.jpg",0,0
//Break Periods
//Storyboard Layer 0 (Background)
//Storyboard Layer 1 (Fail)
//Storyboard Layer 2 (Pass)
//Storyboard Layer 3 (Foreground)
//Storyboard Sound Samples
//Background Colour Transformations
3,100,163,162,255

[TimingPoints]
130,300,4,2,0,60,1,0
110080,-100,4,2,0,30,0,0
110230,-100,4,2,0,40,0,0
110530,-100,4,2,0,60,0,0
114130,-100,4,2,0,40,0,0
114730,-100,4,2,0,50,0,0
115330,-100,4,2,0,60,0,0
156130,-100,4,2,0,30,0,0

[HitObjects]
256,192,130,1,0,0:0:0:0:
109,192,130,1,0,0:0:0:0:
402,192,130,1,0,0:0:0:0:
329,192,430,1,0,0:0:0:0:
182,192,580,1,0,0:0:0:0:
256,192,730,1,0,0:0:0:0:
402,192,730,1,0,0:0:0:0:
36,192,1030,1,0,3:0:0:0:
329,192,1330,1,0,0:0:0:0:
182,192,1480,1,0,0:0:0:0:
329,192,1630,1,0,0:0:0:0:
182,192,1780,1,0,0:0:0:0:
475,192,1930,1,0,0:0:0:0:
329,192,2230,1,0,0:0:0:0:
182,192,2380,1,0,0:0:0:0:
36,192,2530,1,0,0:0:0:0:
329,192,2830,1,0,0:0:0:0:
182,192,2980,1,0,0:0:0:0:
329,192,3130,1,0,0:0:0:0:
182,192,3280,1,0,0:0:0:0:
329,192,3430,1,0,0:0:0:0:
182,192,3730,1,0,0:0:0:0:
329,192,3880,1,0,0:0:0:0:
182,192,4030,1,0,0:0:0:0:
329,192,4180,1,0,0:0:0:0:
182,192,4330,1,0,0:0:0:0:
475,192,4630,1,0,0:0:0:0:
475,192,4780,1,0,0:0:0:0:
109,192,4930,1,0,0:0:0:0:
256,192,4930,1,0,0:0:0:0:
329,192,5230,1,0,0:0:0:0:
182,192,5380,1,0,0:0:0:0:
256,192,5530,1,0,0:0:0:0:
402,192,5530,1,0,0:0:0:0:
36,192,5830,1,0,0:0:0:0:
329,192,6130,1,0,0:0:0:0:
182,192,6280,1,0,0:0:0:0:
329,192,6430,1,0,0:0:0:0:
182,192,6580,1,0,0:0:0:0:
475,192,6730,1,0,0:0:0:0:
329,192,7030,1,0,0:0:0:0:
182,192,7180,1,0,0:0:0:0:
36,192,7330,1,0,0:0:0:0:
329,192,7630,1,0,0:0:0:0:
182,192,7780,1,0,0:0:0:0:
329,192,7930,1,0,0:0:0:0:
182,192,8080,1,0,0:0:0:0:
329,192,8230,1,0,0:0:0:0:
182,192,8530,1,0,0:0:0:0:
329,192,8680,1,0,0:0:0:0:
182,192,8830,1,0,0:0:0:0:
329,192,8980,1,0,0:0:0:0:
36,192,9130,1,0,1:0:0:0:
182,192,9205,1,0,1:0:0:0:
36,192,9280,1,0,1:0:0:0:
182,192,9355,1,0,1:0:0:0:
475,192,9430,1,0,1:0:0:0:
329,192,9505,1,0,1:0:0:0:
475,192,9580,1,0,1:0:0:0:
329,192,9655,1,0,1:0:0:0:
109,192,9730,1,0,0:0:0:0:
256,192,9730,1,0,0:0:0:0:
402,192,9730,1,0,0:0:0:0:
109,192,12130,1,0,0:0:0:0:
256,192,12130,1,0,0:0:0:0:
402,192,12130,1,0,0:0:0:0:
256,192,14530,1,0,0:0:0:0:
109,192,14530,128,0,19330:0:0:0:0:
402,192,14530,128,0,19330:0:0:0:0:
475,192,14530,1,4,0:0:0:0:
256,192,14830,1,0,0:0:0:0:
256,192,15130,1,0,0:0:0:0:
475,192,15130,1,4,0:0:0:0:
256,192,15430,1,0,0:0:0:0:
475,192,15730,1,4,0:0:0:0:
256,192,15730,1,0,0:0:0:0:
256,192,16030,1,0,0:0:0:0:
475,192,16330,1,4,0:0:0:0:
256,192,16330,1,0,0:0:0:0:
256,192,16630,1,0,0:0:0:0:
475,192,16930,1,4,0:0:0:0:
36,192,16930,1,4,0:0:0:0:
256,192,16930,1,0,0:0:0:0:
36,192,17230,1,4,0:0:0:0:
256,192,17230,1,0,0:0:0:0:
36,192,17530,1,4,0:0:0:0:
256,192,17530,1,0,0:0:0:0:
36,192,17830,1,4,0:0:0:0:
256,192,17830,1,0,0:0:0:0:
36,192,18130,1,4,0:0:0:0:
329,192,18130,1,0,1:0:0:0:
182,192,18205,1,0,1:0:0:0:
329,192,18280,1,0,1:0:0:0:
182,192,18355,1,0,1:0:0:0:
329,192,18430,1,0,1:0:0:0:
182,192,18505,1,0,1:0:0:0:
329,192,18580,1,0,1:0:0:0:
182,192,18655,1,0,1:0:0:0:
329,192,18730,1,0,1:0:0:0:
182,192,18805,1,0,1:0:0:0:
329,192,18880,1,0,1:0:0:0:
182,192,18955,1,0,1:0:0:0:
329,192,19030,1,0,1:0:0:0:
182,192,19105,1,0,1:0:0:0:
329,192,19180,1,0,1:0:0:0:
182,192,19255,1,0,1:0:0:0:
36,192,19330,1,0,0:0:0:0:
256,192,19330,1,0,0:0:0:0:
475,192,19330,1,0,0:0:0:0:
329,192,19330,1,0,0:0:0:0:
402,192,19480,1,0,0:0:0:0:
475,192,19630,1,0,0:0:0:0:
109,192,19630,1,0,1:0:0:0:
182,192,19630,1,0,0:0:0:0:
329,192,19780,1,0,0:0:0:0:
36,192,19930,1,0,0:0:0:0:
475,192,19930,1,0,0:0:0:0:
402,192,20080,1,0,0:0:0:0:
36,192,20080,1,0,0:0:0:0:
329,192,20230,1,0,0:0:0:0:
109,192,20230,1,0,1:0:0:0:
182,192,20230,1,0,0:0:0:0:
402,192,20380,1,0,0:0:0:0:
36,192,20380,1,0,0:0:0:0:
256,192,20530,1,0,0:0:0:0:
329,192,20680,1,0,0:0:0:0:
36,192,20680,1,0,0:0:0:0:
402,192,20830,1,0,0:0:0:0:
109,192,20830,1,0,1:0:0:0:
182,192,20830,1,0,0:0:0:0:
256,192,20980,1,0,0:0:0:0:
109,192,20980,1,0,1:0:0:0:
182,192,20980,1,0,0:0:0:0:
329,192,21130,1,0,0:0:0:0:
36,192,21130,1,0,0:0:0:0:
256,192,21280,1,0,0:0:0:0:
36,192,21280,1,0,0:0:0:0:
402,192,21430,1,0,0:0:0:0:
109,192,21430,1,0,1:0:0:0:
182,192,21430,1,0,0:0:0:0:
329,192,21580,1,0,0:0:0:0:
475,192,21730,1,0,0:0:0:0:
36,192,21730,1,0,0:0:0:0:
329,192,21880,1,0,0:0:0:0:
329,192,22030,1,0,0:0:0:0:
109,192,22030,1,0,1:0:0:0:
182,192,22030,1,0,0:0:0:0:
402,192,22180,1,0,0:0:0:0:
256,192,22330,1,0,0:0:0:0:
36,192,22330,1,0,0:0:0:0:
256,192,22480,1,0,0:0:0:0:
36,192,22480,1,0,0:0:0:0:
329,192,22630,1,0,0:0:0:0:
109,192,22630,1,0,1:0:0:0:
182,192,22630,1,0,0:0:0:0:
475,192,22780,1,0,0:0:0:0:
36,192,22780,1,0,0:0:0:0:
402,192,23080,1,0,0:0:0:0:
36,192,23080,1,0,0:0:0:0:
329,192,23230,1,0,0:0:0:0:
109,192,23230,1,0,1:0:0:0:
182,192,23230,1,0,0:0:0:0:
402,192,23380,1,0,0:0:0:0:
36,192,23380,1,0,0:0:0:0:
475,192,23530,1,0,0:0:0:0:
182,192,23530,1,0,1:0:0:0:
36,192,23605,1,0,1:0:0:0:
402,192,23680,1,0,0:0:0:0:
182,192,23680,1,0,1:0:0:0:
36,192,23755,1,0,1:0:0:0:
329,192,23830,1,0,0:0:0:0:
182,192,23830,1,0,1:0:0:0:
36,192,23905,1,0,1:0:0:0:
256,192,23980,1,0,0:0:0:0:
182,192,23980,1,0,1:0:0:0:
36,192,24055,1,0,1:0:0:0:
182,192,24130,1,0,0:0:0:0:
329,192,24130,1,0,0:0:0:0:
402,192,24280,1,0,0:0:0:0:
475,192,24430,1,0,0:0:0:0:
109,192,24430,1,0,1:0:0:0:
182,192,24430,1,0,0:0:0:0:
329,192,24580,1,0,0:0:0:0:
402,192,24730,1,0,0:0:0:0:
36,192,24730,1,0,0:0:0:0:
256,192,24880,1,0,0:0:0:0:
36,192,24880,1,0,0:0:0:0:
329,192,25030,1,0,0:0:0:0:
109,192,25030,1,0,1:0:0:0:
182,192,25030,1,0,0:0:0:0:
402,192,25180,1,0,0:0:0:0:
36,192,25180,1,0,0:0:0:0:
256,192,25330,1,0,0:0:0:0:
402,192,25480,1,0,0:0:0:0:
36,192,25480,1,0,0:0:0:0:
402,192,25630,1,0,0:0:0:0:
109,192,25630,1,0,1:0:0:0:
182,192,25630,1,0,0:0:0:0:
329,192,25780,1,0,0:0:0:0:
109,192,25780,1,0,1:0:0:0:
182,192,25780,1,0,0:0:0:0:
402,192,25930,1,0,0:0:0:0:
36,192,25930,1,0,0:0:0:0:
329,192,26080,1,0,0:0:0:0:
36,192,26080,1,0,0:0:0:0:
475,192,26230,1,0,0:0:0:0:
109,192,26230,1,0,1:0:0:0:
182,192,26230,1,0,0:0:0:0:
329,192,26380,1,0,0:0:0:0:
182,192,26380,1,0,0:0:0:0:
109,192,26380,1,0,1:0:0:0:
475,192,26530,128,0,26980:0:0:0:0:
109,192,26530,1,0,1:0:0:0:
402,192,26530,1,0,1:0:0:0:
329,192,26680,128,0,26980:0:0:0:0:
182,192,26830,128,0,26980:0:0:0:0:
36,192,26980,128,0,27430:0:0:0:0:
109,192,26980,1,0,1:0:0:0:
402,192,26980,1,0,1:0:0:0:
182,192,27130,128,0,27430:0:0:0:0:
329,192,27280,128,0,27430:0:0:0:0:
475,192,27430,128,0,27880:0:0:0:0:
109,192,27430,1,0,1:0:0:0:
402,192,27430,1,0,1:0:0:0:
329,192,27580,128,0,27880:0:0:0:0:
182,192,27730,128,0,27880:0:0:0:0:
36,192,27880,128,0,28330:0:0:0:0:
402,192,27880,1,0,1:0:0:0:
109,192,27880,1,0,1:0:0:0:
182,192,28030,128,0,28330:0:0:0:0:
329,192,28180,128,0,28330:0:0:0:0:
475,192,28330,128,0,28405:0:0:0:0:
329,192,28405,128,0,28480:0:0:0:0:
182,192,28480,128,0,28555:0:0:0:0:
36,192,28555,128,0,28630:0:0:0:0:
475,192,28630,128,0,28705:0:0:0:0:
329,192,28705,128,0,28780:0:0:0:0:
182,192,28780,128,0,28855:0:0:0:0:
36,192,28855,128,0,28930:0:0:0:0:
182,192,28930,1,0,0:0:0:0:
475,192,28930,1,0,0:0:0:0:
256,192,28930,1,0,0:0:0:0:
109,192,29080,1,0,0:0:0:0:
36,192,29230,1,0,0:0:0:0:
329,192,29230,1,0,0:0:0:0:
402,192,29230,1,0,1:0:0:0:
182,192,29380,1,0,0:0:0:0:
36,192,29530,1,0,0:0:0:0:
475,192,29530,1,0,0:0:0:0:
182,192,29680,1,0,0:0:0:0:
475,192,29680,1,0,0:0:0:0:
256,192,29830,1,0,0:0:0:0:
402,192,29830,1,0,1:0:0:0:
329,192,29830,1,0,0:0:0:0:
36,192,29980,1,0,0:0:0:0:
475,192,29980,1,0,0:0:0:0:
109,192,30130,1,0,0:0:0:0:
182,192,30280,1,0,0:0:0:0:
475,192,30280,1,0,0:0:0:0:
109,192,30430,1,0,0:0:0:0:
402,192,30430,1,0,1:0:0:0:
329,192,30430,1,0,0:0:0:0:
256,192,30580,1,0,0:0:0:0:
402,192,30580,1,0,1:0:0:0:
329,192,30580,1,0,0:0:0:0:
182,192,30730,1,0,0:0:0:0:
475,192,30730,1,0,0:0:0:0:
256,192,30880,1,0,0:0:0:0:
475,192,30880,1,0,0:0:0:0:
36,192,31030,1,0,0:0:0:0:
402,192,31030,1,0,1:0:0:0:
329,192,31030,1,0,0:0:0:0:
182,192,31180,1,0,0:0:0:0:
109,192,31330,1,0,0:0:0:0:
475,192,31330,1,0,0:0:0:0:
182,192,31480,1,0,0:0:0:0:
182,192,31630,1,0,0:0:0:0:
329,192,31630,1,0,0:0:0:0:
402,192,31630,1,0,1:0:0:0:
109,192,31780,1,0,0:0:0:0:
256,192,31930,1,0,0:0:0:0:
475,192,31930,1,0,0:0:0:0:
256,192,32080,1,0,0:0:0:0:
475,192,32080,1,0,0:0:0:0:
182,192,32230,1,0,0:0:0:0:
402,192,32230,1,0,1:0:0:0:
329,192,32230,1,0,0:0:0:0:
36,192,32380,1,0,0:0:0:0:
475,192,32380,1,0,0:0:0:0:
109,192,32680,1,0,0:0:0:0:
475,192,32680,1,0,0:0:0:0:
182,192,32830,1,0,0:0:0:0:
329,192,32830,1,0,0:0:0:0:
402,192,32830,1,0,1:0:0:0:
109,192,32980,1,0,0:0:0:0:
475,192,32980,1,0,0:0:0:0:
36,192,33130,1,0,0:0:0:0:
329,192,33130,1,0,1:0:0:0:
475,192,33205,1,0,1:0:0:0:
109,192,33280,1,0,0:0:0:0:
329,192,33280,1,0,1:0:0:0:
475,192,33355,1,0,1:0:0:0:
182,192,33430,1,0,0:0:0:0:
329,192,33430,1,0,1:0:0:0:
475,192,33505,1,0,1:0:0:0:
256,192,33580,1,0,0:0:0:0:
329,192,33580,1,0,1:0:0:0:
475,192,33655,1,0,1:0:0:0:
182,192,33730,1,0,0:0:0:0:
329,192,33730,1,0,0:0:0:0:
109,192,33880,1,0,0:0:0:0:
36,192,34030,1,0,0:0:0:0:
329,192,34030,1,0,0:0:0:0:
402,192,34030,1,0,1:0:0:0:
182,192,34180,1,0,0:0:0:0:
109,192,34330,1,0,0:0:0:0:
475,192,34330,1,0,0:0:0:0:
182,192,34480,1,0,0:0:0:0:
475,192,34480,1,0,0:0:0:0:
256,192,34630,1,0,0:0:0:0:
402,192,34630,1,0,1:0:0:0:
329,192,34630,1,0,0:0:0:0:
109,192,34780,1,0,0:0:0:0:
475,192,34780,1,0,0:0:0:0:
182,192,34930,1,0,0:0:0:0:
256,192,35080,1,0,0:0:0:0:
475,192,35080,1,0,0:0:0:0:
182,192,35230,1,0,0:0:0:0:
402,192,35230,1,0,1:0:0:0:
329,192,35230,1,0,0:0:0:0:
256,192,35380,1,0,0:0:0:0:
402,192,35380,1,0,1:0:0:0:
329,192,35380,1,0,0:0:0:0:
109,192,35530,1,0,0:0:0:0:
475,192,35530,1,0,0:0:0:0:
182,192,35680,1,0,0:0:0:0:
475,192,35680,1,0,0:0:0:0:
36,192,35830,1,0,0:0:0:0:
402,192,35830,1,0,1:0:0:0:
329,192,35830,1,0,0:0:0:0:
182,192,35980,1,0,0:0:0:0:
402,192,35980,1,0,1:0:0:0:
329,192,35980,1,0,0:0:0:0:
36,192,36130,128,0,36580:0:0:0:0:
109,192,36130,1,0,1:0:0:0:
402,192,36130,1,0,1:0:0:0:
182,192,36280,128,0,36580:0:0:0:0:
329,192,36430,128,0,36580:0:0:0:0:
475,192,36580,128,0,37030:0:0:0:0:
402,192,36580,1,0,1:0:0:0:
109,192,36580,1,0,1:0:0:0:
329,192,36730,128,0,37030:0:0:0:0:
182,192,36880,128,0,37030:0:0:0:0:
36,192,37030,128,0,37480:0:0:0:0:
109,192,37030,1,0,1:0:0:0:
402,192,37030,1,0,1:0:0:0:
182,192,37180,128,0,37480:0:0:0:0:
329,192,37330,128,0,37480:0:0:0:0:
475,192,37480,128,0,37930:0:0:0:0:
402,192,37480,1,0,1:0:0:0:
109,192,37480,1,0,1:0:0:0:
329,192,37630,128,0,37930:0:0:0:0:
182,192,37780,128,0,37930:0:0:0:0:
36,192,37930,1,0,0:0:0:0:
109,192,38005,1,0,0:0:0:0:
182,192,38080,1,0,0:0:0:0:
256,192,38155,1,0,0:0:0:0:
329,192,38230,1,0,0:0:0:0:
402,192,38305,1,0,0:0:0:0:
329,192,38380,1,0,0:0:0:0:
402,192,38455,1,0,0:0:0:0:
475,192,38530,1,0,0:0:0:0:
256,192,38530,1,0,0:0:0:0:
36,192,38530,1,0,0:0:0:0:
182,192,38830,1,0,0:0:0:0:
329,192,38830,1,0,0:0:0:0:
256,192,39130,1,0,0:0:0:0:
182,192,39280,1,0,0:0:0:0:
109,192,39430,1,0,0:0:0:0:
329,192,39580,1,0,0:0:0:0:
182,192,39880,1,0,0:0:0:0:
109,192,40030,1,0,0:0:0:0:
36,192,40030,1,0,0:0:0:0:
182,192,40180,1,0,0:0:0:0:
402,192,40480,1,0,0:0:0:0:
329,192,40630,1,0,0:0:0:0:
109,192,41080,1,0,0:0:0:0:
36,192,41230,1,0,0:0:0:0:
182,192,41230,1,0,0:0:0:0:
109,192,41530,1,0,0:0:0:0:
256,192,41530,1,0,0:0:0:0:
182,192,41680,1,0,0:0:0:0:
329,192,41755,1,0,0:0:0:0:
256,192,41755,1,0,0:0:0:0:
256,192,41980,1,0,0:0:0:0:
402,192,41980,1,0,0:0:0:0:
329,192,42205,1,0,0:0:0:0:
475,192,42205,1,0,0:0:0:0:
402,192,42430,1,0,0:0:0:0:
475,192,42430,1,0,0:0:0:0:
402,192,42580,1,0,0:0:0:0:
182,192,42580,1,0,0:0:0:0:
109,192,42655,128,0,43330:0:0:0:0:
329,192,42655,128,0,43330:0:0:0:0:
182,192,43330,1,0,0:0:0:0:
402,192,43480,1,0,0:0:0:0:
109,192,43630,1,0,0:0:0:0:
329,192,43630,1,0,0:0:0:0:
182,192,43780,1,0,0:0:0:0:
402,192,43780,1,0,0:0:0:0:
475,192,44080,1,0,0:0:0:0:
256,192,44080,1,0,0:0:0:0:
402,192,44230,1,0,0:0:0:0:
182,192,44230,1,0,0:0:0:0:
329,192,44380,1,0,0:0:0:0:
256,192,44680,1,0,0:0:0:0:
36,192,44680,1,0,0:0:0:0:
36,192,44980,128,0,45430:0:0:0:0:
36,192,45730,1,0,0:0:0:0:
182,192,45730,1,0,0:0:0:0:
256,192,45730,1,0,0:0:0:0:
109,192,46180,1,0,0:0:0:0:
256,192,46180,1,0,0:0:0:0:
329,192,46180,1,0,0:0:0:0:
182,192,46630,1,0,0:0:0:0:
256,192,46630,1,0,0:0:0:0:
402,192,46630,1,0,0:0:0:0:
256,192,47080,1,0,0:0:0:0:
329,192,47080,1,0,0:0:0:0:
475,192,47080,1,0,0:0:0:0:
109,192,47230,1,0,0:0:0:0:
402,192,47380,1,0,0:0:0:0:
329,192,47530,1,0,0:0:0:0:
402,192,47605,1,0,0:0:0:0:
475,192,47680,1,0,0:0:0:0:
402,192,47755,1,0,0:0:0:0:
329,192,47830,1,0,0:0:0:0:
256,192,47905,1,0,0:0:0:0:
182,192,47980,1,0,0:0:0:0:
109,192,48055,1,0,0:0:0:0:
36,192,48130,1,0,0:0:0:0:
329,192,48430,1,0,0:0:0:0:
182,192,48430,1,0,0:0:0:0:
329,192,48730,1,0,0:0:0:0:
182,192,48730,1,0,0:0:0:0:
109,192,48880,1,0,0:0:0:0:
36,192,49030,1,0,0:0:0:0:
256,192,49180,1,0,0:0:0:0:
182,192,49480,1,0,0:0:0:0:
109,192,49630,1,0,0:0:0:0:
36,192,49630,1,0,0:0:0:0:
256,192,49780,1,0,0:0:0:0:
402,192,49780,1,0,0:0:0:0:
329,192,50080,1,0,0:0:0:0:
109,192,50230,1,0,0:0:0:0:
109,192,50680,1,0,0:0:0:0:
256,192,50680,1,0,0:0:0:0:
182,192,50830,1,0,0:0:0:0:
329,192,50830,1,0,0:0:0:0:
182,192,51130,1,0,0:0:0:0:
329,192,51130,1,0,0:0:0:0:
402,192,51280,1,0,0:0:0:0:
329,192,51355,1,0,0:0:0:0:
475,192,51355,1,0,0:0:0:0:
109,192,51580,1,0,0:0:0:0:
256,192,51580,1,0,0:0:0:0:
182,192,51805,1,0,0:0:0:0:
329,192,51805,1,0,0:0:0:0:
256,192,52030,1,0,0:0:0:0:
402,192,52030,1,0,0:0:0:0:
402,192,52180,1,0,0:0:0:0:
475,192,52255,1,0,0:0:0:0:
329,192,52255,1,0,0:0:0:0:
329,192,52480,1,0,0:0:0:0:
475,192,52480,1,0,0:0:0:0:
182,192,52630,1,0,0:0:0:0:
36,192,52630,1,0,0:0:0:0:
329,192,52780,1,0,0:0:0:0:
475,192,52780,1,0,0:0:0:0:
109,192,52930,1,0,0:0:0:0:
402,192,52930,1,0,0:0:0:0:
36,192,52930,128,0,53230:0:0:0:0:
36,192,53530,128,0,53830:0:0:0:0:
36,192,54130,128,0,54430:0:0:0:0:
329,192,54130,1,0,0:0:0:0:
402,192,54580,1,0,0:0:0:0:
182,192,54580,1,0,0:0:0:0:
36,192,54730,128,0,55030:0:0:0:0:
329,192,55030,1,0,0:0:0:0:
475,192,55330,128,0,55630:0:0:0:0:
256,192,55330,1,0,0:0:0:0:
36,192,55330,1,0,0:0:0:0:
109,192,55630,1,0,0:0:0:0:
182,192,55780,1,0,0:0:0:0:
475,192,55930,128,0,56230:0:0:0:0:
256,192,56230,1,0,0:0:0:0:
475,192,56530,128,0,56830:0:0:0:0:
329,192,56680,1,0,0:0:0:0:
475,192,57130,128,0,57430:0:0:0:0:
329,192,57130,1,0,0:0:0:0:
402,192,57205,1,0,0:0:0:0:
329,192,57280,1,0,0:0:0:0:
256,192,57355,1,0,0:0:0:0:
182,192,57430,1,0,0:0:0:0:
109,192,57505,1,0,0:0:0:0:
36,192,57580,1,0,0:0:0:0:
109,192,57655,1,0,0:0:0:0:
182,192,57730,1,0,0:0:0:0:
329,192,57730,1,0,0:0:0:0:
475,192,57730,1,0,0:0:0:0:
402,192,57880,1,0,0:0:0:0:
329,192,58030,1,0,0:0:0:0:
475,192,58330,1,0,0:0:0:0:
402,192,58480,1,0,0:0:0:0:
329,192,58630,1,0,0:0:0:0:
475,192,58930,1,0,0:0:0:0:
402,192,59080,1,0,0:0:0:0:
329,192,59230,1,0,0:0:0:0:
475,192,59530,1,0,0:0:0:0:
402,192,59680,1,0,0:0:0:0:
329,192,59830,1,0,0:0:0:0:
475,192,60130,1,0,0:0:0:0:
402,192,60280,1,0,0:0:0:0:
329,192,60430,1,0,0:0:0:0:
475,192,60730,1,0,0:0:0:0:
402,192,60880,1,0,0:0:0:0:
329,192,61030,1,0,0:0:0:0:
475,192,61330,1,0,0:0:0:0:
402,192,61480,1,0,0:0:0:0:
329,192,61630,1,0,0:0:0:0:
475,192,61930,1,0,0:0:0:0:
402,192,62080,1,0,0:0:0:0:
329,192,62230,1,0,0:0:0:0:
182,192,62530,1,0,0:0:0:0:
109,192,62680,1,0,0:0:0:0:
36,192,62830,1,0,0:0:0:0:
182,192,63130,1,0,0:0:0:0:
109,192,63280,1,0,0:0:0:0:
36,192,63430,1,0,0:0:0:0:
182,192,63730,1,0,0:0:0:0:
109,192,63880,1,0,0:0:0:0:
36,192,64030,1,0,0:0:0:0:
182,192,64330,1,0,0:0:0:0:
109,192,64480,1,0,0:0:0:0:
36,192,64630,1,0,0:0:0:0:
182,192,64930,1,0,0:0:0:0:
109,192,65080,1,0,0:0:0:0:
36,192,65230,1,0,0:0:0:0:
182,192,65530,1,0,0:0:0:0:
109,192,65680,1,0,0:0:0:0:
36,192,65830,1,0,0:0:0:0:
182,192,66130,1,0,0:0:0:0:
109,192,66280,1,0,0:0:0:0:
36,192,66430,1,0,0:0:0:0:
182,192,66730,1,0,0:0:0:0:
109,192,66880,1,0,0:0:0:0:
36,192,67030,1,0,0:0:0:0:
329,192,67330,1,0,0:0:0:0:
256,192,67330,1,0,0:0:0:0:
402,192,67480,1,0,0:0:0:0:
475,192,67630,1,0,0:0:0:0:
182,192,67630,1,0,0:0:0:0:
109,192,67780,1,0,0:0:0:0:
329,192,67930,1,0,0:0:0:0:
402,192,68080,1,0,0:0:0:0:
109,192,68080,1,0,0:0:0:0:
475,192,68230,1,0,0:0:0:0:
182,192,68230,1,0,0:0:0:0:
329,192,68530,1,0,0:0:0:0:
256,192,68530,1,0,0:0:0:0:
402,192,68680,1,0,0:0:0:0:
475,192,68830,1,0,0:0:0:0:
182,192,68830,1,0,0:0:0:0:
36,192,68980,1,0,1:0:0:0:
329,192,69130,1,0,0:0:0:0:
402,192,69280,1,0,0:0:0:0:
109,192,69280,1,0,0:0:0:0:
475,192,69430,1,0,0:0:0:0:
182,192,69430,1,0,0:0:0:0:
109,192,69580,1,0,0:0:0:0:
329,192,69730,1,0,0:0:0:0:
256,192,69730,1,0,0:0:0:0:
402,192,69880,1,0,0:0:0:0:
256,192,69880,1,0,0:0:0:0:
475,192,70030,1,0,0:0:0:0:
109,192,70180,1,0,0:0:0:0:
329,192,70330,1,0,0:0:0:0:
402,192,70480,1,0,0:0:0:0:
475,192,70630,1,0,0:0:0:0:
182,192,70630,1,0,0:0:0:0:
329,192,70930,1,0,0:0:0:0:
256,192,70930,1,0,0:0:0:0:
402,192,71080,1,0,0:0:0:0:
475,192,71230,1,0,0:0:0:0:
36,192,71380,1,0,1:0:0:0:
329,192,71530,1,0,0:0:0:0:
402,192,71680,1,0,0:0:0:0:
36,192,71680,1,0,1:0:0:0:
475,192,71830,1,0,0:0:0:0:
109,192,71830,1,0,1:0:0:0:
36,192,72130,1,0,0:0:0:0:
402,192,72130,1,0,0:0:0:0:
109,192,72280,1,0,0:0:0:0:
182,192,72430,1,0,0:0:0:0:
402,192,72430,1,0,0:0:0:0:
109,192,72580,1,0,0:0:0:0:
36,192,72730,1,0,0:0:0:0:
402,192,72730,1,0,0:0:0:0:
109,192,72880,1,0,0:0:0:0:
182,192,73030,1,0,0:0:0:0:
402,192,73030,1,0,0:0:0:0:
109,192,73180,1,0,0:0:0:0:
36,192,73330,1,0,0:0:0:0:
402,192,73330,1,0,0:0:0:0:
109,192,73480,1,0,0:0:0:0:
182,192,73630,1,0,0:0:0:0:
402,192,73630,1,0,0:0:0:0:
109,192,73780,1,0,0:0:0:0:
36,192,73930,1,0,0:0:0:0:
402,192,73930,1,0,0:0:0:0:
109,192,74080,1,0,0:0:0:0:
182,192,74230,1,0,0:0:0:0:
329,192,74230,1,0,1:0:0:0:
475,192,74305,1,0,1:0:0:0:
109,192,74380,1,0,0:0:0:0:
329,192,74380,1,0,1:0:0:0:
475,192,74455,1,0,1:0:0:0:
36,192,74530,128,0,74830:0:0:0:0:
402,192,74530,1,0,0:0:0:0:
402,192,74680,1,0,0:0:0:0:
475,192,74830,128,0,75130:0:0:0:0:
109,192,74980,1,0,0:0:0:0:
182,192,75055,1,0,0:0:0:0:
36,192,75130,128,0,75430:0:0:0:0:
256,192,75130,1,0,1:0:0:0:
329,192,75130,1,0,0:0:0:0:
109,192,75280,1,0,0:0:0:0:
256,192,75430,1,0,1:0:0:0:
402,192,75430,1,0,0:0:0:0:
475,192,75430,128,0,75730:0:0:0:0:
109,192,75580,1,0,0:0:0:0:
36,192,75730,128,0,76930:0:0:0:0:
402,192,75730,1,0,1:0:0:0:
329,192,75880,1,0,0:0:0:0:
256,192,76030,1,0,1:0:0:0:
182,192,76180,1,0,0:0:0:0:
475,192,76330,128,0,76930:0:0:0:0:
109,192,76330,1,0,1:0:0:0:
329,192,76405,1,0,1:0:0:0:
182,192,76480,1,0,1:0:0:0:
402,192,76555,1,0,1:0:0:0:
109,192,76630,1,0,1:0:0:0:
329,192,76705,1,0,1:0:0:0:
182,192,76780,1,0,1:0:0:0:
402,192,76855,1,0,1:0:0:0:
182,192,76930,1,0,0:0:0:0:
329,192,76930,1,0,0:0:0:0:
256,192,76930,1,0,0:0:0:0:
182,192,77230,1,0,0:0:0:0:
109,192,77230,1,0,1:0:0:0:
402,192,77530,1,0,0:0:0:0:
36,192,77530,1,0,0:0:0:0:
329,192,77680,1,0,0:0:0:0:
36,192,77680,1,0,0:0:0:0:
256,192,77830,1,0,0:0:0:0:
109,192,77830,1,0,1:0:0:0:
182,192,77830,1,0,0:0:0:0:
402,192,77980,1,0,0:0:0:0:
36,192,77980,1,0,0:0:0:0:
329,192,78130,1,0,0:0:0:0:
402,192,78280,1,0,0:0:0:0:
36,192,78280,1,0,0:0:0:0:
402,192,78430,1,0,0:0:0:0:
109,192,78430,1,0,1:0:0:0:
182,192,78430,1,0,0:0:0:0:
329,192,78580,1,0,0:0:0:0:
109,192,78580,1,0,1:0:0:0:
182,192,78580,1,0,0:0:0:0:
475,192,78730,1,0,0:0:0:0:
36,192,78730,1,0,0:0:0:0:
256,192,78880,1,0,0:0:0:0:
36,192,78880,1,0,0:0:0:0:
402,192,79030,1,0,0:0:0:0:
109,192,79030,1,0,1:0:0:0:
182,192,79030,1,0,0:0:0:0:
329,192,79180,1,0,0:0:0:0:
256,192,79330,1,0,0:0:0:0:
36,192,79330,1,0,0:0:0:0:
329,192,79480,1,0,0:0:0:0:
329,192,79630,1,0,0:0:0:0:
109,192,79630,1,0,1:0:0:0:
182,192,79630,1,0,0:0:0:0:
402,192,79780,1,0,0:0:0:0:
329,192,79930,1,0,0:0:0:0:
36,192,79930,1,0,0:0:0:0:
329,192,80080,1,0,0:0:0:0:
36,192,80080,1,0,0:0:0:0:
402,192,80230,1,0,0:0:0:0:
109,192,80230,1,0,1:0:0:0:
182,192,80230,1,0,0:0:0:0:
475,192,80380,1,0,0:0:0:0:
36,192,80380,1,0,0:0:0:0:
256,192,80680,1,0,0:0:0:0:
36,192,80680,1,0,0:0:0:0:
329,192,80830,1,0,0:0:0:0:
109,192,80830,1,0,1:0:0:0:
182,192,80830,1,0,0:0:0:0:
402,192,80980,1,0,0:0:0:0:
36,192,80980,1,0,0:0:0:0:
475,192,81130,1,0,0:0:0:0:
182,192,81130,1,0,1:0:0:0:
36,192,81205,1,0,1:0:0:0:
402,192,81280,1,0,0:0:0:0:
182,192,81280,1,0,1:0:0:0:
36,192,81355,1,0,1:0:0:0:
329,192,81430,1,0,0:0:0:0:
182,192,81430,1,0,1:0:0:0:
36,192,81505,1,0,1:0:0:0:
256,192,81580,1,0,0:0:0:0:
182,192,81580,1,0,1:0:0:0:
36,192,81655,1,0,1:0:0:0:
329,192,81730,1,0,0:0:0:0:
182,192,81730,1,0,0:0:0:0:
402,192,81880,1,0,0:0:0:0:
402,192,82030,1,0,0:0:0:0:
109,192,82030,1,0,1:0:0:0:
182,192,82030,1,0,0:0:0:0:
256,192,82180,1,0,0:0:0:0:
402,192,82330,1,0,0:0:0:0:
36,192,82330,1,0,0:0:0:0:
329,192,82480,1,0,0:0:0:0:
36,192,82480,1,0,0:0:0:0:
256,192,82630,1,0,0:0:0:0:
109,192,82630,1,0,1:0:0:0:
182,192,82630,1,0,0:0:0:0:
475,192,82780,1,0,0:0:0:0:
36,192,82780,1,0,0:0:0:0:
329,192,82930,1,0,0:0:0:0:
402,192,83080,1,0,0:0:0:0:
36,192,83080,1,0,0:0:0:0:
402,192,83230,1,0,0:0:0:0:
109,192,83230,1,0,1:0:0:0:
182,192,83230,1,0,0:0:0:0:
256,192,83380,1,0,0:0:0:0:
182,192,83380,1,0,0:0:0:0:
109,192,83380,1,0,1:0:0:0:
402,192,83530,1,0,0:0:0:0:
36,192,83530,1,0,0:0:0:0:
329,192,83680,1,0,0:0:0:0:
36,192,83680,1,0,0:0:0:0:
475,192,83830,1,0,0:0:0:0:
109,192,83830,1,0,1:0:0:0:
182,192,83830,1,0,0:0:0:0:
329,192,83980,1,0,0:0:0:0:
109,192,83980,1,0,1:0:0:0:
182,192,83980,1,0,0:0:0:0:
402,192,84130,128,0,84580:0:0:0:0:
475,192,84130,1,0,1:0:0:0:
36,192,84130,1,0,1:0:0:0:
329,192,84280,128,0,84580:0:0:0:0:
182,192,84430,128,0,84580:0:0:0:0:
109,192,84580,128,0,85030:0:0:0:0:
475,192,84580,1,0,1:0:0:0:
36,192,84580,1,0,1:0:0:0:
182,192,84730,128,0,85030:0:0:0:0:
329,192,84880,128,0,85030:0:0:0:0:
475,192,85030,128,0,85480:0:0:0:0:
256,192,85030,1,0,1:0:0:0:
402,192,85030,1,0,1:0:0:0:
329,192,85180,128,0,85480:0:0:0:0:
182,192,85330,128,0,85480:0:0:0:0:
36,192,85480,128,0,85930:0:0:0:0:
256,192,85480,1,0,1:0:0:0:
109,192,85480,1,0,1:0:0:0:
182,192,85630,128,0,85930:0:0:0:0:
329,192,85780,128,0,85930:0:0:0:0:
256,192,85930,128,0,86530:0:0:0:0:
475,192,85930,1,0,1:0:0:0:
329,192,86005,1,0,1:0:0:0:
182,192,86080,1,0,1:0:0:0:
36,192,86155,1,0,1:0:0:0:
475,192,86230,1,0,1:0:0:0:
329,192,86305,1,0,1:0:0:0:
182,192,86380,1,0,1:0:0:0:
36,192,86455,1,0,1:0:0:0:
182,192,86530,1,0,0:0:0:0:
475,192,86530,1,0,0:0:0:0:
329,192,86530,1,0,0:0:0:0:
109,192,86680,1,0,0:0:0:0:
36,192,86830,1,0,0:0:0:0:
329,192,86830,1,0,0:0:0:0:
402,192,86830,1,0,1:0:0:0:
256,192,86980,1,0,0:0:0:0:
182,192,87130,1,0,0:0:0:0:
475,192,87130,1,0,0:0:0:0:
256,192,87280,1,0,0:0:0:0:
475,192,87280,1,0,0:0:0:0:
109,192,87430,1,0,0:0:0:0:
402,192,87430,1,0,1:0:0:0:
329,192,87430,1,0,0:0:0:0:
182,192,87580,1,0,0:0:0:0:
475,192,87580,1,0,0:0:0:0:
36,192,87730,1,0,0:0:0:0:
182,192,87880,1,0,0:0:0:0:
475,192,87880,1,0,0:0:0:0:
182,192,88030,1,0,0:0:0:0:
402,192,88030,1,0,1:0:0:0:
329,192,88030,1,0,0:0:0:0:
109,192,88180,1,0,0:0:0:0:
402,192,88180,1,0,1:0:0:0:
329,192,88180,1,0,0:0:0:0:
256,192,88330,1,0,0:0:0:0:
475,192,88330,1,0,0:0:0:0:
182,192,88480,1,0,0:0:0:0:
475,192,88480,1,0,0:0:0:0:
256,192,88630,1,0,0:0:0:0:
402,192,88630,1,0,1:0:0:0:
329,192,88630,1,0,0:0:0:0:
109,192,88780,1,0,0:0:0:0:
182,192,88930,1,0,0:0:0:0:
475,192,88930,1,0,0:0:0:0:
36,192,89080,1,0,0:0:0:0:
36,192,89230,1,0,0:0:0:0:
402,192,89230,1,0,1:0:0:0:
329,192,89230,1,0,0:0:0:0:
256,192,89380,1,0,0:0:0:0:
109,192,89530,1,0,0:0:0:0:
475,192,89530,1,0,0:0:0:0:
109,192,89680,1,0,0:0:0:0:
475,192,89680,1,0,0:0:0:0:
182,192,89830,1,0,0:0:0:0:
402,192,89830,1,0,1:0:0:0:
329,192,89830,1,0,0:0:0:0:
256,192,89980,1,0,0:0:0:0:
475,192,89980,1,0,0:0:0:0:
36,192,90280,1,0,0:0:0:0:
475,192,90280,1,0,0:0:0:0:
109,192,90430,1,0,0:0:0:0:
402,192,90430,1,0,1:0:0:0:
329,192,90430,1,0,0:0:0:0:
182,192,90580,1,0,0:0:0:0:
475,192,90580,1,0,0:0:0:0:
256,192,90730,1,0,0:0:0:0:
329,192,90730,1,0,1:0:0:0:
475,192,90805,1,0,1:0:0:0:
182,192,90880,1,0,0:0:0:0:
329,192,90880,1,0,1:0:0:0:
475,192,90955,1,0,1:0:0:0:
109,192,91030,1,0,0:0:0:0:
329,192,91030,1,0,1:0:0:0:
475,192,91105,1,0,1:0:0:0:
36,192,91180,1,0,0:0:0:0:
329,192,91180,1,0,1:0:0:0:
475,192,91255,1,0,1:0:0:0:
109,192,91330,1,0,0:0:0:0:
329,192,91330,1,0,0:0:0:0:
182,192,91480,1,0,0:0:0:0:
256,192,91630,1,0,0:0:0:0:
329,192,91630,1,0,0:0:0:0:
402,192,91630,1,0,1:0:0:0:
36,192,91780,1,0,0:0:0:0:
182,192,91930,1,0,0:0:0:0:
475,192,91930,1,0,0:0:0:0:
109,192,92080,1,0,0:0:0:0:
475,192,92080,1,0,0:0:0:0:
36,192,92230,1,0,0:0:0:0:
402,192,92230,1,0,1:0:0:0:
329,192,92230,1,0,0:0:0:0:
256,192,92380,1,0,0:0:0:0:
475,192,92380,1,0,0:0:0:0:
109,192,92530,1,0,0:0:0:0:
182,192,92680,1,0,0:0:0:0:
475,192,92680,1,0,0:0:0:0:
182,192,92830,1,0,0:0:0:0:
402,192,92830,1,0,1:0:0:0:
329,192,92830,1,0,0:0:0:0:
36,192,92980,1,0,0:0:0:0:
402,192,92980,1,0,1:0:0:0:
329,192,92980,1,0,0:0:0:0:
182,192,93130,1,0,0:0:0:0:
475,192,93130,1,0,0:0:0:0:
109,192,93280,1,0,0:0:0:0:
475,192,93280,1,0,0:0:0:0:
256,192,93430,1,0,0:0:0:0:
402,192,93430,1,0,1:0:0:0:
329,192,93430,1,0,0:0:0:0:
182,192,93580,1,0,0:0:0:0:
329,192,93580,1,0,0:0:0:0:
402,192,93580,1,0,1:0:0:0:
109,192,93730,128,0,94180:0:0:0:0:
36,192,93730,1,0,1:0:0:0:
475,192,93730,1,0,1:0:0:0:
182,192,93880,128,0,94180:0:0:0:0:
329,192,94030,128,0,94180:0:0:0:0:
402,192,94180,128,0,94630:0:0:0:0:
475,192,94180,1,0,1:0:0:0:
36,192,94180,1,0,1:0:0:0:
329,192,94330,128,0,94630:0:0:0:0:
182,192,94480,128,0,94630:0:0:0:0:
109,192,94630,128,0,95080:0:0:0:0:
36,192,94630,1,0,1:0:0:0:
475,192,94630,1,0,1:0:0:0:
182,192,94780,128,0,95080:0:0:0:0:
329,192,94930,128,0,95080:0:0:0:0:
402,192,95080,128,0,95530:0:0:0:0:
475,192,95080,1,0,1:0:0:0:
36,192,95080,1,0,1:0:0:0:
329,192,95230,128,0,95530:0:0:0:0:
182,192,95380,128,0,95530:0:0:0:0:
36,192,95530,1,0,1:0:0:0:
182,192,95605,1,0,1:0:0:0:
36,192,95680,1,0,1:0:0:0:
182,192,95755,1,0,1:0:0:0:
475,192,95830,1,0,1:0:0:0:
329,192,95905,1,0,1:0:0:0:
475,192,95980,1,0,1:0:0:0:
329,192,96055,1,0,1:0:0:0:
256,192,96130,1,0,0:0:0:0:
402,192,96130,1,0,0:0:0:0:
109,192,96130,128,0,96730:0:0:0:0:
182,192,96430,1,0,0:0:0:0:
36,192,96430,1,0,1:0:0:0:
182,192,96730,128,0,97330:0:0:0:0:
475,192,96730,1,0,0:0:0:0:
475,192,96880,1,0,0:0:0:0:
109,192,97030,1,0,0:0:0:0:
36,192,97030,1,0,1:0:0:0:
475,192,97180,1,0,0:0:0:0:
402,192,97330,128,0,97930:0:0:0:0:
475,192,97480,1,0,0:0:0:0:
109,192,97630,1,0,0:0:0:0:
36,192,97630,1,0,1:0:0:0:
36,192,97780,1,0,1:0:0:0:
109,192,97780,1,0,0:0:0:0:
329,192,97930,128,0,98530:0:0:0:0:
475,192,97930,1,0,0:0:0:0:
475,192,98080,1,0,0:0:0:0:
109,192,98230,1,0,0:0:0:0:
36,192,98230,1,0,1:0:0:0:
475,192,98530,128,0,99130:0:0:0:0:
402,192,98530,1,0,0:0:0:0:
109,192,98830,1,0,0:0:0:0:
36,192,98830,1,0,1:0:0:0:
182,192,99130,128,0,99730:0:0:0:0:
402,192,99130,1,0,0:0:0:0:
402,192,99280,1,0,0:0:0:0:
109,192,99430,1,0,0:0:0:0:
36,192,99430,1,0,1:0:0:0:
402,192,99580,1,0,0:0:0:0:
329,192,99730,128,0,100330:0:0:0:0:
402,192,99880,1,0,0:0:0:0:
109,192,100030,1,0,0:0:0:0:
36,192,100030,1,0,1:0:0:0:
402,192,100180,1,0,0:0:0:0:
36,192,100330,128,0,100930:0:0:0:0:
475,192,100330,1,0,1:0:0:0:
329,192,100405,1,0,1:0:0:0:
475,192,100480,1,0,1:0:0:0:
329,192,100555,1,0,1:0:0:0:
475,192,100630,1,0,1:0:0:0:
329,192,100705,1,0,1:0:0:0:
475,192,100780,1,0,1:0:0:0:
402,192,100855,1,0,1:0:0:0:
329,192,100930,128,0,102130:0:0:0:0:
475,192,100930,1,0,0:0:0:0:
109,192,101230,1,0,0:0:0:0:
36,192,101230,1,0,1:0:0:0:
475,192,101530,1,0,0:0:0:0:
475,192,101680,1,0,0:0:0:0:
109,192,101830,1,0,0:0:0:0:
36,192,101830,1,0,1:0:0:0:
475,192,101980,1,0,0:0:0:0:
402,192,102130,128,0,103330:0:0:0:0:
475,192,102280,1,0,0:0:0:0:
109,192,102430,1,0,0:0:0:0:
36,192,102430,1,0,1:0:0:0:
109,192,102580,1,0,0:0:0:0:
36,192,102580,1,0,1:0:0:0:
475,192,102730,1,0,0:0:0:0:
475,192,102880,1,0,0:0:0:0:
36,192,103030,1,0,1:0:0:0:
109,192,103030,1,0,0:0:0:0:
182,192,103330,128,0,103930:0:0:0:0:
475,192,103330,1,0,0:0:0:0:
109,192,103630,1,0,0:0:0:0:
36,192,103630,1,0,1:0:0:0:
109,192,103930,128,0,104530:0:0:0:0:
402,192,103930,1,0,0:0:0:0:
402,192,104080,1,0,0:0:0:0:
36,192,104230,1,0,1:0:0:0:
182,192,104230,1,0,0:0:0:0:
402,192,104380,1,0,0:0:0:0:
475,192,104530,128,0,105130:0:0:0:0:
182,192,104680,1,0,0:0:0:0:
109,192,104830,1,0,0:0:0:0:
36,192,104830,1,0,1:0:0:0:
182,192,104980,1,0,0:0:0:0:
109,192,105130,128,0,105730:0:0:0:0:
329,192,105130,1,0,1:0:0:0:
475,192,105205,1,0,1:0:0:0:
329,192,105280,1,0,1:0:0:0:
475,192,105355,1,0,1:0:0:0:
329,192,105430,1,0,1:0:0:0:
475,192,105505,1,0,1:0:0:0:
329,192,105580,1,0,1:0:0:0:
475,192,105655,1,0,1:0:0:0:
329,192,105730,128,0,106330:0:0:0:0:
402,192,106030,1,0,0:0:0:0:
475,192,106030,1,0,1:0:0:0:
182,192,106330,128,0,106930:0:0:0:0:
36,192,106330,1,0,0:0:0:0:
36,192,106480,1,0,0:0:0:0:
329,192,106630,1,0,0:0:0:0:
475,192,106630,1,0,1:0:0:0:
36,192,106780,1,0,0:0:0:0:
402,192,106930,128,0,107530:0:0:0:0:
36,192,107080,1,0,0:0:0:0:
329,192,107230,1,0,0:0:0:0:
475,192,107230,1,0,1:0:0:0:
475,192,107380,1,0,1:0:0:0:
329,192,107380,1,0,0:0:0:0:
109,192,107530,128,0,108130:0:0:0:0:
36,192,107530,1,0,0:0:0:0:
36,192,107680,1,0,0:0:0:0:
329,192,107830,1,0,0:0:0:0:
475,192,107830,1,0,1:0:0:0:
402,192,108130,128,0,108730:0:0:0:0:
36,192,108130,1,0,0:0:0:0:
329,192,108430,1,0,0:0:0:0:
475,192,108430,1,0,1:0:0:0:
329,192,108730,128,0,109330:0:0:0:0:
36,192,108730,1,0,0:0:0:0:
36,192,108880,1,0,0:0:0:0:
475,192,109030,1,0,1:0:0:0:
402,192,109030,1,0,0:0:0:0:
36,192,109180,1,0,0:0:0:0:
182,192,109330,128,0,109930:0:0:0:0:
36,192,109480,1,0,0:0:0:0:
402,192,109630,1,0,0:0:0:0:
475,192,109630,1,0,1:0:0:0:
36,192,109780,1,0,0:0:0:0:
109,192,109930,128,0,110530:0:0:0:0:
402,192,109930,1,0,0:0:0:0:
475,192,109930,1,0,1:0:0:0:
36,192,110080,1,0,1:0:0:0:
182,192,110155,1,0,1:0:0:0:
36,192,110230,1,0,1:0:0:0:
182,192,110305,1,0,1:0:0:0:
256,192,110380,1,0,1:0:0:0:
329,192,110455,1,0,1:0:0:0:
36,192,110530,128,0,115330:0:0:0:0:
402,192,110530,1,0,1:0:0:0:
402,192,110980,1,0,0:0:0:0:
256,192,111055,1,0,0:0:0:0:
109,192,111130,1,0,1:0:0:0:
109,192,111580,1,0,0:0:0:0:
182,192,111730,128,0,115330:0:0:0:0:
109,192,111880,1,0,0:0:0:0:
109,192,112180,1,0,0:0:0:0:
256,192,112255,1,0,0:0:0:0:
402,192,112330,1,0,1:0:0:0:
256,192,112480,1,0,0:0:0:0:
402,192,112780,1,0,1:0:0:0:
329,192,112930,128,0,115330:0:0:0:0:
109,192,112930,1,0,0:0:0:0:
109,192,113080,1,0,0:0:0:0:
109,192,113380,1,0,0:0:0:0:
256,192,113530,1,0,1:0:0:0:
109,192,113680,1,0,0:0:0:0:
256,192,113830,1,0,1:0:0:0:
109,192,113980,1,0,0:0:0:0:
475,192,114130,128,0,115330:0:0:0:0:
402,192,114130,1,0,1:0:0:0:
109,192,114230,1,0,1:0:0:0:
402,192,114330,1,0,1:0:0:0:
109,192,114430,1,0,1:0:0:0:
402,192,114530,1,0,1:0:0:0:
109,192,114630,1,0,1:0:0:0:
256,192,114730,1,0,1:0:0:0:
402,192,114805,1,0,1:0:0:0:
256,192,114880,1,0,1:0:0:0:
109,192,114955,1,0,1:0:0:0:
256,192,115030,1,0,1:0:0:0:
402,192,115105,1,0,1:0:0:0:
256,192,115180,1,0,1:0:0:0:
109,192,115255,1,0,1:0:0:0:
402,192,115330,1,0,0:0:0:0:
256,192,115330,1,0,0:0:0:0:
182,192,115630,1,0,0:0:0:0:
329,192,115630,1,0,0:0:0:0:
256,192,115930,1,0,0:0:0:0:
182,192,116080,1,0,0:0:0:0:
109,192,116230,1,0,0:0:0:0:
329,192,116380,1,0,0:0:0:0:
182,192,116680,1,0,0:0:0:0:
109,192,116830,1,0,0:0:0:0:
36,192,116830,1,0,0:0:0:0:
182,192,116980,1,0,0:0:0:0:
402,192,117280,1,0,0:0:0:0:
329,192,117430,1,0,0:0:0:0:
109,192,117880,1,0,0:0:0:0:
36,192,118030,1,0,0:0:0:0:
182,192,118030,1,0,0:0:0:0:
256,192,118330,1,0,0:0:0:0:
109,192,118330,1,0,0:0:0:0:
182,192,118480,1,0,0:0:0:0:
256,192,118555,1,0,0:0:0:0:
329,192,118555,1,0,0:0:0:0:
402,192,118780,1,0,0:0:0:0:
256,192,118780,1,0,0:0:0:0:
329,192,119005,1,0,0:0:0:0:
475,192,119005,1,0,0:0:0:0:
475,192,119230,1,0,0:0:0:0:
402,192,119230,1,0,0:0:0:0:
182,192,119380,1,0,0:0:0:0:
402,192,119380,1,0,0:0:0:0:
109,192,119455,128,0,120130:0:0:0:0:
329,192,119455,128,0,120130:0:0:0:0:
182,192,120130,1,0,0:0:0:0:
402,192,120280,1,0,0:0:0:0:
329,192,120430,1,0,0:0:0:0:
109,192,120430,1,0,0:0:0:0:
402,192,120580,1,0,0:0:0:0:
182,192,120580,1,0,0:0:0:0:
256,192,120880,1,0,0:0:0:0:
475,192,120880,1,0,0:0:0:0:
182,192,121030,1,0,0:0:0:0:
402,192,121030,1,0,0:0:0:0:
329,192,121180,1,0,0:0:0:0:
36,192,121480,1,0,0:0:0:0:
256,192,121480,1,0,0:0:0:0:
36,192,121780,128,0,122230:0:0:0:0:
256,192,122530,1,0,0:0:0:0:
182,192,122530,1,0,0:0:0:0:
36,192,122530,1,0,0:0:0:0:
329,192,122980,1,0,0:0:0:0:
256,192,122980,1,0,0:0:0:0:
109,192,122980,1,0,0:0:0:0:
256,192,123430,1,0,0:0:0:0:
182,192,123430,1,0,0:0:0:0:
402,192,123430,1,0,0:0:0:0:
256,192,123880,1,0,0:0:0:0:
329,192,123880,1,0,0:0:0:0:
475,192,123880,1,0,0:0:0:0:
109,192,124030,1,0,0:0:0:0:
402,192,124180,1,0,0:0:0:0:
329,192,124330,1,0,0:0:0:0:
402,192,124405,1,0,0:0:0:0:
475,192,124480,1,0,0:0:0:0:
402,192,124555,1,0,0:0:0:0:
329,192,124630,1,0,0:0:0:0:
256,192,124705,1,0,0:0:0:0:
182,192,124780,1,0,0:0:0:0:
109,192,124855,1,0,0:0:0:0:
36,192,124930,1,0,0:0:0:0:
182,192,125230,1,0,0:0:0:0:
329,192,125230,1,0,0:0:0:0:
329,192,125530,1,0,0:0:0:0:
182,192,125530,1,0,0:0:0:0:
109,192,125680,1,0,0:0:0:0:
36,192,125830,1,0,0:0:0:0:
256,192,125980,1,0,0:0:0:0:
182,192,126280,1,0,0:0:0:0:
109,192,126430,1,0,0:0:0:0:
36,192,126430,1,0,0:0:0:0:
402,192,126580,1,0,0:0:0:0:
256,192,126580,1,0,0:0:0:0:
329,192,126880,1,0,0:0:0:0:
109,192,127030,1,0,0:0:0:0:
256,192,127480,1,0,0:0:0:0:
109,192,127480,1,0,0:0:0:0:
329,192,127630,1,0,0:0:0:0:
182,192,127630,1,0,0:0:0:0:
329,192,127930,1,0,0:0:0:0:
182,192,127930,1,0,0:0:0:0:
402,192,128080,1,0,0:0:0:0:
475,192,128155,1,0,0:0:0:0:
329,192,128155,1,0,0:0:0:0:
256,192,128380,1,0,0:0:0:0:
109,192,128380,1,0,0:0:0:0:
329,192,128605,1,0,0:0:0:0:
182,192,128605,1,0,0:0:0:0:
256,192,128830,1,0,0:0:0:0:
402,192,128830,1,0,0:0:0:0:
402,192,128980,1,0,0:0:0:0:
475,192,129055,1,0,0:0:0:0:
329,192,129055,1,0,0:0:0:0:
475,192,129280,1,0,0:0:0:0:
329,192,129280,1,0,0:0:0:0:
182,192,129430,1,0,0:0:0:0:
36,192,129430,1,0,0:0:0:0:
329,192,129580,1,0,0:0:0:0:
475,192,129580,1,0,0:0:0:0:
36,192,129730,128,0,130030:0:0:0:0:
402,192,129730,1,0,0:0:0:0:
109,192,129730,1,0,0:0:0:0:
36,192,130330,128,0,130630:0:0:0:0:
329,192,130930,1,0,0:0:0:0:
36,192,130930,128,0,131230:0:0:0:0:
182,192,131380,1,0,0:0:0:0:
402,192,131380,1,0,0:0:0:0:
36,192,131530,128,0,131830:0:0:0:0:
329,192,131830,1,0,0:0:0:0:
256,192,132130,1,0,0:0:0:0:
36,192,132130,1,0,0:0:0:0:
475,192,132130,128,0,132430:0:0:0:0:
109,192,132430,1,0,0:0:0:0:
182,192,132580,1,0,0:0:0:0:
475,192,132730,128,0,133030:0:0:0:0:
256,192,133030,1,0,0:0:0:0:
475,192,133330,128,0,133630:0:0:0:0:
329,192,133480,1,0,0:0:0:0:
475,192,133930,128,0,134230:0:0:0:0:
36,192,133930,1,0,0:0:0:0:
182,192,134005,1,0,0:0:0:0:
36,192,134080,1,0,0:0:0:0:
182,192,134155,1,0,0:0:0:0:
109,192,134230,1,0,0:0:0:0:
256,192,134305,1,0,0:0:0:0:
109,192,134380,1,0,0:0:0:0:
256,192,134455,1,0,0:0:0:0:
329,192,134530,1,0,0:0:0:0:
36,192,134530,128,0,134830:0:0:0:0:
402,192,134530,128,0,135730:0:0:0:0:
36,192,135130,128,0,135430:0:0:0:0:
182,192,135130,1,0,0:0:0:0:
109,192,135130,1,0,0:0:0:0:
36,192,135730,128,0,136030:0:0:0:0:
329,192,135730,128,0,136330:0:0:0:0:
182,192,135730,1,0,0:0:0:0:
256,192,135730,1,0,0:0:0:0:
36,192,136330,128,0,136630:0:0:0:0:
256,192,136330,128,0,136930:0:0:0:0:
402,192,136330,1,0,0:0:0:0:
475,192,136330,1,0,0:0:0:0:
475,192,136930,128,0,137230:0:0:0:0:
109,192,136930,128,0,138130:0:0:0:0:
475,192,137530,128,0,137830:0:0:0:0:
36,192,137530,1,0,0:0:0:0:
182,192,137530,1,0,0:0:0:0:
475,192,138130,128,0,138430:0:0:0:0:
182,192,138130,128,0,138730:0:0:0:0:
256,192,138130,1,0,0:0:0:0:
329,192,138130,1,0,0:0:0:0:
475,192,138730,128,0,139030:0:0:0:0:
256,192,138730,128,0,139330:0:0:0:0:
329,192,138730,1,0,0:0:0:0:
402,192,138730,1,0,0:0:0:0:
36,192,139330,128,0,139630:0:0:0:0:
402,192,139330,128,0,140530:0:0:0:0:
36,192,139930,128,0,140230:0:0:0:0:
329,192,139930,1,0,0:0:0:0:
475,192,139930,1,0,0:0:0:0:
36,192,140530,128,0,140830:0:0:0:0:
182,192,140530,128,0,141130:0:0:0:0:
256,192,140530,1,0,0:0:0:0:
329,192,140530,1,0,0:0:0:0:
36,192,141130,128,0,141430:0:0:0:0:
329,192,141130,128,0,141730:0:0:0:0:
402,192,141130,1,0,0:0:0:0:
475,192,141130,1,0,0:0:0:0:
475,192,141730,128,0,142030:0:0:0:0:
109,192,141730,128,0,142930:0:0:0:0:
475,192,142330,128,0,142630:0:0:0:0:
256,192,142330,1,0,0:0:0:0:
329,192,142330,1,0,0:0:0:0:
475,192,142930,128,0,143230:0:0:0:0:
402,192,142930,128,0,144130:0:0:0:0:
256,192,142930,1,0,0:0:0:0:
182,192,142930,1,0,0:0:0:0:
475,192,143530,128,0,143830:0:0:0:0:
182,192,143530,1,0,0:0:0:0:
109,192,143530,1,0,0:0:0:0:
36,192,144130,128,0,144430:0:0:0:0:
182,192,144130,128,0,145330:0:0:0:0:
36,192,144730,128,0,145030:0:0:0:0:
256,192,144730,1,0,0:0:0:0:
329,192,144730,1,0,0:0:0:0:
36,192,145330,128,0,145630:0:0:0:0:
256,192,145330,128,0,145930:0:0:0:0:
329,192,145330,1,0,0:0:0:0:
402,192,145330,1,0,0:0:0:0:
36,192,145930,128,0,146230:0:0:0:0:
329,192,145930,128,0,146530:0:0:0:0:
402,192,145930,1,0,0:0:0:0:
475,192,145930,1,0,0:0:0:0:
475,192,146530,128,0,146830:0:0:0:0:
402,192,146530,128,0,147730:0:0:0:0:
475,192,147130,128,0,147430:0:0:0:0:
36,192,147130,1,0,0:0:0:0:
109,192,147130,1,0,0:0:0:0:
475,192,147730,128,0,148030:0:0:0:0:
256,192,147730,128,0,148330:0:0:0:0:
109,192,147730,1,0,0:0:0:0:
182,192,147730,1,0,0:0:0:0:
475,192,148330,128,0,148630:0:0:0:0:
109,192,148330,128,0,148930:0:0:0:0:
182,192,148330,1,0,0:0:0:0:
329,192,148330,1,0,0:0:0:0:
36,192,148930,128,0,149230:0:0:0:0:
329,192,148930,128,0,150130:0:0:0:0:
36,192,149530,128,0,149830:0:0:0:0:
402,192,149530,1,0,0:0:0:0:
475,192,149530,1,0,0:0:0:0:
36,192,150130,128,0,150430:0:0:0:0:
256,192,150130,128,0,150730:0:0:0:0:
402,192,150130,1,0,0:0:0:0:
182,192,150130,1,0,0:0:0:0:
36,192,150730,128,0,151030:0:0:0:0:
182,192,150730,128,0,151330:0:0:0:0:
329,192,150730,1,0,0:0:0:0:
109,192,150730,1,0,0:0:0:0:
475,192,151330,128,0,151630:0:0:0:0:
402,192,151330,128,0,152530:0:0:0:0:
475,192,151930,128,0,152230:0:0:0:0:
256,192,151930,1,0,0:0:0:0:
329,192,151930,1,0,0:0:0:0:
475,192,152530,128,0,152830:0:0:0:0:
109,192,152530,128,0,153730:0:0:0:0:
256,192,152530,1,0,0:0:0:0:
182,192,152530,1,0,0:0:0:0:
475,192,153130,128,0,153430:0:0:0:0:
182,192,153130,1,0,0:0:0:0:
36,192,153130,1,0,0:0:0:0:
182,192,153730,128,0,154930:0:0:0:0:
329,192,153730,128,0,154930:0:0:0:0:
475,192,154330,1,0,0:0:0:0:
256,192,154930,128,0,156130:0:0:0:0:
475,192,154930,1,0,0:0:0:0:
36,192,155530,1,0,0:0:0:0:
182,192,155605,1,0,0:0:0:0:
475,192,155680,1,0,0:0:0:0:
329,192,155755,1,0,0:0:0:0:
36,192,155830,1,0,1:0:0:0:
475,192,155830,1,0,1:0:0:0:
109,192,156130,1,4,1:0:0:0:
402,192,156130,1,4,1:0:0:0:
