osu file format v12

[General]
AudioFilename: Aspirin.mp3
AudioLeadIn: 0
PreviewTime: 74610
Countdown: 0
SampleSet: Normal
StackLeniency: 0.7
Mode: 0
LetterboxInBreaks: 0
WidescreenStoryboard: 0

[Editor]
Bookmarks: 74563
DistanceSpacing: 1.1
BeatDivisor: 2
GridSize: 4
TimelineZoom: 1

[Metadata]
Title:Aspirin
TitleUnicode:Aspirin
Artist:MuryokuP
ArtistUnicode:無力P
Creator:Irie Miyuki
Version:Easy
Source:
Tags:vocaloid 巡音ルカ megurine luka ao 5 zero__wind
BeatmapID:333763
BeatmapSetID:132398

[Difficulty]
HPDrainRate:2
CircleSize:3
OverallDifficulty:3
ApproachRate:3
SliderMultiplier:0.8
SliderTickRate:1

[Events]
//Background and Video events
0,0,"03.jpg",0,0
Video,0,"Aspirin.flv"
//Break Periods
2,43073,47275
2,69757,73170
2,112546,120538
2,153125,161591
//Storyboard Layer 0 (Background)
//Storyboard Layer 1 (Fail)
//Storyboard Layer 2 (Pass)
//Storyboard Layer 3 (Foreground)
//Storyboard Sound Samples
//Background Colour Transformations
3,100,163,162,255

[TimingPoints]
1347,315.789473684211,4,1,0,20,1,0
1347,-111.111111111111,4,1,0,26,0,0
1662,-111.111111111111,4,2,0,26,0,0
3715,-111.111111111111,4,2,0,17,0,0
4189,-111.111111111111,4,2,0,26,0,0
8768,-111.111111111111,4,2,0,20,0,0
10031,-111.111111111111,4,2,0,15,0,0
11452,-111.111111111111,4,1,0,15,0,0
11610,-111.111111111111,4,2,0,15,0,0
15083,-111.111111111111,4,2,0,19,0,0
20136,-111.111111111111,4,2,0,24,0,0
21557,-111.111111111111,4,1,0,50,0,0
21873,-111.111111111111,4,2,0,50,0,0
26610,-111.111111111111,4,2,0,38,0,0
26925,-111.111111111111,4,2,0,50,0,0
31662,-111.111111111111,4,1,1,42,0,0
31978,-111.111111111111,4,2,0,50,0,0
36715,-111.111111111111,4,2,0,32,0,0
37031,-111.111111111111,4,2,0,50,0,0
39083,-111.111111111111,4,2,0,30,0,0
42873,-111.111111111111,4,2,0,20,0,0
48715,-111.111111111111,4,1,0,30,0,0
49347,-111.111111111111,4,1,0,46,0,0
49662,-111.111111111111,4,2,1,50,0,0
51873,-111.111111111111,4,2,2,50,0,0
52189,-111.111111111111,4,2,1,50,0,0
52820,-111.111111111111,4,2,1,45,0,0
54399,-111.111111111111,4,1,0,50,0,0
54715,-111.111111111111,4,2,1,50,0,0
55347,-111.111111111111,4,2,1,43,0,0
56925,-111.111111111111,4,1,1,43,0,0
57557,-111.111111111111,4,2,1,54,0,0
57873,-111.111111111111,4,2,1,48,0,0
59452,-111.111111111111,4,1,0,50,0,0
59768,-111.111111111111,4,2,1,50,0,0
61031,-111.111111111111,4,2,1,44,0,0
61978,-111.111111111111,4,2,1,38,0,0
62294,-111.111111111111,4,2,1,49,0,0
65136,-111.111111111111,4,2,1,56,0,0
65452,-111.111111111111,4,2,1,50,0,0
66715,-111.111111111111,4,2,1,43,0,0
67031,-111.111111111111,4,1,1,43,0,0
67347,-111.111111111111,4,2,1,52,0,0
68294,-111.111111111111,4,2,1,46,0,0
68925,-111.111111111111,4,2,1,50,0,0
69557,-111.111111111111,4,1,1,50,0,0
74925,-111.111111111111,4,2,2,48,0,0
79662,-111.111111111111,4,1,1,44,0,0
79978,-111.111111111111,4,2,2,44,0,0
84715,-100,4,1,1,48,0,0
85031,-100,4,1,1,56,0,0
85662,-100,4,1,1,62,0,0
94031,-100,4,1,1,42,0,0
94820,-100,4,1,1,64,0,1
95136,-100,4,1,1,72,0,1
104294,-100,4,1,1,60,0,0
104925,-100,4,1,1,72,0,1
112504,-100,4,1,1,72,0,0
121978,-111.111111111111,4,1,1,53,0,0
122610,-111.111111111111,4,1,1,53,0,1
122768,-111.111111111111,4,1,1,53,0,0
123715,-100,4,1,0,43,0,0
124031,-111.111111111111,4,1,1,53,0,0
126241,-100,4,1,0,43,0,0
126557,-111.111111111111,4,1,1,53,0,0
128768,-100,4,1,0,43,0,0
129083,-111.111111111111,4,1,1,53,0,0
132715,-111.111111111111,4,2,1,53,0,0
133662,-111.111111111111,4,2,1,36,0,0
134610,-111.111111111111,4,2,1,18,0,0
137452,-100,4,2,0,10,0,0
137768,-100,4,2,1,37,0,0
140294,-100,4,1,1,37,0,0
141399,-100,4,2,1,37,0,0
142189,-100,4,1,1,43,0,0
142820,-100,4,1,1,54,0,0
149136,-100,4,2,1,48,0,0
149531,-100,4,1,1,48,0,0
163031,-111.111111111111,4,1,1,50,0,0
163662,-111.111111111111,4,2,1,53,0,0
164768,-111.111111111111,4,2,1,46,0,0
166189,-111.111111111111,4,2,1,53,0,0
166504,-111.111111111111,4,2,1,46,0,0
169189,-111.111111111111,4,1,1,38,0,0
170610,-100,4,1,1,61,0,1
170925,-100,4,1,1,72,0,1
172978,-100,4,1,1,76,0,1
180083,-100,4,1,1,52,0,0
180715,-100,4,1,1,63,0,1
181031,-100,4,1,1,79,0,1
188294,-100,4,1,1,52,0,0

[Colours]
Combo1 : 55,55,115
Combo2 : 128,128,192
Combo3 : 192,192,192
Combo4 : 204,51,120
Combo5 : 116,102,75
Combo6 : 0,128,128

[HitObjects]
92,284,1347,6,0,P|160:312|232:288,1,143.999995605469,4|0,0:0|0:0,0:0:0:0:
336,332,2452,2,0,P|332:252|252:184,1,179.999994506836,0|0,0:0|0:0,0:0:0:0:
220,76,3715,2,0,P|152:136|156:244,1,179.999994506836,2|0,0:0|0:0,0:0:0:0:
224,312,4978,1,2,0:0:0:0:
224,312,6399,6,0,L|392:296,1,143.999995605469,2|0,0:0|0:0,0:0:0:0:
320,188,7504,2,0,L|116:208,1,179.999994506836,0|0,0:0|0:0,0:0:0:0:
40,268,8768,2,0,P|12:192|40:88,1,179.999994506836,2|0,0:0|0:0,0:0:0:0:
128,28,10031,1,2,0:0:0:0:
128,28,11452,6,0,L|152:184,1,143.999995605469,4|0,0:0|0:0,0:0:0:0:
172,288,12557,2,0,P|252:324|352:280,1,179.999994506836,0|0,0:0|0:0,0:0:0:0:
452,280,13820,2,0,P|452:196|368:124,1,179.999994506836,2|0,0:0|0:0,0:0:0:0:
272,108,15083,1,2,0:0:0:0:
272,108,16504,6,0,P|208:136|120:112,1,143.999995605469,2|0,0:0|0:0,0:0:0:0:
40,52,17610,2,0,P|8:144|52:232,1,179.999994506836,0|0,0:0|0:0,0:0:0:0:
132,288,18873,2,0,L|336:308,1,179.999994506836,2|0,0:0|0:0,0:0:0:0:
428,320,20136,1,2,0:0:0:0:
428,320,21557,6,0,P|464:260|444:172,1,143.999995605469,4|10,0:0|0:0,0:0:0:0:
336,84,22820,1,0,0:0:0:0:
204,168,23452,2,0,L|104:184,1,71.9999978027344,10|0,0:0|0:0,0:0:0:0:
108,256,24083,2,0,P|56:204|84:116,1,143.999995605469,0|8,0:0|0:0,0:0:0:0:
172,20,25347,5,0,0:0:0:0:
296,120,25978,2,0,L|380:132,1,71.9999978027344,8|0,0:0|0:0,0:0:0:0:
444,144,26610,2,0,P|456:216|428:280,1,143.999995605469,2|8,0:0|0:0,0:0:0:0:
288,348,27873,2,0,P|220:324|132:348,1,143.999995605469,0|10,0:0|0:0,0:0:0:0:
64,204,29136,6,0,L|48:72,2,107.999996704102,0|0|0,0:0|0:0|0:0,0:0:0:0:
76,284,30399,1,2,0:0:0:0:
392,320,31662,5,6,0:0:0:0:
268,220,32294,1,8,0:0:0:0:
416,156,32925,2,0,P|396:92|304:44,1,143.999995605469,0|8,0:0|0:0,0:0:0:0:
176,40,34189,5,0,0:0:0:0:
52,140,34820,1,8,0:0:0:0:
156,260,35452,2,0,P|232:292|312:260,1,143.999995605469,0|10,0:0|0:0,0:0:0:0:
388,152,36715,5,10,0:0:0:0:
240,96,37347,2,0,L|240:224,1,107.999996704102,10|2,0:0|0:0,0:0:0:0:
256,192,39241,5,4,1:0:0:0:
256,192,39399,12,0,42873,0:0:0:0:
104,288,48715,6,0,P|144:296|192:292,1,71.9999978027344,0|0,0:0|0:0,0:0:0:0:
240,248,49347,6,0,P|300:216|388:240,1,143.999995605469,4|8,0:0|0:0,0:0:0:0:
496,328,50610,2,0,L|504:168,1,143.999995605469,2|2,0:0|0:0,0:0:0:0:
436,40,51873,6,0,P|368:16|296:40,1,143.999995605469,4|8,0:0|0:0,0:0:0:0:
212,168,53136,1,2,0:0:0:0:
308,292,53768,2,0,L|332:220,1,71.9999978027344,2|10,0:0|0:0,0:0:0:0:
352,148,54399,6,0,B|284:128|284:128|228:76,1,143.999995605469,4|8,0:0|0:0,0:0:0:0:
82,21,55662,2,0,P|110:85|86:169,1,143.999995605469,2|2,0:0|0:0,0:0:0:0:
8,288,56925,5,6,0:0:0:0:
152,352,57557,1,8,0:0:0:0:
304,304,58189,1,2,0:0:0:0:
420,196,58820,2,0,L|432:104,1,71.9999978027344,2|0,0:0|0:0,0:0:0:0:
500,84,59452,6,0,P|440:44|364:76,1,143.999995605469,4|10,0:0|0:0,0:0:0:0:
308,208,60715,1,0,0:0:0:0:
400,336,61347,1,2,0:0:0:0:
244,360,61978,6,0,L|84:348,1,143.999995605469,12|10,0:0|0:0,0:0:0:0:
72,192,63241,2,0,L|232:204,1,143.999995605469,0|10,0:0|0:0,0:0:0:0:
296,212,64189,1,10,0:0:0:0:
376,220,64504,6,0,P|416:160|400:72,1,143.999995605469,0|8,0:0|0:0,0:0:0:0:
272,12,65768,1,2,0:0:0:0:
160,124,66399,2,0,L|152:212,1,71.9999978027344,10|10,0:0|0:0,0:0:0:0:
136,272,67031,6,0,P|64:272|8:216,2,143.999995605469,6|8|2,0:0|0:0|0:0,0:0:0:0:
292,256,68925,2,0,L|372:248,1,71.9999978027344,8|8,0:0|0:0,0:0:0:0:
444,240,69557,1,4,0:0:0:0:
156,260,74610,5,4,0:0:0:0:
176,104,75241,1,4,0:0:0:0:
276,168,75715,6,0,P|328:180|380:160,1,107.999996704102,4|8,0:0|0:0,0:0:0:0:
416,92,76504,1,4,0:0:0:0:
468,200,76978,6,0,P|472:272|392:344,1,179.999994506836,4|4,0:0|0:0,0:0:0:0:
280,336,78241,2,0,P|208:312|136:344,1,143.999995605469,0|4,0:0|0:0,0:0:0:0:
72,152,79662,5,2,0:0:0:0:
208,232,80294,1,4,0:0:0:0:
316,184,80768,6,0,L|436:176,1,107.999996704102,4|8,0:0|0:0,0:0:0:0:
504,172,81557,1,4,0:0:0:0:
432,80,82031,6,0,L|240:88,1,179.999994506836,4|4,0:0|0:0,0:0:0:0:
144,136,83294,2,0,P|72:128|32:84,2,107.999996704102,0|8|0,0:0|0:0|0:0,0:0:0:0:
272,164,84715,6,0,P|348:136|428:188,1,160,6|0,0:0|0:0,0:0:0:0:
340,276,85820,2,0,B|276:324|276:324|136:320,1,200,0|0,0:0|0:0,0:0:0:0:
44,252,87083,6,0,B|40:180|40:180|60:136|60:136|60:36,1,200,0|0,0:0|0:0,0:0:0:0:
192,64,88347,2,0,P|260:108|356:84,1,160,0|0,0:0|0:0,0:0:0:0:
408,48,89294,1,0,0:0:0:0:
412,180,89768,6,0,P|372:244|400:332,1,160,6|0,0:0|0:0,0:0:0:0:
260,332,90873,2,0,L|36:324,1,200,0|0,0:0|0:0,0:0:0:0:
68,192,92136,6,0,L|212:196,1,120,0|8,0:0|0:0,0:0:0:0:
276,200,92925,1,0,0:0:0:0:
396,140,93399,2,0,P|408:96|400:52,2,80,0|0|8,0:0|0:0|0:0,0:0:0:0:
320,92,94347,1,8,0:0:0:0:
208,160,94820,6,0,P|156:216|164:296,1,160,6|0,0:0|0:0,0:0:0:0:
288,340,95925,2,0,L|460:336,1,160,2|0,0:0|0:0,0:0:0:0:
456,160,97189,6,0,B|380:160|380:160|324:144|324:144|248:144,1,200,6|0,0:0|0:0,0:0:0:0:
128,140,98452,2,0,P|80:124|52:100,2,80,2|0|0,0:0|0:0|0:0,0:0:0:0:
332,220,99873,6,0,P|344:296|292:364,1,160,6|0,0:0|0:0,0:0:0:0:
168,348,100978,2,0,B|88:332|88:332|36:268,1,160,2|0,0:0|0:0,0:0:0:0:
144,76,102399,6,0,P|96:32|32:28,2,120,4|0|0,0:0|0:0|0:0,0:0:0:0:
308,136,103978,2,0,L|400:128,2,80,2|0|0,0:0|0:0|0:0,0:0:0:0:
228,176,104925,6,0,P|156:144|68:188,1,160,6|0,0:0|0:0,0:0:0:0:
76,304,106031,2,0,P|148:336|236:292,1,160,2|0,0:0|0:0,0:0:0:0:
392,352,107294,2,0,L|404:140,1,200,6|0,0:0|0:0,0:0:0:0:
460,32,108557,6,0,P|400:84|308:72,1,160,4|0,0:0|0:0,0:0:0:0:
108,36,109978,2,0,P|84:112|112:188,1,160,2|8,0:0|0:0,0:0:0:0:
240,160,111083,2,0,P|316:136|396:180,1,160,2|0,0:0|0:0,0:0:0:0:
380,256,112031,2,0,L|372:344,1,80
168,240,121978,6,0,L|176:140,1,71.9999978027344,0|0,0:0|0:0,0:0:0:0:
180,88,122610,6,0,P|248:60|336:100,1,143.999995605469,4|8,0:0|0:0,0:0:0:0:
400,176,123715,2,2,P|392:216|400:260,1,80,0|0,0:0|0:0,0:0:0:0:
480,340,124504,1,8,0:0:0:0:
480,340,125136,6,0,L|328:348,1,143.999995605469,4|8,0:0|0:0,0:0:0:0:
208,320,126241,2,2,L|112:316,1,80,0|0,0:0|0:0,0:0:0:0:
12,284,127031,1,8,0:0:0:0:
12,284,127662,6,0,B|28:212|28:212|20:128,1,143.999995605469,4|8,0:0|0:0,0:0:0:0:
60,16,128768,2,2,P|96:52|136:68,1,80,0|0,0:0|0:0,0:0:0:0:
232,108,129557,1,8,0:0:0:0:
376,176,130189,6,0,P|416:184|460:184,2,71.9999978027344,4|0|8,0:0|0:0|0:0,0:0:0:0:
264,212,131294,2,0,P|188:192|128:240,1,143.999995605469,0|0,0:0|0:0,0:0:0:0:
256,192,132715,12,0,137768,0:0:0:0:
144,156,140294,6,0,P|216:184|312:148,1,160,8|8,0:0|0:0,0:0:0:0:
408,100,141399,2,0,P|452:180|408:276,1,200,2|0,0:0|0:0,0:0:0:0:
252,352,142820,6,0,L|92:340,1,160,4|0,0:0|0:0,0:0:0:0:
64,164,144083,2,0,L|224:176,1,160,0|8,0:0|0:0,0:0:0:0:
388,116,145347,5,0,0:0:0:0:
476,268,145978,1,0,0:0:0:0:
312,204,146610,1,0,0:0:0:0:
312,380,147241,1,0,0:0:0:0:
164,284,147873,6,0,P|92:256|20:292,2,160,2|0|0,0:0|0:0|0:0,0:0:0:0:
328,348,149768,1,0,0:0:0:0:
464,236,150399,6,0,P|496:164|460:88,2,160,4|0|0,0:0|0:0|0:0,0:0:0:0:
304,168,152294,2,0,L|136:172,1,160,0|4,0:0|0:0,0:0:0:0:
64,172,163031,6,0,B|136:172|124:224|212:216,1,143.999995605469,6|2,0:0|0:0,0:0:0:0:
296,280,164136,2,0,P|328:220|284:104,1,179.999994506836,0|0,0:0|0:0,0:0:0:0:
200,52,165399,2,0,P|256:8|376:36,1,179.999994506836
416,124,166662,1,0,0:0:0:0:
416,324,167452,2,0,L|384:244,1,71.9999978027344
360,184,168083,6,0,L|216:196,1,143.999995605469,0|2,0:0|0:0,0:0:0:0:
108,144,169189,1,6,0:0:0:0:
76,344,170610,6,0,B|144:336|144:336|180:344|180:344|252:336,1,160,4|0,0:0|0:0,0:0:0:0:
368,328,171715,2,0,P|408:232|352:136,1,200,2|0,0:0|0:0,0:0:0:0:
240,164,172978,2,0,P|140:200|48:152,1,200,6|8,0:0|0:0,0:0:0:0:
12,40,174241,1,4,0:0:0:0:
212,132,175031,2,0,P|240:144|300:144,1,80
368,104,175662,6,0,L|364:264,1,160,6|0,0:0|0:0,0:0:0:0:
244,324,176768,2,0,P|151:293|62:333,1,200,2|0,0:0|0:0,0:0:0:0:
24,164,178189,2,0,P|72:116|76:48,2,120,0|0|0,0:0|0:0|0:0,0:0:0:0:
192,212,179768,6,0,L|271:208,2,80,10|0|0,0:0|0:0|0:0,0:0:0:0:
168,128,180715,2,0,L|327:124,1,160,6|0,0:0|0:0,0:0:0:0:
452,76,181820,2,0,P|488:166|446:254,1,200,2|0,0:0|0:0,0:0:0:0:
344,336,183083,2,0,B|247:343|251:287|151:291,1,200,4|8,0:0|0:0,0:0:0:0:
32,240,184347,1,6,0:0:0:0:
404,108,185768,5,4,0:0:0:0:
240,168,186399,2,0,L|108:172,2,120,0|0|0,0:0|0:0|0:0,0:0:0:0:
452,328,188294,1,0,0:0:0:0:
256,192,188452,12,4,193189,0:0:0:0:
