osu file format v14

[General]
AudioFilename: existence.mp3
AudioLeadIn: 0
PreviewTime: 25653
Countdown: 0
SampleSet: Normal
StackLeniency: 0.7
Mode: 0
LetterboxInBreaks: 1
WidescreenStoryboard: 1

[Editor]
Bookmarks: 41998,110894,124135,137377,147929
DistanceSpacing: 0.6
BeatDivisor: 2
GridSize: 4
TimelineZoom: 1.9

[Metadata]
Title:Existence
TitleUnicode:Existence
Artist:Muryoku P
ArtistUnicode:Muryoku P
Creator:grumd
Version:Ex6tence
Source:
Tags:evilelvis collab
BeatmapID:697092
BeatmapSetID:312256

[Difficulty]
HPDrainRate:5
CircleSize:4
OverallDifficulty:8
ApproachRate:9.9
SliderMultiplier:2
SliderTickRate:1

[Events]
//Background and Video events
0,0,"kabekami.jpg",0,0
//Break Periods
2,53163,63257
2,107784,110429
2,134266,135257
//Storyboard Layer 0 (Background)
//Storyboard Layer 1 (Fail)
//Storyboard Layer 2 (Pass)
//Storyboard Layer 3 (Foreground)
//Storyboard Sound Samples

[TimingPoints]
-2,206.896551724138,4,1,0,100,1,0
6618,-166.666666666667,4,1,0,100,0,0
13239,-133.333333333333,4,1,0,100,0,0
26480,-117.647058823529,4,1,0,100,0,0
29377,-200,4,1,0,100,0,0
29687,-117.647058823529,4,1,0,100,0,1
32687,-200,4,1,0,100,0,1
33101,-117.647058823529,4,1,0,100,0,0
38894,-200,4,1,0,100,0,0
40446,-200,4,1,0,10,0,0
40549,-117.647058823529,4,1,0,100,0,0
42566,-200,4,1,0,100,0,0
43032,-117.647058823529,4,1,0,100,0,1
43808,-117.647058823529,4,1,0,100,0,1
45929,-200,4,1,0,100,0,0
46342,-117.647058823529,4,1,0,100,0,0
66204,-200,4,1,0,100,0,0
72825,-133.333333333333,4,1,0,100,0,1
82756,-200,4,1,0,100,0,0
84204,-100,4,1,0,100,0,0
84618,-125,4,1,0,100,0,0
87204,-200,4,1,0,100,0,0
87618,-200,4,1,0,100,0,1
87670,-125,4,1,0,100,0,1
90566,-100,4,1,0,100,0,0
91032,-125,4,1,0,100,0,0
97549,-200,4,1,0,100,0,0
98480,-117.647058823529,4,1,0,100,0,0
100498,-200,4,1,0,100,0,0
100911,-117.647058823529,4,1,0,100,0,1
103808,-200,4,1,0,100,0,0
104273,-117.647058823529,4,1,0,100,0,0
110894,-200,4,1,0,100,0,0
143998,-100,4,1,0,100,0,1

[HitObjects]
144,260,6618,6,0,P|160:188|72:128,1,179.999994506836
77,213,7032,2,0,L|265:246,1,179.999994506836
364,186,7446,2,0,L|297:175,3,59.9999981689454
441,111,7860,2,0,L|508:100,3,59.9999981689454
455,202,8273,6,0,P|490:268|426:346,1,179.999994506836
304,282,8687,2,0,L|283:99,1,179.999994506836
184,67,9101,2,0,L|174:140,1,59.9999981689454
101,96,9308,2,0,L|91:169,1,59.9999981689454
172,277,9515,2,0,L|162:204,1,59.9999981689454
98,312,9722,2,0,L|88:239,1,59.9999981689454
220,150,9929,6,0,P|308:145|357:219,1,179.999994506836
200,234,10342,2,0,P|112:239|63:165,1,179.999994506836
154,33,10756,2,0,L|225:45,3,59.9999981689454
319,94,11170,2,0,L|379:84,1,59.9999981689454
496,146,11377,2,0,L|436:156,1,59.9999981689454
383,239,11584,5,0,0:0:0:0:
375,280,11687,1,0,0:0:0:0:
340,303,11791,1,0,0:0:0:0:
298,297,11894,1,0,0:0:0:0:
215,237,11998,1,0,0:0:0:0:
173,231,12101,1,0,0:0:0:0:
138,254,12205,1,0,0:0:0:0:
130,295,12308,1,0,0:0:0:0:
179,367,12411,6,0,L|242:358,1,59.9999981689454
330,241,12618,2,0,L|267:232,1,59.9999981689454
129,129,12825,2,0,L|192:120,1,59.9999981689454
404,48,13032,2,0,L|341:39,1,59.9999981689454
177,218,13239,6,0,L|167:301,1,75.0000028610231
42,131,13446,2,0,L|52:217,1,75.0000028610231
157,56,13653,2,0,P|251:54|299:116,1,150.000005722046
321,169,13963,1,0,0:0:0:0:
409,155,14066,6,0,P|424:116|424:75,1,75.0000028610231
345,298,14273,2,0,P|347:335|361:369,1,75.0000028610231
416,240,14480,1,0,0:0:0:0:
245,204,14584,1,0,0:0:0:0:
132,273,14687,2,0,L|146:357,1,75.0000028610231
43,219,14894,6,0,P|108:166|105:103,1,150.000005722046
35,48,15204,1,0,0:0:0:0:
202,117,15308,2,0,L|280:105,1,75.0000028610231
467,62,15515,2,0,L|389:50,1,75.0000028610231
497,205,15722,6,0,L|491:248,6,37.5000014305115
468,266,16135,2,0,P|424:241|386:234,1,75.0000028610231
318,300,16342,2,0,P|280:315|243:320,1,75.0000028610231
81,254,16549,6,0,P|74:183|147:138,1,150.000005722046
217,163,16860,1,0,0:0:0:0:
287,97,16963,2,0,L|280:20,1,75.0000028610231
372,135,17170,1,0,0:0:0:0:
200,75,17273,1,0,0:0:0:0:
132,143,17377,6,0,L|122:220,1,75.0000028610231
246,292,17584,2,0,L|236:212,1,75.0000028610231
176,352,17791,1,0,0:0:0:0:
452,212,17998,1,0,0:0:0:0:
375,162,18101,1,0,0:0:0:0:
439,102,18204,6,0,P|450:64|449:26,1,75.0000028610231
263,85,18411,2,0,P|262:122|273:158,1,75.0000028610231
347,286,18618,2,0,P|385:289|421:303,1,75.0000028610231
184,232,18825,2,0,P|149:245|111:248,1,75.0000028610231
42,39,19032,6,0,P|126:33|173:91,1,150.000005722046
136,156,19342,1,0,0:0:0:0:
278,94,19446,2,0,L|354:107,1,75.0000028610231
389,186,19653,1,0,0:0:0:0:
361,21,19756,1,0,0:0:0:0:
257,286,19860,6,0,L|273:365,1,75.0000028610231
184,232,20066,1,0,0:0:0:0:
311,168,20170,1,0,0:0:0:0:
136,156,20273,2,0,P|95:162|59:180,1,75.0000028610231
41,262,20480,1,0,0:0:0:0:
3,106,20584,1,0,0:0:0:0:
76,41,20687,6,0,P|112:52|151:56,1,75.0000028610231
279,141,20894,2,0,L|271:223,1,75.0000028610231
355,88,21101,1,0,0:0:0:0:
506,133,21204,1,0,0:0:0:0:
355,88,21308,2,0,P|342:49|340:14,1,75.0000028610231
477,217,21515,6,0,P|481:280|407:327,1,150.000005722046
334,285,21825,1,0,0:0:0:0:
181,352,21929,2,0,L|100:337,1,75.0000028610231
269,219,22135,1,0,0:0:0:0:
298,368,22239,1,0,0:0:0:0:
356,188,22342,6,0,L|396:195,6,37.5000014305115
424,180,22756,1,0,0:0:0:0:
512,66,22860,1,0,0:0:0:0:
458,270,22963,1,0,0:0:0:0:
371,102,23066,1,0,0:0:0:0:
269,219,23170,6,0,L|182:232,1,75.0000028610231
11,37,23377,2,0,L|92:52,1,75.0000028610231
371,102,23584,6,0,L|291:115,1,75.0000028610231
53,301,23791,2,0,L|147:316,1,75.0000028610231
465,265,23998,6,0,L|376:249,1,75.0000028610231
20,135,24204,2,0,L|97:123,1,75.0000028610231
431,38,24411,6,0,L|511:51,1,75.0000028610231
194,217,24618,2,0,L|113:206,1,75.0000028610231
421,171,24825,5,0,0:0:0:0:
274,306,24929,1,0,0:0:0:0:
329,98,25032,1,0,0:0:0:0:
397,261,25135,1,0,0:0:0:0:
194,217,25239,5,0,0:0:0:0:
421,171,25342,1,0,0:0:0:0:
194,217,25446,1,0,0:0:0:0:
466,330,25549,1,0,0:0:0:0:
95,80,26480,6,0,L|82:166,1,85.0000016212464
177,40,26687,1,0,0:0:0:0:
264,62,26791,1,0,0:0:0:0:
332,211,26894,2,0,P|374:211|415:196,1,85.0000016212464
452,117,27101,1,0,0:0:0:0:
431,33,27204,1,0,0:0:0:0:
242,158,27308,6,0,L|156:147,1,85.0000016212464
10,234,27515,2,0,L|98:222,1,85.0000016212464
171,277,27722,1,0,0:0:0:0:
144,362,27825,1,0,0:0:0:0:
258,234,27929,1,0,0:0:0:0:
281,321,28032,1,0,0:0:0:0:
457,249,28135,6,0,P|456:221|436:165,1,85.0000016212464
319,89,28342,1,0,0:0:0:0:
298,177,28446,1,0,0:0:0:0:
158,58,28549,2,0,L|69:74,1,85.0000016212464
319,89,28756,2,0,L|408:72,1,85.0000016212464
231,116,28963,5,0,0:0:0:0:
376,309,29067,1,0,0:0:0:0:
144,238,29170,1,0,0:0:0:0:
374,159,29274,1,0,0:0:0:0:
233,357,29377,2,0,P|206:364|178:366,3,50
293,287,29791,6,0,P|382:276|443:324,1,170.000003242493
507,91,30101,1,0,0:0:0:0:
374,159,30204,2,0,L|284:148,1,85.0000016212464
252,68,30411,1,0,0:0:0:0:
195,234,30515,1,0,0:0:0:0:
105,202,30618,6,0,L|93:118,1,85.0000016212464
13,68,30825,1,0,0:0:0:0:
184,140,30929,1,0,0:0:0:0:
252,68,31032,1,0,0:0:0:0:
195,234,31135,1,0,0:0:0:0:
102,40,31239,1,0,0:0:0:0:
280,164,31342,1,0,0:0:0:0:
105,202,31446,6,0,P|123:297|183:330,1,170.000003242493
195,234,31756,1,0,0:0:0:0:
102,40,31860,1,0,0:0:0:0:
61,122,31963,1,0,0:0:0:0:
252,68,32066,1,0,0:0:0:0:
102,40,32170,1,0,0:0:0:0:
221,192,32273,5,0,0:0:0:0:
249,210,32342,1,0,0:0:0:0:
282,217,32411,1,0,0:0:0:0:
315,215,32480,1,0,0:0:0:0:
346,200,32549,1,0,0:0:0:0:
369,176,32618,1,0,0:0:0:0:
381,144,32687,6,0,L|376:87,3,50
482,55,33101,6,0,L|464:227,2,170.000003242493
393,18,33618,1,0,0:0:0:0:
286,124,33722,2,0,P|241:123|196:103,1,85.0000016212464
55,63,33929,6,0,P|-6:98|2:199,1,170.000003242493
81,234,34239,1,0,0:0:0:0:
160,170,34342,2,0,L|251:158,1,85.0000016212464
112,320,34549,1,0,0:0:0:0:
160,170,34653,1,0,0:0:0:0:
353,232,34756,6,0,L|370:323,1,85.0000016212464
408,155,34963,1,0,0:0:0:0:
271,287,35066,1,0,0:0:0:0:
160,170,35170,1,0,0:0:0:0:
353,232,35273,1,0,0:0:0:0:
160,170,35377,2,0,P|145:133|142:81,1,85.0000016212464
180,263,35584,6,0,P|130:323|41:318,1,170.000003242493
12,130,35894,2,0,L|38:43,2,85.0000016212464
218,32,36204,1,0,0:0:0:0:
311,51,36308,1,0,0:0:0:0:
379,118,36411,6,0,P|377:199|284:232,1,170.000003242493
152,152,36722,2,0,L|137:63,2,85.0000016212464
89,307,37032,1,0,0:0:0:0:
181,338,37135,1,0,0:0:0:0:
373,205,37239,6,0,P|470:204|507:267,2,170.000003242493
335,293,37756,1,0,0:0:0:0:
250,135,37860,2,0,P|259:85|276:51,1,85.0000016212464
168,233,38066,6,0,L|69:242,1,85.0000016212464
244,293,38273,2,0,L|336:300,1,85.0000016212464
464,207,38480,2,0,P|410:177|406:76,1,170.000003242493
493,34,38791,1,0,0:0:0:0:
292,135,38894,5,0,0:0:0:0:
204,113,38998,1,0,0:0:0:0:
226,25,39101,1,0,0:0:0:0:
313,47,39204,1,0,0:0:0:0:
230,206,39308,5,0,0:0:0:0:
256,292,39412,1,0,0:0:0:0:
169,319,39515,1,0,0:0:0:0:
143,233,39618,1,0,0:0:0:0:
256,192,39722,12,0,40446,0:0:0:0:
368,168,40549,6,0,L|384:80,1,85.0000016212464
401,251,40756,1,0,0:0:0:0:
289,115,40860,1,0,0:0:0:0:
203,147,40963,2,0,P|159:146|113:128,1,85.0000016212464
263,29,41170,1,0,0:0:0:0:
353,46,41273,1,0,0:0:0:0:
220,251,41377,6,0,P|260:237|303:235,1,85.0000016212464
404,338,41584,1,0,0:0:0:0:
220,251,41687,1,0,0:0:0:0:
148,320,41791,2,0,L|60:307,1,85.0000016212464
203,147,41998,2,0,L|290:135,1,85.0000016212464
128,216,42204,5,0,0:0:0:0:
225,35,42308,1,0,0:0:0:0:
310,268,42411,1,0,0:0:0:0:
104,120,42515,1,0,0:0:0:0:
405,223,42618,6,0,L|464:213,1,50
411,148,42825,2,0,L|470:138,1,50
416,66,43032,6,0,P|391:116|285:134,1,170.000003242493
144,13,43342,1,0,0:0:0:0:
84,221,43446,2,0,P|91:265|111:302,1,85.0000016212464
121,137,43653,1,0,0:0:0:0:
38,98,43756,1,0,0:0:0:0:
282,124,43860,6,0,P|297:86|294:38,1,85.0000016212464
181,197,44066,1,0,0:0:0:0:
365,255,44170,1,0,0:0:0:0:
181,197,44273,1,0,0:0:0:0:
355,168,44377,1,0,0:0:0:0:
190,323,44480,2,0,P|151:308|95:307,1,85.0000016212464
355,168,44687,6,0,P|368:108|284:36,1,170.000003242493
116,194,44998,2,0,P|156:217|195:222,1,85.0000016212464
282,124,45204,1,0,0:0:0:0:
365,255,45308,1,0,0:0:0:0:
405,49,45411,1,0,0:0:0:0:
474,223,45515,5,0,0:0:0:0:
477,256,45583,1,0,0:0:0:0:
472,290,45652,1,0,0:0:0:0:
458,320,45721,1,0,0:0:0:0:
435,346,45790,1,0,0:0:0:0:
407,364,45859,1,0,0:0:0:0:
375,374,45929,6,0,L|309:368,3,50
243,278,46342,6,0,P|146:284|96:356,2,170.000003242493
214,140,46860,1,0,0:0:0:0:
298,184,46963,2,0,L|388:176,1,85.0000016212464
481,24,47170,6,0,P|443:66|326:66,1,170.000003242493
270,7,47480,1,0,0:0:0:0:
125,126,47584,2,0,P|130:172|152:208,1,85.0000016212464
228,249,47791,1,0,0:0:0:0:
293,93,47894,1,0,0:0:0:0:
363,151,47998,6,0,L|348:240,1,85.0000016212464
474,366,48204,2,0,L|459:282,1,85.0000016212464
510,203,48411,1,0,0:0:0:0:
261,284,48515,2,0,L|275:200,1,85.0000016212464
219,124,48722,1,0,0:0:0:0:
91,310,48825,6,0,P|20:280|13:173,1,170.000003242493
80,142,49135,2,0,L|254:168,1,170.000003242493
399,36,49446,2,0,L|309:48,1,85.0000016212464
512,237,49653,1,0,0:0:0:0:
256,192,49860,12,0,52963,0:0:0:0:
256,192,63722,12,0,65998,0:0:0:0:
57,181,66204,6,0,L|53:260,2,66.6666666666667
134,138,66618,2,0,L|137:218,2,66.6666666666667
221,190,67032,6,0,L|214:265,2,66.6666666666667
292,110,67446,2,0,L|297:188,2,66.6666666666667
372,234,67860,5,0,0:0:0:0:
385,156,67998,1,0,0:0:0:0:
395,78,68135,1,0,0:0:0:0:
328,31,68273,2,0,L|259:9,2,66.6666666666667
156,94,68687,6,0,L|228:78,2,66.6666666666667
73,117,69101,1,0,0:0:0:0:
73,117,69515,6,0,P|61:153|61:182,1,66.6666666666667
115,253,69791,1,0,0:0:0:0:
211,214,69929,6,0,P|181:187|147:176,1,66.6666666666667
115,253,70204,1,0,0:0:0:0:
143,346,70342,6,0,P|175:320|191:291,1,66.6666666666667
115,253,70618,1,0,0:0:0:0:
23,259,70756,6,0,P|35:300|54:323,1,66.6666666666667
115,253,71032,1,0,0:0:0:0:
256,192,71170,12,0,72618,0:0:0:0:
64,189,72825,6,0,L|56:105,1,75.0000028610231
9,249,73032,2,0,P|77:217|160:231,1,150.000005722046
174,301,73342,1,0,0:0:0:0:
233,251,73446,2,0,L|312:239,1,75.0000028610231
381,365,73653,2,0,L|365:285,1,75.0000028610231
465,202,73860,2,0,L|377:221,1,75.0000028610231
305,93,74066,2,0,L|323:183,1,75.0000028610231
392,108,74273,2,0,L|433:99,2,37.5000014305115
220,354,74480,6,0,L|132:344,1,75.0000028610231
196,166,74687,2,0,P|178:223|81:268,1,150.000005722046
31,222,74998,1,0,0:0:0:0:
0,302,75101,2,0,P|8:342|13:392,1,75.0000028610231
93,151,75308,6,0,P|66:150|43:143,6,37.5000014305115
182,193,75722,2,0,P|205:150|189:44,1,150.000005722046
119,21,76032,1,0,0:0:0:0:
280,37,76135,6,0,L|365:29,1,75.0000028610231
433,101,76342,2,0,L|345:108,1,75.0000028610231
512,152,76549,2,0,P|455:139|380:196,1,150.000005722046
299,203,76860,1,0,0:0:0:0:
353,270,76963,6,0,L|364:349,1,75.0000028610231
509,231,77170,2,0,L|415:252,1,75.0000028610231
438,349,77377,2,0,L|530:368,1,75.0000028610231
273,309,77584,2,0,L|233:320,2,37.5000014305115
353,270,77791,6,0,P|291:267|222:198,1,150.000005722046
20,233,78101,2,0,P|82:230|151:161,1,150.000005722046
218,89,78411,2,0,L|232:1,1,75.0000028610231
373,87,78618,6,0,L|293:77,1,75.0000028610231
70,47,78825,2,0,L|150:57,1,75.0000028610231
210,169,79032,1,0,0:0:0:0:
210,169,79239,1,0,0:0:0:0:
507,343,79446,6,0,L|347:334,1,150.000005722046
24,240,79756,2,0,L|184:249,1,150.000005722046
423,200,80066,2,0,L|325:195,1,75.0000028610231
67,89,80273,5,0,0:0:0:0:
67,89,80480,1,0,0:0:0:0:
67,89,80687,1,0,0:0:0:0:
67,89,80894,5,0,0:0:0:0:
135,137,80998,1,0,0:0:0:0:
217,100,81101,2,0,P|185:65|146:56,1,75.0000028610231
132,226,81308,2,0,P|179:214|201:194,1,75.0000028610231
67,89,81515,2,0,P|50:133|63:176,1,75.0000028610231
273,316,81722,6,0,L|261:224,1,75.0000028610231
172,358,81929,2,0,L|203:275,1,75.0000028610231
374,347,82135,2,0,L|336:270,1,75.0000028610231
186,45,82342,5,0,0:0:0:0:
284,222,82446,1,0,0:0:0:0:
127,192,82549,1,0,0:0:0:0:
372,137,82653,1,0,0:0:0:0:
123,105,82756,6,0,P|53:238|170:268,1,300
211,206,83480,5,0,0:0:0:0:
288,165,83584,2,0,L|353:170,1,50
341,251,83791,2,0,L|390:247,1,50
493,39,83998,1,0,0:0:0:0:
493,39,84411,5,0,0:0:0:0:
434,186,84515,1,0,0:0:0:0:
507,116,84618,2,0,L|422:100,1,80
479,322,84825,1,0,0:0:0:0:
358,162,84929,1,0,0:0:0:0:
494,243,85032,1,0,0:0:0:0:
273,211,85135,1,0,0:0:0:0:
85,236,85239,6,0,L|176:257,1,80
92,320,85446,1,0,0:0:0:0:
134,168,85549,1,0,0:0:0:0:
312,307,85653,2,0,L|224:276,1,80
392,333,85860,1,0,0:0:0:0:
172,360,85963,1,0,0:0:0:0:
307,121,86066,6,0,L|400:111,1,80
208,250,86273,2,0,L|115:240,1,80
60,168,86480,2,0,P|15:221|42:324,1,160
108,353,86791,1,0,0:0:0:0:
387,32,86894,6,0,L|304:27,1,80
216,172,87101,2,0,L|299:177,1,80
461,112,87308,6,0,L|293:105,1,150
512,255,87722,6,0,L|346:243,1,160
222,45,88032,2,0,L|63:34,1,160
188,136,88342,1,0,0:0:0:0:
0,87,88446,1,0,0:0:0:0:
117,209,88549,5,0,0:0:0:0:
343,167,88653,1,0,0:0:0:0:
172,293,88756,1,0,0:0:0:0:
268,108,88860,1,0,0:0:0:0:
207,217,88963,6,0,L|292:226,1,80
365,285,89170,5,0,0:0:0:0:
259,331,89273,1,0,0:0:0:0:
347,375,89377,6,0,P|387:308|466:296,1,160
431,96,89687,2,0,P|355:78|307:16,1,160
168,127,89998,1,0,0:0:0:0:
305,197,90101,1,0,0:0:0:0:
138,245,90204,2,0,L|133:301,2,53.3333333333333
218,333,90411,2,0,L|212:277,2,53.3333333333333
294,303,90618,6,0,P|258:171|103:171,1,300
13,77,91032,6,0,L|37:157,1,80
226,77,91239,1,0,0:0:0:0:
76,20,91342,1,0,0:0:0:0:
133,83,91446,5,0,0:0:0:0:
281,12,91549,1,0,0:0:0:0:
282,164,91653,1,0,0:0:0:0:
226,77,91756,1,0,0:0:0:0:
372,158,91860,6,0,P|412:166|454:163,1,80
446,322,92066,1,0,0:0:0:0:
410,240,92170,1,0,0:0:0:0:
504,256,92273,1,0,0:0:0:0:
360,313,92377,1,0,0:0:0:0:
307,227,92480,6,0,L|221:220,1,80
198,313,92687,2,0,L|200:144,1,160
121,264,92998,1,0,0:0:0:0:
121,180,93101,2,0,L|112:80,1,80
37,285,93308,2,0,L|44:206,1,80
193,52,93515,6,0,P|117:74|21:41,1,160
264,169,93825,2,0,B|239:86|297:103|263:-11,1,160
346,183,94135,2,0,P|390:191|443:182,1,80
208,365,94342,6,0,P|219:309|296:241,1,160
382,344,94653,2,0,L|292:329,2,80
469,360,94963,2,0,P|463:318|434:277,1,80
504,130,95170,6,0,P|475:175|443:199,1,80
346,233,95377,2,0,L|517:248,1,160
343,137,95687,1,0,0:0:0:0:
258,190,95791,2,0,L|174:177,1,80
171,81,95998,6,0,P|110:120|96:208,1,160
155,327,96308,1,0,0:0:0:0:
242,287,96411,2,0,P|212:251|158:243,1,80
70,299,96618,2,0,P|64:345|84:394,1,80
440,297,96825,5,0,0:0:0:0:
362,253,96929,1,0,0:0:0:0:
328,334,97032,1,0,0:0:0:0:
403,373,97135,1,0,0:0:0:0:
401,176,97238,5,0,0:0:0:0:
429,92,97342,1,0,0:0:0:0:
512,121,97445,1,0,0:0:0:0:
484,208,97549,1,0,0:0:0:0:
256,192,97653,12,0,98377,0:0:0:0:
254,257,98480,6,0,L|156:267,1,85.0000016212464
229,344,98687,1,0,0:0:0:0:
336,242,98791,1,0,0:0:0:0:
216,173,98894,1,0,0:0:0:0:
94,266,98998,1,0,0:0:0:0:
318,329,99101,2,0,L|408:311,1,85.0000016212464
475,221,99308,5,0,0:0:0:0:
511,303,99411,1,0,0:0:0:0:
489,134,99515,5,0,0:0:0:0:
334,127,99618,1,0,0:0:0:0:
456,47,99722,1,0,0:0:0:0:
401,185,99825,1,0,0:0:0:0:
368,40,99929,2,0,P|318:32|270:35,1,85.0000016212464
57,132,100135,5,0,0:0:0:0:
271,238,100239,1,0,0:0:0:0:
18,307,100342,5,0,0:0:0:0:
161,273,100446,1,0,0:0:0:0:
71,364,100549,2,0,L|55:205,1,150
226,115,100963,6,0,L|47:133,1,170.000003242493
314,325,101273,2,0,L|132:335,1,170.000003242493
438,222,101584,2,0,L|345:234,1,85.0000016212464
186,226,101791,6,0,L|281:239,1,85.0000016212464
449,63,101998,1,0,0:0:0:0:
352,15,102101,1,0,0:0:0:0:
290,104,102204,1,0,0:0:0:0:
474,293,102308,1,0,0:0:0:0:
512,202,102411,2,0,L|519:100,1,85.0000016212464
272,212,102618,6,0,P|318:172|438:170,1,170.000003242493
424,367,102929,2,0,P|340:367|272:318,1,170.000003242493
442,262,103239,2,0,L|337:261,1,85.0000016212464
64,201,103446,5,0,0:0:0:0:
77,231,103515,1,0,0:0:0:0:
101,255,103584,1,0,0:0:0:0:
130,271,103653,1,0,0:0:0:0:
164,275,103722,1,0,0:0:0:0:
196,268,103791,1,0,0:0:0:0:
221,253,103860,6,0,L|227:93,1,150
305,56,104273,6,0,P|250:72|148:29,1,170.000003242493
35,99,104584,1,0,0:0:0:0:
107,190,104687,2,0,L|119:95,1,85.0000016212464
136,276,104894,2,0,L|24:264,1,85.0000016212464
152,366,105101,1,0,0:0:0:0:
235,264,105204,1,0,0:0:0:0:
305,297,105308,5,0,0:0:0:0:
76,341,105411,1,0,0:0:0:0:
194,186,105515,5,0,0:0:0:0:
386,291,105618,1,0,0:0:0:0:
352,118,105722,5,0,0:0:0:0:
228,361,105825,1,0,0:0:0:0:
469,273,105929,6,0,P|446:197|486:89,1,170.000003242493
244,11,106239,2,0,P|266:91|243:172,1,170.000003242493
344,50,106549,2,0,L|429:41,1,85.0000016212464
99,165,106756,6,0,P|149:181|196:287,1,170.000003242493
117,343,107066,1,0,0:0:0:0:
30,273,107170,2,0,L|119:256,1,85.0000016212464
313,155,107377,2,0,L|224:138,1,85.0000016212464
18,22,107584,5,0,0:0:0:0:
347,181,110894,6,0,L|399:193,1,50
294,121,111101,1,0,0:0:0:0:
218,153,111204,1,0,0:0:0:0:
184,230,111308,2,0,P|186:259|197:284,1,50
108,156,111515,1,0,0:0:0:0:
28,176,111618,1,0,0:0:0:0:
63,47,111722,5,0,0:0:0:0:
141,64,111825,1,0,0:0:0:0:
271,218,111929,2,0,L|279:269,1,50
377,106,112135,2,0,L|384:56,1,50
431,171,112342,1,0,0:0:0:0:
409,252,112446,1,0,0:0:0:0:
465,320,112549,6,0,P|466:351|461:371,1,50
331,279,112756,1,0,0:0:0:0:
254,302,112860,1,0,0:0:0:0:
133,224,112963,2,0,L|143:173,1,50
47,244,113170,1,0,0:0:0:0:
7,315,113273,1,0,0:0:0:0:
170,299,113377,6,0,P|183:325|188:350,1,50
271,221,113584,2,0,P|277:192|287:174,1,50
356,127,113791,5,0,0:0:0:0:
331,30,113894,1,0,0:0:0:0:
502,9,113998,1,0,0:0:0:0:
481,108,114101,1,0,0:0:0:0:
356,223,114204,6,0,P|336:265|343:326,1,100
261,105,114515,2,0,L|204:95,1,50
63,192,114722,1,0,0:0:0:0:
28,114,114825,2,0,P|31:88|42:64,1,50
140,227,115032,5,0,0:0:0:0:
210,176,115135,1,0,0:0:0:0:
112,313,115239,2,0,P|115:344|124:368,1,50
140,227,115446,1,0,0:0:0:0:
129,140,115549,1,0,0:0:0:0:
210,176,115653,2,0,P|235:182|264:181,1,50
106,43,115860,6,0,P|60:51|12:83,1,100
187,77,116170,1,0,0:0:0:0:
222,267,116273,2,0,P|264:292|319:292,1,100
210,176,116584,1,0,0:0:0:0:
39,255,116687,6,0,L|30:309,1,50
129,140,116894,2,0,L|122:87,1,50
210,176,117101,1,0,0:0:0:0:
293,150,117204,1,0,0:0:0:0:
347,81,117308,2,0,P|375:80|403:87,1,50
485,308,117515,6,0,P|443:303|395:266,1,100
376,186,117825,1,0,0:0:0:0:
259,298,117929,2,0,L|271:351,1,50
183,255,118135,1,0,0:0:0:0:
103,283,118239,1,0,0:0:0:0:
15,161,118342,6,0,P|15:134|23:110,1,50
179,67,118549,1,0,0:0:0:0:
261,86,118653,1,0,0:0:0:0:
373,47,118756,2,0,P|397:56|423:58,1,50
499,187,118963,2,0,P|473:188|448:194,1,50
334,353,119170,5,0,0:0:0:0:
319,265,119273,1,0,0:0:0:0:
250,323,119377,1,0,0:0:0:0:
402,294,119480,1,0,0:0:0:0:
386,208,119584,2,0,P|366:190|344:180,1,50
236,237,119791,2,0,P|210:248|185:251,1,50
15,117,119998,6,0,P|28:78|77:32,1,100
50,197,120308,1,0,0:0:0:0:
4,303,120411,5,0,0:0:0:0:
112,331,120515,1,0,0:0:0:0:
252,192,120618,1,0,0:0:0:0:
143,216,120722,1,0,0:0:0:0:
322,333,120825,6,0,P|370:323|411:283,1,100
248,283,121135,1,0,0:0:0:0:
319,145,121239,2,0,P|341:153|368:154,1,50
230,44,121446,2,0,P|205:47|181:58,1,50
143,216,121653,5,0,0:0:0:0:
229,243,121756,1,0,0:0:0:0:
74,277,121860,2,0,L|63:333,1,50
229,243,122066,1,0,0:0:0:0:
208,153,122170,1,0,0:0:0:0:
126,130,122273,2,0,P|99:133|73:146,1,50
316,58,122480,6,0,L|419:75,1,100
289,330,122791,2,0,L|191:346,1,100
15,169,123101,2,0,L|71:179,1,50
185,67,123308,5,0,0:0:0:0:
267,90,123411,1,0,0:0:0:0:
293,172,123515,1,0,0:0:0:0:
239,240,123618,1,0,0:0:0:0:
98,305,123722,2,0,P|93:329|93:357,1,50
173,188,123929,2,0,P|168:163|156:138,1,50
325,251,124135,6,0,L|438:249,1,100
473,328,124446,1,0,0:0:0:0:
512,188,124549,2,0,L|451:185,1,50
491,113,124756,2,0,L|491:62,1,50
423,24,124963,5,0,0:0:0:0:
391,195,125066,1,0,0:0:0:0:
294,85,125170,5,0,0:0:0:0:
339,25,125273,1,0,0:0:0:0:
232,181,125377,6,0,L|282:172,1,50
320,245,125584,1,0,0:0:0:0:
320,245,125687,1,0,0:0:0:0:
149,231,125791,6,0,L|144:122,1,100
80,275,126101,1,0,0:0:0:0:
66,197,126204,2,0,L|55:138,1,50
225,255,126411,2,0,L|214:324,1,50
305,350,126618,6,0,L|426:360,1,100
487,270,126929,1,0,0:0:0:0:
366,219,127032,2,0,L|360:280,1,50
372,139,127239,2,0,L|378:78,1,50
443,180,127446,6,0,L|272:166,2,150
502,125,128170,1,0,0:0:0:0:
280,39,128273,6,0,L|287:97,1,50
270,288,128480,2,0,L|277:231,1,50
229,167,128687,5,0,0:0:0:0:
412,273,128791,1,0,0:0:0:0:
211,372,128894,1,0,0:0:0:0:
229,167,128998,1,0,0:0:0:0:
315,191,129101,6,0,P|337:270|317:357,1,150
60,190,129515,2,0,P|53:116|77:46,1,150
210,34,129929,2,0,L|156:31,1,50
290,55,130135,1,0,0:0:0:0:
290,55,130342,5,0,0:0:0:0:
275,144,130446,1,0,0:0:0:0:
368,16,130549,5,0,0:0:0:0:
396,133,130653,1,0,0:0:0:0:
488,79,130756,6,0,L|459:283,1,200
459,277,131377,2,0,L|403:268,1,50
317,354,131584,6,0,L|313:247,1,100
298,177,131894,1,0,0:0:0:0:
237,299,131998,2,0,L|240:360,1,50
227,218,132204,2,0,L|223:160,1,50
88,226,132411,6,0,P|125:241|156:355,1,150
50,355,132825,2,0,P|67:323|89:307,1,50
185,187,133032,2,0,L|172:134,1,50
386,299,133239,6,0,P|359:273|243:259,1,150
274,370,133653,2,0,P|282:346|297:323,1,50
433,179,133860,2,0,P|406:188|375:209,1,50
165,359,134066,5,0,0:0:0:0:
256,192,135722,12,0,137377,0:0:0:0:
