osu file format v14

[General]
AudioFilename: Existence.mp3
AudioLeadIn: 0
PreviewTime: 25653
Countdown: 0
SampleSet: Normal
StackLeniency: 0.7
Mode: 0
LetterboxInBreaks: 1
WidescreenStoryboard: 0

[Editor]
DistanceSpacing: 0.5
BeatDivisor: 4
GridSize: 4
TimelineZoom: 1.5

[Metadata]
Title:Existence
TitleUnicode:Existence
Artist:Muryoku P
ArtistUnicode:無力P
Creator:Spring
Version:Esistenza
Source:
Tags:Eschatology 無力P Muryoku P C88
BeatmapID:778267
BeatmapSetID:353257

[Difficulty]
HPDrainRate:6
CircleSize:4
OverallDifficulty:9
ApproachRate:9.5
SliderMultiplier:2.6
SliderTickRate:1

[Events]
//Background and Video events
0,0,"52351278_p0.jpg",0,0
//Break Periods
2,53141,62347
2,137555,143451
//Storyboard Layer 0 (Background)
//Storyboard Layer 1 (Fail)
//Storyboard Layer 2 (Pass)
//Storyboard Layer 3 (Foreground)
//Storyboard Sound Samples

[TimingPoints]
-24,413.793103448276,4,1,1,80,1,0
79,-142.857142857143,4,1,1,5,0,0
6596,-142.857142857143,4,1,1,80,0,0
25631,-400,4,1,1,5,0,0
26355,-100,4,1,1,80,0,1
28941,-66.6666666666667,4,1,1,80,0,0
29355,-100,4,1,1,5,0,0
29769,-100,4,1,1,80,0,1
39700,-66.6666666666667,4,1,1,80,0,0
40113,-100,4,1,1,5,0,0
40527,-100,4,1,1,80,0,1
42182,-66.6666666666667,4,1,1,80,0,0
42596,-100,4,1,1,5,0,0
43010,-100,4,1,1,80,0,1
52941,-100,4,1,1,5,0,0
66182,-100,4,1,1,80,0,0
72803,-142.857142857143,4,1,1,80,0,0
84389,-100,4,1,1,80,0,1
86872,-66.6666666666667,4,1,1,80,0,0
87286,-100,4,1,1,5,0,0
87700,-100,4,1,1,80,0,1
97631,-66.6666666666667,4,1,1,80,0,0
98044,-100,4,1,1,5,0,0
98458,-100,4,1,1,80,0,1
110665,-100,4,1,1,5,0,1
110872,-142.857142857143,4,1,1,50,0,0

[HitObjects]
68,108,6596,6,0,L|252:128,1,181.999994445801
296,208,7217,2,0,L|288:260,1,45.4999986114502
200,324,7424,1,0,0:0:0:0:
200,324,7527,2,0,P|272:308|328:336,1,136.499995834351
326,334,7941,1,0,0:0:0:0:
326,334,8044,1,0,0:0:0:0:
326,334,8148,1,0,0:0:0:0:
416,312,8251,6,0,L|400:128,1,181.999994445801
296,52,8872,2,0,P|321:52|344:72,1,45.4999986114502
296,136,9079,2,0,B|264:144|264:144|244:136|244:136|216:152|152:128,1,136.499995834351
148,124,9493,2,0,L|92:132,3,45.4999986114502
152,140,9907,6,0,P|64:164|60:84,1,181.999994445801
184,56,10527,2,0,L|240:48,1,45.4999986114502
272,124,10734,1,0,0:0:0:0:
272,124,10838,2,0,P|332:132|396:88,1,136.499995834351
393,92,11355,2,0,L|400:152,1,45.4999986114502
320,56,11562,5,0,0:0:0:0:
318,69,11665,1,0,0:0:0:0:
317,83,11768,1,0,0:0:0:0:
316,96,11872,1,0,0:0:0:0:
314,110,11975,1,0,0:0:0:0:
313,123,12079,1,0,0:0:0:0:
312,137,12182,1,0,0:0:0:0:
311,151,12286,1,0,0:0:0:0:
308,168,12389,2,0,B|360:156|360:156|308:240|384:288|328:328|328:328|300:296,1,272.999991668701
232,276,13113,1,0,0:0:0:0:
156,288,13217,6,0,L|148:336,2,45.4999986114502
64,184,13631,2,0,L|68:240,3,45.4999986114502
52,84,14044,2,0,P|104:92|160:76,1,90.9999972229005
212,64,14355,1,0,0:0:0:0:
280,44,14458,2,0,P|324:36|369:44,1,90.9999972229005
436,176,14872,6,0,L|444:132,2,45.4999986114502
344,280,15286,2,0,L|336:232,3,45.4999986114502
244,176,15700,1,0,0:0:0:0:
204,328,15907,1,0,0:0:0:0:
128,340,16010,1,0,0:0:0:0:
64,296,16113,1,0,0:0:0:0:
68,284,16217,1,0,0:0:0:0:
72,272,16320,1,0,0:0:0:0:
76,260,16424,1,0,0:0:0:0:
80,248,16527,6,0,L|72:152,1,90.9999972229005
244,176,16941,2,0,L|252:80,1,90.9999972229005
340,120,17355,1,0,0:0:0:0:
152,100,17562,1,0,0:0:0:0:
324,124,17769,1,0,0:0:0:0:
340,120,17872,1,0,0:0:0:0:
356,116,17976,1,0,0:0:0:0:
372,112,18079,1,0,0:0:0:0:
388,108,18182,5,0,0:0:0:0:
324,60,18286,1,0,0:0:0:0:
248,52,18389,1,0,0:0:0:0:
172,68,18493,1,0,0:0:0:0:
116,124,18596,1,0,0:0:0:0:
92,200,18700,1,0,0:0:0:0:
112,276,18803,1,0,0:0:0:0:
160,336,18907,1,0,0:0:0:0:
232,360,19010,2,0,L|288:356,1,45.4999986114502
376,296,19217,2,0,L|330:299,1,45.4999986114502
248,340,19424,2,0,L|304:336,1,45.4999986114502
392,276,19631,2,0,L|346:279,1,45.4999986114502
308,208,19838,6,0,L|300:304,1,90.9999972229005
244,64,20251,1,0,0:0:0:0:
244,64,20355,1,0,0:0:0:0:
244,64,20458,1,0,0:0:0:0:
244,64,20562,1,0,0:0:0:0:
244,64,20665,2,0,L|236:160,1,90.9999972229005
132,152,21079,1,0,0:0:0:0:
132,152,21183,1,0,0:0:0:0:
132,152,21286,1,0,0:0:0:0:
132,152,21390,1,0,0:0:0:0:
132,152,21493,6,0,P|80:160|40:144,1,90.9999972229005
244,64,21907,1,0,0:0:0:0:
244,64,22010,1,0,0:0:0:0:
244,64,22113,1,0,0:0:0:0:
244,64,22217,1,0,0:0:0:0:
244,64,22320,2,0,L|404:72,1,136.499995834351
352,144,22734,1,0,0:0:0:0:
376,216,22838,1,0,0:0:0:0:
344,288,22941,1,0,0:0:0:0:
364,360,23044,1,0,0:0:0:0:
364,360,23148,6,0,L|376:264,1,90.9999972229005
240,304,23562,2,0,L|232:212,1,90.9999972229005
104,240,23976,2,0,L|116:144,1,90.9999972229005
140,36,24389,2,0,P|184:56|236:48,1,90.9999972229005
276,108,24803,5,0,0:0:0:0:
274,121,24907,1,0,0:0:0:0:
270,133,25010,1,0,0:0:0:0:
266,145,25113,1,0,0:0:0:0:
262,157,25217,1,0,0:0:0:0:
266,169,25320,1,0,0:0:0:0:
270,181,25424,1,0,0:0:0:0:
274,193,25527,1,0,0:0:0:0:
278,201,25631,6,0,B|178:209,1,97.5
96,200,26355,1,0,0:0:0:0:
96,200,26458,6,0,L|112:332,1,130
212,292,26872,2,0,P|240:280|284:288,1,65
360,308,27079,2,0,P|400:312|432:300,1,65
388,228,27286,1,0,0:0:0:0:
360,308,27389,1,0,0:0:0:0:
296,152,27493,1,0,0:0:0:0:
304,236,27596,1,0,0:0:0:0:
220,200,27700,2,0,P|152:216|68:124,1,195
64,120,28113,6,0,L|132:112,1,65
296,152,28320,2,0,L|364:144,1,65
128,112,28527,2,0,L|196:104,1,65
360,144,28734,2,0,L|428:136,1,65
216,68,28941,6,0,B|156:176|240:252|240:252|200:288|200:288|152:264,1,292.50001115799
124,212,29355,6,0,P|96:292|184:344,1,195
176,345,29769,5,0,0:0:0:0:
216,68,29976,1,0,0:0:0:0:
216,68,30079,1,0,0:0:0:0:
416,140,30389,2,0,L|412:72,1,65
380,56,30596,1,0,0:0:0:0:
368,132,30700,1,0,0:0:0:0:
356,208,30803,1,0,0:0:0:0:
344,284,30907,1,0,0:0:0:0:
328,360,31010,1,0,0:0:0:0:
324,340,31113,1,0,0:0:0:0:
320,320,31217,1,0,0:0:0:0:
316,300,31320,1,0,0:0:0:0:
312,280,31424,6,0,B|248:292|248:292|184:268|184:268|120:280,1,195
108,268,31838,2,0,P|100:296|104:344,1,65
96,200,32044,2,0,P|88:228|92:276,1,65
172,196,32251,2,0,P|172:176|168:152,6,32.5
120,100,32665,2,0,B|272:112|272:112|268:136|248:156,1,195
172,196,33079,6,0,P|104:216|44:172,1,130
120,100,33493,2,0,L|204:104,1,65
352,96,33700,2,0,L|436:100,1,65
316,172,33907,1,0,0:0:0:0:
268,104,34010,1,0,0:0:0:0:
352,96,34113,2,0,L|348:168,1,65
328,304,34320,2,0,P|240:268|144:308,1,195
136,308,34734,6,0,L|140:236,1,65
108,128,34941,2,0,L|112:56,1,65
112,336,35148,2,0,L|116:264,1,65
84,156,35355,2,0,L|88:84,1,65
160,48,35562,1,0,0:0:0:0:
236,36,35665,1,0,0:0:0:0:
312,48,35769,1,0,0:0:0:0:
380,84,35872,1,0,0:0:0:0:
432,144,35976,1,0,0:0:0:0:
420,148,36079,1,0,0:0:0:0:
408,152,36182,1,0,0:0:0:0:
396,156,36286,1,0,0:0:0:0:
384,160,36389,5,0,0:0:0:0:
312,48,36596,1,0,0:0:0:0:
312,48,36700,1,0,0:0:0:0:
284,264,37010,1,0,0:0:0:0:
236,36,37217,1,0,0:0:0:0:
236,36,37320,1,0,0:0:0:0:
236,36,37424,2,0,P|152:92|68:56,1,195
71,60,37838,2,0,L|80:128,1,65
44,296,38044,5,0,0:0:0:0:
192,264,38251,1,0,0:0:0:0:
116,256,38458,1,0,0:0:0:0:
192,264,38562,1,0,0:0:0:0:
268,272,38665,1,0,0:0:0:0:
412,248,38872,1,0,0:0:0:0:
410,235,38975,1,0,0:0:0:0:
409,222,39078,1,0,0:0:0:0:
408,209,39182,1,0,0:0:0:0:
407,196,39285,1,0,0:0:0:0:
406,183,39389,1,0,0:0:0:0:
405,170,39492,1,0,0:0:0:0:
404,157,39596,1,0,0:0:0:0:
404,144,39700,6,0,P|312:272|396:356,1,292.50001115799
386,353,40113,6,0,L|304:344,1,65
240,308,40320,2,0,P|204:300|164:312,1,65
96,344,40527,6,0,L|104:212,1,130
64,48,40941,1,0,0:0:0:0:
140,68,41044,1,0,0:0:0:0:
220,68,41148,1,0,0:0:0:0:
296,48,41251,1,0,0:0:0:0:
368,76,41355,1,0,0:0:0:0:
356,80,41458,1,0,0:0:0:0:
344,84,41562,1,0,0:0:0:0:
332,88,41665,1,0,0:0:0:0:
412,96,41769,5,0,0:0:0:0:
332,88,41872,1,0,0:0:0:0:
408,116,41976,1,0,0:0:0:0:
328,108,42079,1,0,0:0:0:0:
360,180,42182,6,0,B|336:276|336:276|364:324|364:324|288:372|220:312,1,292.50001115799
168,272,42596,2,0,B|180:200|136:144|136:144|128:212,1,195
124,336,43010,5,0,0:0:0:0:
92,72,43217,1,0,0:0:0:0:
92,72,43320,1,0,0:0:0:0:
300,104,43631,2,0,L|384:92,1,65
392,68,43838,1,0,0:0:0:0:
316,80,43941,1,0,0:0:0:0:
240,76,44044,1,0,0:0:0:0:
168,44,44148,1,0,0:0:0:0:
92,72,44251,1,0,0:0:0:0:
96,84,44355,1,0,0:0:0:0:
100,96,44458,1,0,0:0:0:0:
104,108,44562,1,0,0:0:0:0:
64,200,44665,6,0,P|100:196|144:208,1,65
304,304,44872,1,0,0:0:0:0:
196,344,45079,1,0,0:0:0:0:
200,332,45182,1,0,0:0:0:0:
204,320,45286,1,0,0:0:0:0:
208,308,45389,1,0,0:0:0:0:
212,296,45493,2,0,L|208:264,6,32.5
192,180,45907,2,0,B|304:220|284:136|384:176,1,195
379,174,46320,6,0,L|368:304,1,130
284,180,46734,2,0,L|276:112,1,65
324,48,46941,2,0,P|356:36|392:44,1,65
208,76,47148,2,0,L|124:72,1,65
24,128,47355,2,0,L|88:131,1,65
220,96,47562,2,0,L|136:92,1,65
36,148,47769,2,0,L|100:151,1,65
112,312,47976,5,0,0:0:0:0:
155,92,48182,1,0,0:0:0:0:
184,264,48389,1,0,0:0:0:0:
188,276,48493,1,0,0:0:0:0:
192,288,48596,1,0,0:0:0:0:
196,300,48700,1,0,0:0:0:0:
264,336,48803,1,0,0:0:0:0:
344,336,48907,1,0,0:0:0:0:
412,304,49010,1,0,0:0:0:0:
452,236,49113,1,0,0:0:0:0:
460,160,49217,1,0,0:0:0:0:
436,88,49320,1,0,0:0:0:0:
376,40,49424,1,0,0:0:0:0:
300,24,49527,1,0,0:0:0:0:
256,192,49631,12,0,52941,0:0:0:0:
256,192,62872,12,0,65976,0:0:0:0:
160,96,66182,6,0,P|204:104|260:92,1,86.6666666666667
320,52,66458,1,0,0:0:0:0:
396,96,66596,2,0,L|496:84,2,86.6666666666667
360,176,67010,6,0,P|352:220|372:260,1,86.6666666666667
432,320,67286,1,0,0:0:0:0:
348,340,67424,1,0,0:0:0:0:
276,292,67562,1,0,0:0:0:0:
188,284,67700,1,0,0:0:0:0:
104,300,67838,6,0,L|92:200,2,86.6666666666667
160,168,68251,2,0,L|172:80,2,86.6666666666667
64,36,68665,6,0,P|52:76|72:132,1,86.6666666666667
171,82,68941,1,0,0:0:0:0:
256,56,69079,2,0,P|296:48|348:64,1,86.6666666666667
436,116,69355,1,0,0:0:0:0:
436,116,69493,6,0,P|404:208|432:296,1,173.333333333333
421,279,69907,1,0,0:0:0:0:
340,308,70044,1,0,0:0:0:0:
256,292,70182,1,0,0:0:0:0:
180,332,70320,2,0,L|196:152,1,173.333333333333
195,159,70734,1,0,0:0:0:0:
116,124,70872,1,0,0:0:0:0:
32,136,71010,1,0,0:0:0:0:
32,136,71148,6,0,L|40:224,1,86.6666666666667
39,222,71424,1,0,0:0:0:0:
116,124,71562,2,0,L|128:36,1,86.6666666666667
127,38,71838,1,0,0:0:0:0:
195,159,71976,2,0,L|203:247,2,86.6666666666667
252,100,72389,2,0,P|336:80|408:136,1,173.333333333333
424,168,72803,6,0,L|416:76,1,90.9999972229005
332,232,73217,2,0,L|324:140,1,90.9999972229005
300,104,73527,1,0,0:0:0:0:
272,68,73631,2,0,L|280:168,1,90.9999972229005
176,132,74044,2,0,L|184:232,1,90.9999972229005
164,264,74355,1,0,0:0:0:0:
148,304,74458,5,0,0:0:0:0:
72,216,74665,1,0,0:0:0:0:
72,216,74769,1,0,0:0:0:0:
72,216,74872,2,0,L|64:125,1,90.9999972229005
120,48,75286,2,0,L|156:56,6,22.7499993057251
216,72,75700,2,0,B|312:64,1,90.9999972229005
436,184,76113,6,0,L|328:176,1,90.9999972229005
352,272,76527,2,0,L|244:264,1,90.9999972229005
220,280,76838,1,0,0:0:0:0:
176,296,76941,2,0,L|184:196,1,90.9999972229005
88,176,77355,2,0,L|84:84,1,90.9999972229005
256,192,77769,12,0,80872,0:0:0:0:
144,96,81079,5,0,0:0:0:0:
152,97,81182,1,0,0:0:0:0:
161,98,81285,1,0,0:0:0:0:
170,100,81389,1,0,0:0:0:0:
179,101,81492,1,0,0:0:0:0:
188,103,81596,1,0,0:0:0:0:
197,104,81699,1,0,0:0:0:0:
206,106,81803,1,0,0:0:0:0:
215,107,81906,1,0,0:0:0:0:
224,108,82010,1,0,0:0:0:0:
233,110,82113,1,0,0:0:0:0:
242,111,82216,1,0,0:0:0:0:
251,113,82320,1,0,0:0:0:0:
260,114,82423,1,0,0:0:0:0:
269,116,82527,1,0,0:0:0:0:
278,117,82630,1,0,0:0:0:0:
288,120,82734,6,0,B|356:124|416:80|416:80|380:156|424:208|424:208|368:260|436:324|436:324|388:312|336:308,1,500.499984725953
345,308,83976,1,0,0:0:0:0:
108,248,84389,5,0,0:0:0:0:
108,248,84493,1,0,0:0:0:0:
108,248,84596,2,0,L|116:312,1,65
152,168,84803,2,0,L|144:232,1,65
116,64,85010,2,0,L|124:128,1,65
200,148,85217,1,0,0:0:0:0:
276,128,85320,1,0,0:0:0:0:
316,60,85424,1,0,0:0:0:0:
388,88,85527,1,0,0:0:0:0:
384,100,85631,1,0,0:0:0:0:
380,112,85734,1,0,0:0:0:0:
376,124,85838,1,0,0:0:0:0:
372,136,85941,1,0,0:0:0:0:
368,148,86044,6,0,P|304:160|256:96,1,130
192,52,86458,2,0,L|184:120,1,65
228,224,86665,2,0,L|220:292,1,65
192,52,86872,6,0,B|180:136|180:136|256:108|308:172|308:172|320:140|348:116,1,292.50001115799
408,80,87286,2,0,P|448:88|416:220,1,195
304,164,87700,5,0,0:0:0:0:
364,344,87907,1,0,0:0:0:0:
364,344,88010,1,0,0:0:0:0:
184,284,88320,2,0,L|116:296,1,65
92,332,88527,1,0,0:0:0:0:
120,260,88631,1,0,0:0:0:0:
116,184,88734,1,0,0:0:0:0:
72,120,88838,1,0,0:0:0:0:
120,60,88941,1,0,0:0:0:0:
132,64,89044,1,0,0:0:0:0:
144,68,89148,1,0,0:0:0:0:
156,72,89251,1,0,0:0:0:0:
168,76,89355,6,0,B|232:68|232:68|296:88|296:88|368:76,1,195
380,96,89769,2,0,P|384:132|368:168,1,65
324,268,89976,2,0,L|312:200,1,65
236,276,90182,2,0,L|232:316,6,32.5
160,336,90596,2,0,B|152:200|152:200|180:188|180:188|208:196,1,195
292,224,91010,6,0,P|360:232|416:212,1,130
432,56,91424,2,0,L|428:120,1,65
364,260,91631,2,0,L|360:324,1,65
292,224,91838,1,0,0:0:0:0:
356,180,91941,1,0,0:0:0:0:
364,260,92044,2,0,L|428:252,1,65
192,304,92251,2,0,L|256:296,1,65
72,240,92458,2,0,L|136:232,1,65
216,84,92665,6,0,P|244:148|220:200,1,130
88,124,93079,2,0,P|80:92|88:56,1,65
216,84,93286,2,0,L|296:92,1,65
360,60,93493,1,0,0:0:0:0:
372,56,93596,1,0,0:0:0:0:
384,52,93700,1,0,0:0:0:0:
396,48,93803,1,0,0:0:0:0:
408,44,93907,1,0,0:0:0:0:
384,116,94010,1,0,0:0:0:0:
416,184,94113,1,0,0:0:0:0:
400,260,94217,1,0,0:0:0:0:
440,328,94320,5,0,0:0:0:0:
220,288,94527,1,0,0:0:0:0:
220,288,94631,1,0,0:0:0:0:
264,144,94941,1,0,0:0:0:0:
284,344,95148,1,0,0:0:0:0:
284,344,95251,1,0,0:0:0:0:
284,344,95355,2,0,P|176:308|92:340,1,195
102,332,95769,6,0,L|112:268,1,65
132,104,95976,5,0,0:0:0:0:
264,144,96182,1,0,0:0:0:0:
112,184,96389,1,0,0:0:0:0:
188,164,96493,1,0,0:0:0:0:
264,144,96596,1,0,0:0:0:0:
444,100,96803,1,0,0:0:0:0:
432,96,96907,1,0,0:0:0:0:
420,92,97010,1,0,0:0:0:0:
408,88,97113,1,0,0:0:0:0:
396,84,97217,1,0,0:0:0:0:
384,80,97320,1,0,0:0:0:0:
372,76,97424,1,0,0:0:0:0:
360,72,97527,1,0,0:0:0:0:
348,68,97631,6,0,B|356:144|356:144|336:216|336:216|348:280|348:280|312:296|272:272,1,292.50001115799
192,260,98044,6,0,P|164:264|132:296,1,65
76,232,98251,2,0,P|59:254|59:299,1,65
196,340,98458,6,0,L|192:192,1,130
100,88,98872,1,0,0:0:0:0:
176,104,98976,1,0,0:0:0:0:
252,100,99079,1,0,0:0:0:0:
324,76,99182,1,0,0:0:0:0:
392,116,99286,1,0,0:0:0:0:
388,104,99389,1,0,0:0:0:0:
384,92,99493,1,0,0:0:0:0:
380,80,99596,1,0,0:0:0:0:
324,156,99700,5,0,0:0:0:0:
404,168,99803,1,0,0:0:0:0:
328,168,99907,1,0,0:0:0:0:
408,180,100010,1,0,0:0:0:0:
360,244,100113,2,0,B|336:304|336:304|276:252|208:296,1,195
144,320,100527,2,0,B|112:256|144:184|144:184|164:244,1,195
204,364,100941,5,0,0:0:0:0:
92,120,101148,1,0,0:0:0:0:
92,120,101251,1,0,0:0:0:0:
208,36,101562,2,0,L|216:104,1,65
184,124,101769,1,0,0:0:0:0:
260,120,101872,1,0,0:0:0:0:
324,164,101976,1,0,0:0:0:0:
400,156,102079,1,0,0:0:0:0:
440,88,102182,1,0,0:0:0:0:
444,100,102286,1,0,0:0:0:0:
448,112,102389,1,0,0:0:0:0:
452,124,102493,1,0,0:0:0:0:
456,136,102596,6,0,P|460:168|444:204,1,65
260,120,102803,1,0,0:0:0:0:
320,312,103010,1,0,0:0:0:0:
324,300,103113,1,0,0:0:0:0:
328,288,103217,1,0,0:0:0:0:
332,276,103320,1,0,0:0:0:0:
336,264,103424,2,0,L|296:268,6,32.5
232,312,103838,2,0,P|160:324|136:220,1,195
168,140,104251,6,0,L|24:160,1,130
316,192,104665,2,0,L|240:184,1,65
248,104,104872,2,0,P|244:72|264:40,1,65
180,220,105079,2,0,L|172:300,1,65
320,160,105286,2,0,L|326:95,1,65
196,236,105493,2,0,L|188:316,1,65
304,140,105700,2,0,L|310:75,1,65
172,88,105907,5,0,0:0:0:0:
288,248,106113,1,0,0:0:0:0:
120,296,106320,1,0,0:0:0:0:
108,292,106424,1,0,0:0:0:0:
96,288,106527,1,0,0:0:0:0:
84,284,106631,1,0,0:0:0:0:
72,280,106734,1,0,0:0:0:0:
132,228,106838,1,0,0:0:0:0:
208,204,106941,1,0,0:0:0:0:
284,200,107044,1,0,0:0:0:0:
360,212,107148,1,0,0:0:0:0:
356,224,107251,1,0,0:0:0:0:
352,236,107355,1,0,0:0:0:0:
348,248,107458,1,0,0:0:0:0:
256,192,107562,12,0,110665,0:0:0:0:
164,72,110872,6,0,P|248:108|340:76,1,181.999994445801
420,108,111700,1,0,0:0:0:0:
331,82,112113,1,0,0:0:0:0:
420,108,112320,1,0,0:0:0:0:
356,168,112527,6,0,L|376:360,1,181.999994445801
296,312,113355,2,0,P|248:300|188:316,1,90.9999972229005
132,344,113769,2,0,P|84:356|24:340,1,90.9999972229005
80,152,114182,5,0,0:0:0:0:
80,152,114493,1,0,0:0:0:0:
248,88,115010,2,0,L|148:80,2,90.9999972229005
432,176,115838,5,0,0:0:0:0:
352,108,116251,1,0,0:0:0:0:
248,88,116665,2,0,P|228:136|232:184,2,90.9999972229005
360,276,117493,6,0,L|180:296,1,181.999994445801
88,236,118320,1,0,0:0:0:0:
68,320,118734,1,0,0:0:0:0:
88,236,118941,1,0,0:0:0:0:
160,188,119148,6,0,P|188:100|132:36,1,181.999994445801
236,76,119976,2,0,L|328:64,2,90.9999972229005
80,128,120803,5,0,0:0:0:0:
236,76,121217,1,0,0:0:0:0:
236,76,121424,1,0,0:0:0:0:
208,160,121631,2,0,P|264:232|360:216,1,181.999994445801
424,196,122251,2,0,L|420:260,1,45.4999986114502
436,180,122458,6,0,L|428:320,2,136.499995834351
412,76,123286,1,0,0:0:0:0:
388,80,123389,1,0,0:0:0:0:
364,84,123493,1,0,0:0:0:0:
340,88,123596,1,0,0:0:0:0:
316,92,123700,2,0,L|212:84,1,90.9999972229005
96,76,124113,6,0,P|52:160|96:248,1,181.999994445801
216,172,124941,1,0,0:0:0:0:
196,260,125355,1,0,0:0:0:0:
216,172,125562,1,0,0:0:0:0:
160,104,125769,6,0,L|172:308,1,181.999994445801
280,248,126596,2,0,P|324:256|368:232,1,90.9999972229005
424,168,127010,2,0,L|416:68,1,90.9999972229005
304,132,127424,5,0,0:0:0:0:
152,88,127734,1,0,0:0:0:0:
304,132,128044,1,0,0:0:0:0:
232,60,128251,2,0,L|228:152,2,90.9999972229005
188,232,129079,5,0,0:0:0:0:
100,248,129493,1,0,0:0:0:0:
244,304,129907,2,0,L|344:296,2,90.9999972229005
100,248,130734,6,0,P|88:160|144:92,1,181.999994445801
304,176,131562,1,0,0:0:0:0:
220,196,131976,1,0,0:0:0:0:
304,176,132182,1,0,0:0:0:0:
240,112,132389,6,0,L|256:308,1,181.999994445801
380,216,133217,2,0,L|484:204,2,90.9999972229005
256,192,134044,12,0,137355,0:0:0:0:
256,192,143976,12,0,150493,0:0:0:0:
