osu file format v14

[General]
AudioFilename: Rings of Akhaten - Long Song - Doctor Who.mp3
AudioLeadIn: 0
PreviewTime: 82279
Countdown: 1
SampleSet: None
StackLeniency: 0.7
Mode: 0
LetterboxInBreaks: 1
WidescreenStoryboard: 0

[Editor]
DistanceSpacing: 1
BeatDivisor: 4
GridSize: 32
TimelineZoom: 1

[Metadata]
Title:The Long Song
TitleUnicode:The Long Song
Artist:Murray Gold
ArtistUnicode:Murray Gold
Creator:Ash Marley
Version:Normal
Source:Doctor Who - The Rings of Akhaten
Tags:Doctor Who
BeatmapID:652905
BeatmapSetID:289694

[Difficulty]
HPDrainRate:7
CircleSize:4
OverallDifficulty:3
ApproachRate:8
SliderMultiplier:2
SliderTickRate:2

[Events]
//Background and Video events
0,0,"vlcsnap-2015-02-28-18h04m16s107.png",0,0
//Break Periods
2,157604,164654
2,195354,200654
//Storyboard Layer 0 (Background)
//Storyboard Layer 1 (Fail)
//Storyboard Layer 2 (Pass)
//Storyboard Layer 3 (Foreground)
//Storyboard Sound Samples

[TimingPoints]
37404.2924629606,500,4,1,0,100,1,0

[HitObjects]
256,192,30654,12,0,32904,0:0:0:0:
128,64,34904,5,4,0:0:0:0:
64,256,35404,1,8,0:0:0:0:
160,320,35654,1,8,0:0:0:0:
256,256,35904,1,8,0:0:0:0:
416,224,36404,1,4,0:0:0:0:
256,352,36904,5,8,0:0:0:0:
256,256,37154,1,8,0:0:0:0:
256,160,37404,2,2,B|288:96|352:64|416:96|448:96|448:128,2,200
64,64,38904,1,8,0:0:0:0:
160,96,39154,1,8,0:0:0:0:
256,64,39404,1,8,0:0:0:0:
96,128,39904,5,8,0:0:0:0:
96,224,40154,1,8,0:0:0:0:
96,320,40404,2,2,B|160:320|192:320|256:352|288:352|320:352|384:320|416:320|512:320,1,400
288,288,41904,1,8,0:0:0:0:
384,224,42154,1,8,0:0:0:0:
448,128,42404,1,8,0:0:0:0:
352,320,42904,1,4,0:0:0:0:
160,320,43404,6,2,B|128:256|96:192|96:96|160:64|256:64|288:160|288:192,1,400
448,320,44904,1,8,0:0:0:0:
480,224,45154,1,8,0:0:0:0:
416,160,45404,2,2,B|416:224|384:256|352:352,1,200
256,352,46154,1,4,0:0:0:0:
160,352,46404,2,2,B|160:288|192:256|224:160,1,200
320,160,47154,1,4,0:0:0:0:
416,160,47404,2,2,B|352:256|288:288|256:320,1,200
320,128,48404,5,8,0:0:0:0:
320,224,48654,1,8,0:0:0:0:
320,320,48904,1,8,0:0:0:0:
64,256,49404,1,4,0:0:0:0:
256,320,49904,2,2,B|288:256|320:160|320:128,1,200
128,64,50904,1,4,0:0:0:0:
320,64,51404,6,2,B|224:96|192:192|160:256|32:352,1,400
96,160,52904,1,8,0:0:0:0:
192,96,53154,1,8,0:0:0:0:
288,32,53404,1,8,0:0:0:0:
128,32,53904,1,4,0:0:0:0:
96,224,54404,6,2,B|160:128|224:64|288:64|416:96|448:160|416:160,1,400
224,224,55904,1,8,0:0:0:0:
288,288,56154,1,8,0:0:0:0:
352,352,56404,1,8,0:0:0:0:
480,288,56904,1,4,0:0:0:0:
352,128,57404,6,2,P|352:256|320:320,1,200
256,32,58404,1,4,0:0:0:0:
128,192,58904,2,2,P|128:256|256:256,1,200
448,320,59904,5,8,0:0:0:0:
384,224,60154,1,8,0:0:0:0:
288,160,60404,1,8,0:0:0:0:
128,288,60904,1,4,0:0:0:0:
320,320,61404,5,8,0:0:0:0:
320,224,61654,1,8,0:0:0:0:
352,128,61904,2,2,B|448:192|448:224|448:320,2,200
160,96,63404,1,8,0:0:0:0:
160,192,63654,1,8,0:0:0:0:
160,288,63904,1,8,0:0:0:0:
256,96,64404,2,2,L|256:320,1,200
448,320,65404,1,8,0:0:0:0:
384,224,65654,1,8,0:0:0:0:
320,320,65904,1,8,0:0:0:0:
160,224,66404,6,2,B|256:160|256:160|288:128|320:64,1,200
480,160,67404,2,2,B|384:224|384:224|352:256|320:320,1,200
320,96,68404,1,4,0:0:0:0:
256,288,68904,5,8,0:0:0:0:
160,256,69154,1,8,0:0:0:0:
96,192,69404,1,8,0:0:0:0:
192,352,69904,1,4,0:0:0:0:
192,160,70404,6,2,B|256:192|288:192|352:192|416:128,1,200
192,64,71404,2,2,B|128:96|96:160|96:224|32:224|32:224,1,200
224,320,72404,1,8,0:0:0:0:
320,288,72654,1,8,0:0:0:0:
352,192,72904,1,8,0:0:0:0:
160,96,73404,6,2,B|256:160|224:256|128:224,1,200
320,128,74404,1,4,0:0:0:0:
160,256,74904,1,8,0:0:0:0:
256,288,75154,1,8,0:0:0:0:
352,320,75404,1,8,0:0:0:0:
416,128,75904,5,4,0:0:0:0:
256,224,76404,1,8,0:0:0:0:
192,160,76654,1,8,0:0:0:0:
128,96,76904,1,8,0:0:0:0:
256,192,77404,12,0,79904,0:0:0:0:
256,352,82404,6,2,L|256:224|256:128,1,200
256,64,83154,1,4,0:0:0:0:
160,64,83404,2,2,B|160:160|160:192|96:288|96:288,1,200
288,192,84404,1,8,0:0:0:0:
192,224,84654,1,8,0:0:0:0:
160,320,84904,1,8,0:0:0:0:
352,352,85404,6,2,B|320:288|352:256|416:256|448:256|480:256,1,200
288,288,86404,1,8,0:0:0:0:
224,352,86654,1,8,0:0:0:0:
128,352,86904,1,8,0:0:0:0:
224,192,87404,2,2,B|128:192|96:160|96:64,1,200
288,32,88404,1,4,0:0:0:0:
448,160,88904,5,8,0:0:0:0:
384,64,89154,1,8,0:0:0:0:
480,32,89404,1,8,0:0:0:0:
288,32,89904,2,2,B|224:32|192:32|192:96|96:64,1,200
288,160,90904,1,4,0:0:0:0:
480,96,91404,2,2,B|480:160|480:192|448:192|448:224|416:224|352:224|352:224,2,200
288,32,92904,5,8,0:0:0:0:
224,96,93154,1,8,0:0:0:0:
160,32,93404,1,8,0:0:0:0:
224,224,93904,1,4,0:0:0:0:
32,320,94404,1,8,0:0:0:0:
128,320,94654,1,8,0:0:0:0:
224,320,94904,1,8,0:0:0:0:
96,160,95404,6,2,P|192:160|288:64,1,200
448,192,96404,1,8,0:0:0:0:
448,288,96654,1,8,0:0:0:0:
352,352,96904,2,2,L|192:192,1,200
64,64,97904,1,4,0:0:0:0:
256,64,98404,5,8,0:0:0:0:
160,96,98654,1,8,0:0:0:0:
96,192,98904,2,2,B|96:288|96:288|96:320|96:320|416:320|416:320,1,400
480,160,100404,1,4,0:0:0:0:
320,256,100904,1,8,0:0:0:0:
416,320,101154,1,8,0:0:0:0:
320,352,101404,1,8,0:0:0:0:
480,224,101904,6,2,L|480:0,1,200
288,128,102904,1,4,0:0:0:0:
416,256,103404,2,2,B|352:288|320:288|256:288|192:256|192:256,1,200
224,64,104404,1,8,0:0:0:0:
192,160,104654,1,8,0:0:0:0:
160,256,104904,1,8,0:0:0:0:
64,96,105404,1,4,0:0:0:0:
64,288,105904,5,8,0:0:0:0:
96,192,106154,1,8,0:0:0:0:
160,128,106404,2,2,P|224:96|352:96,1,200
416,160,107154,1,4,0:0:0:0:
384,256,107404,2,2,P|320:288|192:288,1,200
128,224,108154,1,4,0:0:0:0:
160,128,108404,2,2,P|224:96|352:96,1,200
416,160,109154,1,8,0:0:0:0:
416,256,109404,1,8,0:0:0:0:
320,192,109654,1,4,0:0:0:0:
448,96,109904,5,8,0:0:0:0:
416,192,110154,1,4,0:0:0:0:
352,256,110404,2,2,P|288:288|160:288,1,200
96,224,111154,1,4,0:0:0:0:
128,128,111404,2,2,P|192:96|320:96,1,200
384,160,112154,1,4,0:0:0:0:
352,256,112404,2,2,P|288:288|160:288,1,200
96,224,113154,1,4,0:0:0:0:
160,160,113404,2,2,P|224:128|320:32,1,200
128,128,114404,5,8,0:0:0:0:
224,128,114654,1,8,0:0:0:0:
320,128,114904,1,8,0:0:0:0:
448,288,115404,1,4,0:0:0:0:
288,160,115904,1,8,0:0:0:0:
192,96,116154,1,8,0:0:0:0:
96,160,116404,1,8,0:0:0:0:
32,352,116904,5,4,0:0:0:0:
224,288,117404,2,2,B|224:192|160:128|64:192|64:192,1,200
288,288,118404,2,2,B|288:192|352:128|448:192|448:192,1,200
256,32,119404,2,2,B|256:64|256:96|224:128|256:160|256:192|256:192|256:256,1,200
256,320,120154,1,4,0:0:0:0:
352,320,120404,2,2,B|352:288|352:256|320:224|352:192|352:160|352:160|352:96,1,200
352,32,121154,1,4,0:0:0:0:
256,32,121404,6,2,B|192:64|128:96|160:192|128:256|32:352,1,400
224,320,122904,1,8,0:0:0:0:
288,256,123154,1,8,0:0:0:0:
352,192,123404,1,8,0:0:0:0:
224,64,123904,1,4,0:0:0:0:
416,128,124404,6,2,B|416:192|416:256|384:320|352:320|320:320,1,200
256,320,125154,1,4,0:0:0:0:
160,320,125404,2,2,B|160:256|160:192|192:128|224:128|256:128,1,200
320,128,126154,1,4,0:0:0:0:
320,32,126404,2,2,B|256:32|192:32|128:64|128:96|128:128,1,200
128,192,127154,1,4,0:0:0:0:
128,288,127404,6,2,B|192:288|224:288|256:320|288:320|320:320|352:288|320:288,1,200
352,96,128404,2,2,B|352:160|384:192|384:224|384:256|416:320,1,200
224,352,129404,2,2,B|224:288|192:288|192:256|224:256|224:192|192:160,2,200
384,352,130904,1,8,0:0:0:0:
384,256,131154,1,8,0:0:0:0:
384,160,131404,1,8,0:0:0:0:
160,32,131904,5,4,0:0:0:0:
352,64,132404,1,8,0:0:0:0:
320,160,132654,1,8,0:0:0:0:
256,224,132904,1,8,0:0:0:0:
224,32,133404,2,2,B|224:96|192:160|160:224,1,200
352,256,134404,1,4,0:0:0:0:
448,96,134904,1,4,0:0:0:0:
448,288,135404,1,4,0:0:0:0:
256,320,135904,5,8,0:0:0:0:
160,288,136154,1,8,0:0:0:0:
96,224,136404,2,2,P|64:160|160:64,1,200
256,224,137404,2,2,P|320:192|416:288,1,200
448,64,138404,1,4,0:0:0:0:
448,256,138904,5,8,0:0:0:0:
416,352,139154,1,8,0:0:0:0:
320,320,139404,1,8,0:0:0:0:
224,160,139904,1,4,0:0:0:0:
416,128,140404,1,8,0:0:0:0:
352,192,140654,1,8,0:0:0:0:
448,256,140904,2,2,B|448:320|384:320|288:320|256:320|256:320,2,200
384,64,142404,6,2,B|416:128|384:192|352:288|352:288,2,200
192,32,143904,1,4,0:0:0:0:
96,192,144404,1,8,0:0:0:0:
96,288,144654,1,8,0:0:0:0:
192,352,144904,1,8,0:0:0:0:
320,192,145404,2,2,B|256:224|192:224|160:192|160:128,1,200
384,32,146404,1,8,0:0:0:0:
320,96,146654,1,8,0:0:0:0:
224,96,146904,1,8,0:0:0:0:
96,32,147404,5,4,0:0:0:0:
288,32,147904,1,8,0:0:0:0:
352,96,148154,1,8,0:0:0:0:
320,192,148404,2,2,B|384:192|416:160|480:64,1,200
384,32,149154,1,4,0:0:0:0:
288,32,149404,2,2,B|224:32|192:64|128:160,1,200
288,288,150404,1,4,0:0:0:0:
416,128,150904,1,8,0:0:0:0:
416,224,151154,1,8,0:0:0:0:
416,320,151404,1,8,0:0:0:0:
480,128,151904,5,4,0:0:0:0:
288,64,152404,2,2,B|224:96|224:160|256:224|192:256,1,200
192,320,153154,1,4,0:0:0:0:
128,256,153404,2,2,B|64:224|64:160|96:96|32:64,1,200
256,32,154404,5,4,0:0:0:0:
160,192,154904,2,2,B|192:256|256:256|320:224|352:288,2,200
288,32,156404,1,4,0:0:0:0:
96,64,156904,5,8,0:0:0:0:
32,128,157154,1,8,0:0:0:0:
32,224,157404,1,8,0:0:0:0:
160,96,165404,5,8,0:0:0:0:
224,192,165654,1,8,0:0:0:0:
256,96,165904,1,8,0:0:0:0:
320,160,166154,1,4,0:0:0:0:
288,256,166404,2,2,B|224:288|160:256|96:256|96:224|96:192|96:192,1,200
288,320,167404,5,8,0:0:0:0:
384,288,167654,1,8,0:0:0:0:
416,192,167904,1,8,0:0:0:0:
352,128,168154,1,4,0:0:0:0:
288,192,168404,2,2,B|192:224|160:64|160:64,1,200
64,256,169404,5,8,0:0:0:0:
64,352,169654,1,8,0:0:0:0:
160,352,169904,1,8,0:0:0:0:
256,352,170154,1,4,0:0:0:0:
256,256,170404,2,2,B|192:256|160:256|160:224|160:160|160:128,1,200
352,128,171404,5,8,0:0:0:0:
416,64,171654,1,8,0:0:0:0:
480,128,171904,1,8,0:0:0:0:
480,224,172154,1,4,0:0:0:0:
480,320,172404,2,2,B|416:288|384:256|384:192|416:160,1,200
256,32,173404,5,8,0:0:0:0:
256,128,173654,1,8,0:0:0:0:
256,224,173904,1,8,0:0:0:0:
192,288,174154,1,4,0:0:0:0:
256,352,174404,2,2,B|320:352|352:352|352:320|352:224,1,200
160,224,175404,5,8,0:0:0:0:
256,256,175654,1,8,0:0:0:0:
256,160,175904,1,8,0:0:0:0:
352,192,176154,1,4,0:0:0:0:
320,96,176404,2,2,B|256:64|224:64|96:64,1,200
320,32,177404,5,8,0:0:0:0:
416,32,177654,1,8,0:0:0:0:
480,96,177904,1,8,0:0:0:0:
480,192,178154,1,4,0:0:0:0:
416,256,178404,2,2,B|352:256|352:224|352:192|320:128|288:96,1,200
96,64,179404,5,8,0:0:0:0:
96,160,179654,1,8,0:0:0:0:
128,256,179904,1,8,0:0:0:0:
224,320,180154,1,4,0:0:0:0:
320,288,180404,2,2,B|379:248|379:248|379:248|435:280|471:153,1,200
416,64,181404,6,2,B|341:119|311:63|257:66|300:178|259:226|198:123|142:153|172:210|80:254,1,400
416,64,183404,6,2,B|341:119|311:63|257:66|300:178|259:226|198:123|142:153|172:210|80:254,1,400
256,192,185404,12,0,186404,0:0:0:0:
256,192,187279,12,0,188279,0:0:0:0:
96,96,189404,5,8,0:0:0:0:
192,96,189654,1,8,0:0:0:0:
288,96,189904,1,8,0:0:0:0:
256,160,190154,1,4,0:0:0:0:
192,224,190404,1,8,0:0:0:0:
288,256,190654,1,4,0:0:0:0:
224,320,190904,2,2,P|160:320|160:288,1,100
160,192,191404,5,8,0:0:0:0:
96,96,191654,1,8,0:0:0:0:
160,64,191904,1,8,0:0:0:0:
64,32,192154,1,4,0:0:0:0:
32,128,192404,1,8,0:0:0:0:
64,224,192654,1,4,0:0:0:0:
160,256,192904,2,2,P|160:192|128:192,1,100
96,288,193404,5,8,0:0:0:0:
192,320,193654,1,8,0:0:0:0:
256,256,193904,1,8,0:0:0:0:
320,192,194154,1,4,0:0:0:0:
320,96,194404,1,8,0:0:0:0:
256,32,194654,1,4,0:0:0:0:
192,96,194904,2,2,P|160:32|192:32,1,100
448,320,201404,6,2,B|384:320|384:288|320:288|320:256|256:256|256:256,2,200
448,128,202904,1,4,0:0:0:0:
256,160,203404,1,8,0:0:0:0:
320,224,203654,1,8,0:0:0:0:
384,288,203904,1,8,0:0:0:0:
192,320,204404,5,4,0:0:0:0:
64,160,204904,1,8,0:0:0:0:
160,160,205154,1,8,0:0:0:0:
256,128,205404,2,2,B|320:64|352:32|448:64,1,200
480,160,206154,1,4,0:0:0:0:
448,256,206404,2,2,B|384:320|352:352|256:320,1,200
192,128,207404,5,8,0:0:0:0:
288,96,207654,1,8,0:0:0:0:
384,64,207904,1,8,0:0:0:0:
448,256,208404,1,4,0:0:0:0:
256,320,208904,1,8,0:0:0:0:
256,224,209154,1,8,0:0:0:0:
160,256,209404,2,2,P|64:160|64:96,1,200
128,32,210154,1,4,0:0:0:0:
224,32,210404,6,2,B|288:64|192:160|192:160|320:224|96:224|256:352,1,400
352,352,211654,1,4,0:0:0:0:
448,352,211904,6,2,B|512:320|416:224|416:224|544:160|320:160|480:32,1,400
256,192,213404,12,0,215404,0:0:0:0:
