osu file format v14

[General]
AudioFilename: Rings of Akhaten - Long Song - Doctor Who.mp3
AudioLeadIn: 0
PreviewTime: 82279
Countdown: 1
SampleSet: None
StackLeniency: 0.7
Mode: 0
LetterboxInBreaks: 1
WidescreenStoryboard: 1

[Editor]
DistanceSpacing: 1
BeatDivisor: 4
GridSize: 32
TimelineZoom: 1

[Metadata]
Title:The Long Song
TitleUnicode:The Long Song
Artist:Murray Gold
ArtistUnicode:Murray Gold
Creator:Ash Marley
Version:Easy
Source:Doctor Who - The Rings of Akhaten
Tags:Doctor Who
BeatmapID:652904
BeatmapSetID:289694

[Difficulty]
HPDrainRate:5
CircleSize:4
OverallDifficulty:2
ApproachRate:6
SliderMultiplier:2
SliderTickRate:2

[Events]
//Background and Video events
0,0,"vlcsnap-2015-02-28-18h04m16s107.png",0,0
//Break Periods
2,157604,164354
2,194604,200354
//Storyboard Layer 0 (Background)
//Storyboard Layer 1 (Fail)
//Storyboard Layer 2 (Pass)
//Storyboard Layer 3 (Foreground)
//Storyboard Sound Samples

[TimingPoints]
37404.2924629606,500,4,1,0,100,1,0

[HitObjects]
256,192,30654,12,0,32904,0:0:0:0:
352,32,34904,5,8,0:0:0:0:
352,224,35404,1,4,0:0:0:0:
160,224,35904,1,8,0:0:0:0:
352,320,36404,1,4,0:0:0:0:
416,128,36904,5,4,0:0:0:0:
224,160,37404,2,2,B|256:224|320:256|384:224|416:224|416:192,2,200
128,320,38904,1,8,0:0:0:0:
128,128,39404,1,4,0:0:0:0:
256,288,39904,5,4,0:0:0:0:
384,128,40404,2,2,B|326:156|297:170|226:169|197:183|168:197|125:254|96:268|10:310,1,400
64,96,41904,1,8,0:0:0:0:
256,32,42404,1,4,0:0:0:0:
448,96,42904,1,4,0:0:0:0:
448,288,43404,6,2,B|352:256|224:256|128:256|32:288,1,400
64,96,44904,1,4,0:0:0:0:
256,64,45404,2,2,B|319:67|383:70|442:169,1,200
224,128,46404,2,2,B|224:192|192:224|160:320,1,200
352,224,47404,2,2,B|288:320|224:352|192:384,1,200
224,160,48404,5,8,0:0:0:0:
352,32,48904,1,4,0:0:0:0:
480,160,49404,1,4,0:0:0:0:
320,288,49904,2,2,B|256:320|160:352|128:352,1,200
32,160,50904,1,4,0:0:0:0:
96,64,51404,6,2,B|192:96|224:192|256:256|384:352,1,400
480,160,52904,1,8,0:0:0:0:
288,96,53404,1,4,0:0:0:0:
288,288,53904,1,4,0:0:0:0:
96,320,54404,6,2,B|192:224|256:160|256:160|416:160|448:160|448:160,1,400
256,64,55904,1,8,0:0:0:0:
64,64,56404,1,4,0:0:0:0:
64,256,56904,1,4,0:0:0:0:
224,160,57404,6,2,P|224:288|256:352,1,200
448,288,58404,1,4,0:0:0:0:
384,96,58904,2,2,P|334:54|252:152,1,200
96,256,59904,5,8,0:0:0:0:
288,288,60404,1,4,0:0:0:0:
192,128,60904,1,8,0:0:0:0:
384,64,61404,5,4,0:0:0:0:
192,64,61904,2,2,B|128:128|128:160|96:256,2,200
352,192,63404,1,8,0:0:0:0:
224,32,63904,1,4,0:0:0:0:
96,160,64404,1,8,0:0:0:0:
96,352,64904,1,4,0:0:0:0:
256,256,65404,1,8,0:0:0:0:
448,320,65904,1,4,0:0:0:0:
256,320,66404,6,2,B|352:256|352:256|384:224|416:160,1,200
256,32,67404,2,2,B|160:96|160:96|128:128|96:192,1,200
224,320,68404,1,8,0:0:0:0:
160,128,68904,5,4,0:0:0:0:
320,224,69404,1,8,0:0:0:0:
480,352,69904,1,4,0:0:0:0:
288,288,70404,6,2,B|246:229|218:214|161:184|75:211,1,200
320,128,71404,2,2,B|384:160|416:224|416:288|480:288|480:288,1,200
256,352,72404,1,8,0:0:0:0:
448,288,72904,1,4,0:0:0:0:
352,96,73404,6,2,B|256:160|288:256|288:288,1,200
448,160,74404,1,8,0:0:0:0:
320,320,74904,1,4,0:0:0:0:
128,352,75404,1,8,0:0:0:0:
288,256,75904,5,4,0:0:0:0:
416,96,76404,1,8,0:0:0:0:
224,32,76904,1,4,0:0:0:0:
256,192,77404,12,0,79904,0:0:0:0:
416,256,82404,6,2,L|480:128|480:32,1,200
288,96,83404,2,2,B|288:192|288:224|224:320|224:320,1,200
64,192,84404,1,8,0:0:0:0:
224,64,84904,1,4,0:0:0:0:
288,256,85404,6,2,B|384:288|416:320|448:320|480:320|512:320,1,200
480,128,86404,1,8,0:0:0:0:
288,96,86904,1,4,0:0:0:0:
224,288,87404,2,2,B|128:288|96:256|32:192,1,200
160,64,88404,1,8,0:0:0:0:
96,256,88904,5,4,0:0:0:0:
288,256,89404,1,4,0:0:0:0:
448,160,89904,2,2,B|409:108|390:83|339:121|306:25,1,200
96,32,90904,1,4,0:0:0:0:
96,224,91404,2,2,B|96:288|96:320|128:320|128:352|160:352|224:352|224:352,2,200
288,288,92904,5,8,0:0:0:0:
224,96,93404,1,4,0:0:0:0:
160,288,93904,1,8,0:0:0:0:
96,96,94404,1,4,0:0:0:0:
32,288,94904,1,4,0:0:0:0:
224,224,95404,6,2,P|320:192|416:256,1,200
256,352,96404,1,4,0:0:0:0:
128,192,96904,2,2,L|325:82,1,200
448,224,97904,1,8,0:0:0:0:
256,128,98404,5,4,0:0:0:0:
96,224,98904,2,2,B|128:320|128:320|192:320|192:320|448:320|448:320,1,400
320,160,100404,1,8,0:0:0:0:
128,64,100904,1,4,0:0:0:0:
32,224,101404,1,4,0:0:0:0:
224,224,101904,6,2,L|224:0,1,200
384,128,102904,1,4,0:0:0:0:
448,320,103404,2,2,B|384:352|352:352|288:352|224:320|224:320,1,200
96,224,104404,1,8,0:0:0:0:
96,32,104904,1,4,0:0:0:0:
256,160,105404,1,8,0:0:0:0:
128,288,105904,5,4,0:0:0:0:
192,96,106404,2,2,P|256:64|384:64,1,200
448,256,107404,2,2,P|384:288|256:288,1,200
96,192,108404,1,8,0:0:0:0:
288,128,108904,1,4,0:0:0:0:
448,288,109404,1,8,0:0:0:0:
256,352,109904,5,4,0:0:0:0:
64,256,110404,2,2,P|32:192|32:64,1,200
224,32,111404,2,2,P|256:96|256:224,1,200
416,320,112404,1,8,0:0:0:0:
448,128,112904,1,4,0:0:0:0:
256,160,113404,2,2,P|320:128|416:32,1,200
224,64,114404,5,8,0:0:0:0:
64,192,114904,1,4,0:0:0:0:
256,256,115404,1,8,0:0:0:0:
448,352,115904,1,4,0:0:0:0:
256,352,116404,1,8,0:0:0:0:
384,192,116904,5,4,0:0:0:0:
224,96,117404,2,2,B|224:192|160:256|160:288|160:288,1,200
352,256,118404,2,2,B|352:160|416:96|416:64|416:64,1,200
224,32,119404,2,2,B|192:32|160:32|128:0|96:32|64:32|64:32|0:32,1,200
64,224,120404,2,2,B|96:224|128:224|160:192|192:224|224:224|224:224|288:224,1,200
224,32,121404,6,2,B|288:64|352:96|320:192|352:256|448:352,1,400
256,352,122904,1,8,0:0:0:0:
96,256,123404,1,4,0:0:0:0:
32,64,123904,1,4,0:0:0:0:
224,128,124404,6,2,B|269:173|314:218|382:241|405:218|427:195,1,200
224,352,125404,2,2,B|288:352|352:352|416:320|416:288|416:256,1,200
416,96,126404,1,8,0:0:0:0:
224,64,126904,1,4,0:0:0:0:
64,160,127404,6,2,B|128:160|160:160|192:192|224:192|256:192|288:160|256:160,1,200
448,96,128404,2,2,B|448:160|480:192|480:224|480:256|512:320,1,200
288,288,129404,2,2,B|288:224|256:224|256:192|288:192|288:128|256:96,2,200
128,160,130904,1,8,0:0:0:0:
224,352,131404,1,4,0:0:0:0:
416,320,131904,5,8,0:0:0:0:
448,128,132404,1,4,0:0:0:0:
256,64,132904,1,4,0:0:0:0:
224,256,133404,2,2,B|160:256|96:224|32:192,1,200
32,64,134404,1,8,0:0:0:0:
224,32,134904,1,4,0:0:0:0:
416,64,135404,1,8,0:0:0:0:
448,256,135904,5,4,0:0:0:0:
256,320,136404,2,2,P|224:256|224:128,1,200
288,96,137404,2,2,P|352:64|480:96,1,200
480,288,138404,1,8,0:0:0:0:
320,192,138904,5,4,0:0:0:0:
192,352,139404,1,8,0:0:0:0:
384,352,139904,1,4,0:0:0:0:
480,160,140404,1,4,0:0:0:0:
288,64,140904,2,2,B|288:128|224:128|128:128|96:128|96:128,2,200
320,256,142404,6,2,B|256:288|192:256|96:224|96:224,2,200
448,96,143904,1,8,0:0:0:0:
256,32,144404,1,4,0:0:0:0:
64,96,144904,1,4,0:0:0:0:
64,288,145404,2,2,B|128:320|192:320|224:288|256:256,1,200
256,64,146404,1,8,0:0:0:0:
352,256,146904,1,4,0:0:0:0:
160,256,147404,5,8,0:0:0:0:
288,64,147904,1,4,0:0:0:0:
320,256,148404,2,2,B|384:256|416:224|480:128,1,200
256,160,149404,2,2,B|192:160|160:192|96:288,1,200
288,352,150404,1,8,0:0:0:0:
448,224,150904,1,4,0:0:0:0:
320,64,151404,1,8,0:0:0:0:
128,32,151904,5,4,0:0:0:0:
288,160,152404,2,2,B|352:192|352:256|320:320|384:352,1,200
192,256,153404,2,2,B|128:224|128:160|160:96|96:64,1,200
320,32,154404,5,4,0:0:0:0:
192,192,154904,2,2,B|224:256|288:256|352:224|384:288,2,200
64,320,156404,1,8,0:0:0:0:
256,352,156904,5,4,0:0:0:0:
448,352,157404,1,4,0:0:0:0:
32,32,165404,5,8,0:0:0:0:
224,64,165904,1,4,0:0:0:0:
352,224,166404,2,2,B|288:256|224:224|160:224|160:192|160:192|160:192,1,200
352,96,167404,5,8,0:0:0:0:
160,96,167904,1,4,0:0:0:0:
256,256,168404,2,2,B|160:288|64:192|64:192,1,200
224,96,169404,5,8,0:0:0:0:
224,288,169904,1,4,0:0:0:0:
416,224,170404,2,2,B|416:160|416:128|384:128|352:32|320:32,1,200
160,128,171404,5,8,0:0:0:0:
32,288,171904,1,4,0:0:0:0:
224,352,172404,2,2,B|288:320|320:288|320:224|320:192,1,200
480,64,173404,5,8,0:0:0:0:
448,256,173904,1,4,0:0:0:0:
288,320,174404,2,2,B|224:320|192:320|160:288|128:224,1,200
192,32,175404,5,8,0:0:0:0:
352,128,175904,1,4,0:0:0:0:
160,160,176404,2,2,B|128:224|128:256|128:384,1,200
320,352,177404,5,8,0:0:0:0:
128,352,177904,1,4,0:0:0:0:
64,160,178404,2,2,B|100:98|132:100|164:102|230:75|264:45,1,200
192,256,179404,5,8,0:0:0:0:
288,64,179904,1,4,0:0:0:0:
448,192,180404,2,2,B|389:232|389:232|389:232|352:256|297:327,1,200
352,128,181404,6,2,B|277:183|247:127|193:130|236:242|195:290|134:187|78:217|108:274|16:318,1,350
192,320,183404,6,2,B|267:265|297:321|351:318|308:206|349:158|410:261|466:231|436:174|528:130,1,350
256,192,185404,12,0,186404,0:0:0:0:
256,192,187404,12,0,188404,0:0:0:0:
448,352,189404,5,8,0:0:0:0:
416,160,189904,1,4,0:0:0:0:
224,64,190404,1,4,0:0:0:0:
192,320,191404,5,8,0:0:0:0:
384,256,191904,1,4,0:0:0:0:
320,64,192404,1,4,0:0:0:0:
128,256,193404,5,8,0:0:0:0:
320,320,193904,1,4,0:0:0:0:
416,128,194404,1,4,0:0:0:0:
64,320,201404,6,2,B|42:259|72:248|50:188|80:177|58:117|58:117,2,200
256,320,202904,1,8,0:0:0:0:
448,320,203404,1,4,0:0:0:0:
448,128,203904,1,8,0:0:0:0:
256,32,204404,5,4,0:0:0:0:
384,192,204904,1,4,0:0:0:0:
192,224,205404,2,2,B|256:288|288:320|384:352,1,200
448,160,206404,2,2,B|377:103|342:74|250:116,1,200
96,224,207404,5,8,0:0:0:0:
256,352,207904,1,4,0:0:0:0:
448,288,208404,1,8,0:0:0:0:
288,192,208904,1,4,0:0:0:0:
128,288,209404,2,2,P|32:192|32:128,1,200
64,64,210404,6,2,P|96:160|288:320,1,350
448,320,211904,6,2,P|416:224|224:64,1,350
256,192,213404,12,0,215404,0:0:0:0:
