osu file format v7

[General]
AudioFilename: Doctor Who Series 5 Opening Theme.mp3
AudioLeadIn: 0
PreviewTime: 14673
Countdown: 1
SampleSet: Soft
StackLeniency: 0.7
Mode: 0
LetterboxInBreaks: 1

[Editor]
DistanceSpacing: 0.800000011920929
BeatDivisor: 3
GridSize: 8

[Metadata]
Title:Doctor Who Theme 2010
Artist:Murray Gold
Creator:Mashley
Version:Normal
Source:Doctor Who
Tags:bbc

[Difficulty]
HPDrainRate:3
CircleSize:4
OverallDifficulty:4
SliderMultiplier:1.6
SliderTickRate:3

[Events]
//Background and Video events
0,0,"bg.jpg"
//Break Periods
//Storyboard Layer 0 (Background)
//Storyboard Layer 1 (Fail)
//Storyboard Layer 2 (Pass)
//Storyboard Layer 3 (Foreground)
//Storyboard Sound Samples
//Background Colour Transformations
3,100,0,0,0

[TimingPoints]
1666.63087248322,419.58041958042,4,2,0,60,1,0
20407,-100,4,2,0,70,0,0
20827,-100,4,2,0,80,0,0
21247,-100,4,2,0,90,0,0
21806,-100,4,2,0,90,0,1
24323,-100,4,2,0,90,0,0
24743,-100,4,2,0,75,0,0
30757,-100,4,2,0,65,0,0
31596,-100,4,2,0,75,0,0
32575,-100,4,2,0,80,0,0
46421,-100,4,2,0,40,0,0
52995,-100,4,2,0,70,0,0

[Colours]
Combo1 : 50,36,91
Combo2 : 0,0,160
Combo3 : 60,2,72

[HitObjects]
64,240,1666,6,0,B|120:368|256:400|392:368|448:240,1,480
336,224,3344,2,0,B|256:264|176:224,1,160,0|8
176,96,4184,2,0,B|256:136|336:96,1,160,0|2
256,8,5023,5,4
176,96,5442,1,2
256,192,5862,1,8
336,96,6282,1,2
256,192,6701,5,4
336,288,7120,1,2
256,376,7540,1,8
176,288,7960,1,2
104,184,8379,6,0,B|176:128|256:192|352:264|408:200,2,320,4|8|4
256,312,10897,1,2
256,32,11596,1,0
256,32,11736,1,6
136,104,12156,6,0,B|216:128|304:104,1,160,8|0
392,192,12995,2,0,B|312:168|224:192,1,160,8|0
136,272,13834,2,0,B|216:296|304:272,1,160,8|8
256,360,14673,6,0,B|208:344|208:248|256:216|304:184|304:72|256:64,2,320,4|8|8
328,256,16771,2,0,B|152:256,1,160,0|8
128,120,17610,6,2,B|160:40|256:8|352:40|384:120,2,320,2|4|0
16,184,19708,5,8
256,352,20547,1,8
256,224,20967,1,8
256,96,21386,1,8
152,24,21806,6,2,B|104:64|104:128|152:168,1,160
364,163,22645,2,2,B|408:128|408:64|360:24,1,160,4|2
256,8,23484,2,2,B|200:72|256:128|312:184|256:264,1,266.666666666667,2|0
240,296,24323,1,4
16,328,25163,6,0,B|120:360|56:272|176:304,1,160,0|8
280,248,26002,2,0,B|176:280|240:192|120:224,1,160,0|8
248,176,26841,2,0,B|352:144|288:232|408:200,1,160,0|2
512,256,27680,2,0,B|408:224|472:312|352:280,1,160,0|8
256,344,28519,5,0
192,232,28939,1,8
320,232,29358,1,0
256,120,29778,1,10
64,144,30198,6,0,B|120:16|256:-16|392:16|448:144,2,480,4|8|0
192,168,33135,5,2
320,168,33554,1,4
280,240,33834,2,0,B|248:296,1,53.3333333333333
136,336,34393,5,2
96,264,34673,2,0,B|64:200,1,53.3333333333333
104,88,35233,5,4
184,72,35512,2,0,B|256:56,1,53.3333333333333
360,40,36072,6,0,B|440:136|312:80|400:208,2,160,0|2|4
296,200,37470,2,0,B|264:208|248:184,2,53.3333333333333,0|0|4
168,224,38170,5,8
80,136,38589,1,0
168,40,39009,1,8
256,128,39428,1,0
360,48,39848,6,0,B|432:40|488:128|472:160,1,160,0|6
368,272,40827,2,0,B|344:328,2,53.3333333333333,2|0|2
328,152,41526,1,0
216,216,41946,5,4
64,112,42505,2,0,B|-16:152,2,53.3333333333333,2|0|2
192,96,43204,1,0
304,32,43624,6,0,B|432:152,1,160,4|2
424,240,44463,2,8,B|308:350,1,160,8|2
208,352,45302,2,0,B|80:232,1,160,4|2
88,136,46141,2,8,B|205:27,1,160,8|2
256,192,46981,12,4,49498
256,192,49918,12,4,52855
256,192,53275,5,2
256,192,53694,1,4
