osu file format v9

[General]
AudioFilename: Love Trade.mp3
AudioLeadIn: 0
PreviewTime: 43622
Countdown: 0
SampleSet: Soft
StackLeniency: 0.7
Mode: 0
LetterboxInBreaks: 0

[Editor]
Bookmarks: 22969,84653,119390,203495
DistanceSpacing: 1
BeatDivisor: 4
GridSize: 8

[Metadata]
Title:Love Trade
Artist:Murong Xiaoxiao
Creator:Heatherfield
Version:yznoob's First Love
Source:
Tags:Internet aiqingmaimai yangzd88 shenqu TristanShi popner

[Difficulty]
HPDrainRate:4
CircleSize:3
OverallDifficulty:4
ApproachRate:5
SliderMultiplier:1.9
SliderTickRate:1

[Events]
//Background and Video events
0,0,"BG.JPG"
//Break Periods
2,84243,98001
//Storyboard Layer 0 (Background)
//Storyboard Layer 1 (Fail)
//Storyboard Layer 2 (Pass)
//Storyboard Layer 3 (Foreground)
Sprite,Foreground,Centre,"here.png",320,240 F,0,86543,86622,0,1 M,0,86622,88753,355,396,372,398 F,0,86622,98543,1 M,0,88753,88911,372,398,377,387 M,0,88911,89069,377,387,392,401 M,0,89069,94122,392,401,411,391 M,0,94122,94517,411,391,427,400 M,0,94517,94753,427,400,439,391 M,0,94753,96648,439,391,448,387 M,0,96648,97280,448,387,472,391 M,0,97280,98543,472,391,486,401 F,0,98543,99175,1,0.02000015
//Storyboard Sound Samples
//Background Colour Transformations
3,100,0,0,0

[TimingPoints]
3201,631.578947368421,4,2,0,60,1,0
180043,-100,4,2,0,60,0,1
200253,-100,4,2,0,60,0,0

[HitObjects]
72,192,3201,2,0,B|168:192,1,95,4|2
120,112,3832,2,0,B|224:112,1,95,0|2
168,32,4464,2,0,B|112:32,2,47.5,0|0|2
168,32,5095,2,0,B|296:32,1,95,0|2
360,32,5727,6,0,B|416:32|448:96,1,95,0|2
344,88,6358,2,0,B|396:107|404:178,1,95,0|2
312,128,6990,2,0,B|354:163|338:233,1,95,0|2
264,160,7622,2,0,B|292:208|252:268,1,95,0|2
192,312,8253,6,0,B|192:360,2,47.5,0|0|2
192,312,8885,2,0,B|176:264|200:208,1,95,0|2
200,128,9516,2,0,B|216:176|192:232,1,95,0|2
196,221,10148,2,0,B|288:216|392:224,1,190,0|4
480,224,11095,6,0,B|512:272,2,47.5,0|0|2
480,128,11727,2,0,B|512:88,2,47.5,0|0|2
384,128,12358,1,4
352,216,12674,1,8
256,216,12990,1,4
288,128,13306,6,0,B|232:120|192:128,1,95,4|2
96,128,13937,2,0,B|40:128,2,47.5,0|0|2
96,224,14569,2,0,B|80:272|96:328,1,95,0|2
192,312,15201,2,0,B|208:264|192:208,1,95,0|2
96,224,15832,6,0,B|56:128|88:24,1,190,4|2
176,24,16779,1,2
272,40,17095,2,0,B|304:136,1,95,0|2
352,48,17727,2,0,B|384:144,1,95,0|2
432,56,18358,6,0,B|488:136|448:272,1,190,4|2
408,320,19306,1,2
312,320,19622,1,0
264,240,19937,1,2
360,240,20253,2,0,B|360:40,1,190,0|4
264,72,21201,6,0,B|256:24,2,47.5,2|0|2
168,64,21832,2,0,B|176:112,2,47.5,2|0|2
80,104,22464,2,0,B|104:208,1,95,0|4
8,176,23095,2,0,B|32:280,1,95,0|4
120,304,23727,5,2
208,272,24043,1,0
296,304,24358,1,2
384,272,24674,2,0,B|432:192|440:88,1,190,0|2
360,48,25622,1,0
272,88,25937,5,0
184,48,26253,2,0,B|128:64|112:112,1,95,0|2
208,128,26885,1,0
208,128,27201,2,0,B|224:232|176:328,1,190,2|2
88,312,28148,1,0
88,216,28464,6,0,B|64:168|72:112,1,95,0|2
56,32,29095,2,0,B|80:80|72:136,1,95,0|2
73,124,29727,2,0,B|160:96|224:96,1,142.5,0|2
248,128,30358,2,0,B|304:128|352:112,1,95,0|2
440,120,30990,2,0,B|544:120,3,95,0|2|0|2
480,40,32253,2,0,B|443:28|360:16|335:94|336:160,1,190,0|2
464,336,33516,6,0,B|336:336,1,95,4|0
424,256,34148,2,0,B|329:256,1,95,8|0
384,176,34779,2,0,B|312:152|232:200|232:280,1,190,2|8
112,320,35885,1,2
112,320,36043,6,0,B|72:224,1,95,4|0
128,152,36674,2,0,B|164:239,1,95,8|0
224,160,37306,2,0,B|216:88|272:32|360:48,1,190,2|8
360,176,38569,6,0,B|472:176,1,95,0|2
408,256,39201,2,0,B|296:256,1,95,8|0
360,336,39832,2,0,B|408:336,2,47.5,0|2|2
264,336,40464,2,0,B|216:344|128:336,1,95,8|2
256,192,41095,12,4,42358
80,192,42674,5,2
176,192,42990,1,2
272,192,43306,1,2
368,192,43622,6,0,B|376:256|368:304,1,95,4|2
296,344,44253,2,0,B|184:344,1,95,0|2
104,344,44885,2,0,B|56:344,2,47.5,2|0|2
200,344,45516,2,2,B|224:240|200:128,1,190,2|6
288,104,46464,5,2
368,152,46779,1,0
448,104,47095,1,2
448,104,47411,2,0,B|432:48|304:48|288:104,1,190,0|2
368,160,48358,1,2
368,160,48674,6,0,B|368:288,3,95,4|0|2|0
288,304,49937,2,0,B|304:360|432:360|448:304,1,190,0|2
448,208,50885,2,0,B|448:160,2,47.5,0|0|4
352,208,51516,1,0
352,112,51832,1,2
256,112,52148,1,0
160,112,52464,2,0,B|160:40|32:32|32:112,1,190,0|2
96,184,53411,5,0
96,184,53727,1,4
160,112,54043,1,0
96,40,54358,1,2
32,112,54674,1,0
96,184,54990,6,0,B|96:288,1,95,0|2
192,280,55622,2,0,B|280:336|400:264,1,190,2|4
472,280,56569,1,2
472,184,56885,1,0
376,184,57201,1,2
368,280,57516,2,0,B|280:224|160:296,1,190,0|2
48,152,58779,6,0,B|56:80|152:48,1,142.5,0|2
168,88,59411,2,0,B|168:152|232:144,1,95,0|2
256,232,60043,2,0,B|248:302|164:330,1,142.5,0|2
136,294,60675,2,0,B|136:231|77:238,1,95,0|2
256,192,61306,12,0,62253
256,192,62569,12,0,63516
136,192,63832,6,0,B|40:192,2,95,4|2|2
136,288,64779,2,0,B|64:288,4,47.5
232,288,65727,2,0,B|232:232,2,47.5,0|2|2
328,288,66358,6,0,B|376:280|424:288,1,95,0|2
480,208,66990,2,0,B|480:112,1,95,0|2
408,48,67622,1,4
336,104,67937,1,4
336,104,68095,2,0,B|224:72|80:104,1,237.5,0|4
104,192,69201,6,0,B|48:192,2,47.5,0|0|2
104,288,69832,2,0,B|176:320|248:288,1,142.5,0|2
280,312,70464,2,2,B|336:328|400:304,1,95
424,304,70937,1,0
424,256,71095,2,0,B|440:200|416:136,1,95,2|4
376,80,71727,5,0
320,160,72043,1,2
264,80,72358,1,0
208,160,72674,1,2
152,80,72990,2,0,B|96:80,2,47.5,2|0|2
104,160,73622,2,0,B|104:256,1,95,0|4
192,288,74253,5,0
280,248,74569,1,2
288,152,74885,2,0,B|384:184|448:264,1,190,2|2
464,168,75832,2,0,B|440:128|456:64,1,95,0|2
360,56,76464,6,0,B|265:56,1,95,0|2
288,144,77095,2,0,B|176:144,1,95,0|2
96,136,77727,2,0,B|96:183,2,47.5,0|2|0
48,56,78358,2,0,B|141:48|237:56,1,190,2|4
336,56,79306,5,0
336,56,79464,1,2
336,56,79622,2,0,B|320:128|360:176,1,95,0|2
328,240,80253,2,0,B|320:288,2,47.5,2|0|2
256,176,80885,2,0,B|219:169|163:193,1,95,0|2
256,192,81516,12,4,84043
128,128,99201,6,0,B|96:256,1,95,4|0
184,168,99832,2,0,B|197:299,1,95,8|0
240,184,100464,2,0,B|297:302,1,95
304,176,101095,2,0,B|398:267,1,95,8|0
368,144,101727,5,0
296,80,102043,1,0
224,144,102358,1,8
152,80,102674,1,0
88,144,102990,2,0,B|88:272,2,95,0|0|8
16,80,103937,1,0
96,32,104253,6,0,B|144:32,6,47.5,0|0|2|0|2|2|2
96,128,105516,2,0,B|48:128,6,47.5,0|0|2|0|2|2|2
192,112,106779,2,0,B|304:112,1,95,0|2
360,56,107411,2,0,B|472:56,1,95,0|2
360,56,108043,2,0,B|400:144|360:256,1,190,0|2
288,296,108990,1,2
288,296,109148,1,2
288,296,109306,6,0,B|240:280|160:296,1,95,4|0
112,240,109937,2,0,B|80:120,1,95,8|0
168,96,110569,2,0,B|200:216,1,95,2|0
280,144,111201,2,0,B|248:24,1,95,8|0
280,144,111832,6,0,B|384:184|424:288,1,190,4|8
320,280,112779,2,0,B|352:336|344:384,2,95,0|2|0
248,344,113727,1,8
152,344,114043,1,0
80,280,114358,6,0,B|40:192|32:80,1,190,4|2
112,40,115306,2,0,B|152:128|160:240,1,190,0|2
256,224,116253,2,0,B|368:224,1,95
352,128,116885,6,0,B|360:32,1,95,4|0
440,88,117516,2,0,B|432:184,1,95,8|0
344,216,118148,2,2,B|248:256|184:336,1,190
56,192,119411,5,0
24,104,119727,1,2
96,40,120043,1,0
176,88,120358,1,2
160,184,120674,2,0,B|152:283|104:363,1,190,0|2
40,296,121622,1,0
32,200,121937,5,4
40,104,122253,2,0,B|54:61|110:45,1,95
184,104,122885,1,0
184,104,123201,2,0,B|288:88|384:136,1,190,2|2
352,224,124148,1,0
288,296,124464,6,0,B|240:320|184:312,1,95,0|2
112,264,125095,2,0,B|118:219|94:171,1,95,0|2
94,172,125727,2,0,B|181:144|245:144,1,142.5,0|2
264,184,126358,2,0,B|320:184|368:168,1,95,0|2
384,80,126990,2,0,B|488:80,3,95,0|2|0|2
488,176,128253,2,0,B|424:168|384:192|368:240|408:320,1,190,0|2
208,320,129516,6,0,B|80:320,1,95,4|0
128,224,130148,2,0,B|33:224,1,95,8|0
72,136,130779,2,0,B|69:81|149:33|221:57,1,190,2|8
352,104,131885,1,2
352,104,132043,6,0,B|388:191,1,95,4|0
336,272,132674,2,0,B|300:185,1,95,8|0
208,216,133306,2,0,B|168:112|272:56,1,190,2|8
400,192,134569,6,0,B|512:192,1,95,0|2
440,272,135201,2,0,B|328:272,1,95,8|0
264,320,135832,2,0,B|216:320,2,47.5,0|2|2
224,232,136464,2,0,B|176:240|88:232,1,95,8|2
256,192,137095,12,4,138358
256,112,138674,5,2
192,184,138990,1,2
288,208,139306,1,2
384,192,139622,6,0,B|392:256|384:304,1,95,4|2
312,344,140253,2,0,B|200:344,1,95,0|2
120,344,140885,2,0,B|72:344,2,47.5,2|0|2
136,248,141516,2,2,B|160:144|136:32,1,190,2|6
232,96,142464,5,2
280,176,142779,1,0
376,160,143095,1,2
328,80,143411,2,0,B|343:26|408:56|471:26|487:82,1,190,0|2
472,176,144358,1,2
472,176,144674,6,0,B|472:304,3,95,4|0|2|0
376,288,145937,2,0,B|360:341|232:341|216:285,1,190,0|2
120,296,146885,2,0,B|120:248,2,47.5,0|0|4
24,296,147516,1,0
24,200,147832,1,2
24,104,148148,1,0
120,104,148464,2,0,B|120:24|248:32|248:104,1,190,0|2
280,192,149411,5,0
280,192,149727,1,4
368,168,150043,1,0
456,144,150358,1,2
488,56,150674,1,0
392,48,150990,6,0,B|288:48,1,95,0|2
200,72,151622,2,0,B|106:129|18:73,1,190,2|4
24,168,152569,1,2
24,264,152885,1,0
120,264,153201,1,2
216,264,153516,2,0,B|309:206|397:262,1,190,0|2
296,104,154779,6,0,B|304:32|400:0,1,142.5,0|2
408,48,155411,2,0,B|408:112|472:104,1,95,0|2
480,200,156043,2,0,B|472:270|388:298,1,142.5,0|2
344,296,156675,2,0,B|344:233|285:240,1,95,0|2
256,192,157306,12,0,158253
256,192,158569,12,0,159516
176,128,159832,6,2,B|280:48,1,95,4|2
344,96,160464,1,0
424,48,160779,2,2,B|480:32,2,47.5
464,136,161411,2,0,B|464:240,1,95
288,304,162358,6,0,B|240:296|192:304,1,95,0|2
96,304,162990,2,0,B|96:208,1,95,0|2
48,128,163622,1,4
128,80,163937,2,0,B|184:48,1,47.5,2|0
240,120,164411,2,0,B|296:128,1,47.5,0|2
352,200,164885,6,0,B|400:296,1,95,0|2
312,328,165516,2,0,B|208:336,1,95,0|2
128,312,166148,1,0
72,232,166464,1,2
72,232,166622,2,0,B|64:120,1,95,2|0
112,120,167095,2,0,B|168:32,1,95,2|0
256,56,167727,5,0
352,56,168043,1,2
408,136,168358,1,0
504,136,168674,1,2
456,216,168990,2,0,B|400:216,2,47.5,2|0|2
464,312,169622,2,0,B|368:312,1,95,0|4
288,264,170253,5,0
208,216,170569,1,2
144,280,170885,2,0,B|72:192|80:88,1,190
176,96,171832,2,0,B|200:48|280:64,1,95,0|2
336,120,172464,6,0,B|440:120,1,95,0|2
488,200,173095,2,0,B|376:200,1,95,0|2
336,280,173727,2,0,B|392:280,2,47.5,0|2|0
248,320,174358,2,0,B|152:312|48:320,1,190,2|4
40,224,175306,5,0
40,224,175464,1,2
40,224,175622,2,0,B|120:120,1,95
184,192,176253,5,4
272,160,176569,1,0
272,160,176727,1,2
272,160,176885,2,0,B|384:128,1,95
256,192,177516,12,0,179411
104,120,180043,6,0,B|240:120,1,95,2|0
176,208,180674,2,0,B|272:208,1,95,8|0
336,280,181306,1,2
424,256,181622,1,0
456,168,181937,1,8
296,64,182569,6,0,B|176:64,1,95,2|0
128,120,183201,1,8
64,192,183516,1,0
80,288,183832,2,0,B|168:336,1,95,2|0
248,296,184464,2,0,B|168:248,1,95,8|0
160,152,185095,5,2
224,80,185411,2,0,B|184:40,2,47.5,0|0|8
320,80,186043,1,0
416,80,186358,2,0,B|472:80,4,47.5,2|0|0|0|8
456,168,187306,1,0
440,264,187622,6,0,B|368:240|296:280,1,142.5,2|0
256,288,188253,1,8
160,288,188569,2,0,B|72:216,1,95,0|2
64,136,189201,1,0
112,56,189516,1,8
192,104,189832,1,0
272,48,190148,5,2
368,48,190464,1,0
392,136,190779,2,0,B|472:192,1,95,8|0
408,264,191411,1,2
320,304,191727,1,0
232,344,192043,1,8
72,240,192674,6,0,B|72:128,1,95,2|0
168,152,193306,2,0,B|168:48,1,95,8|0
256,96,193937,1,2
320,168,194253,1,0
384,240,194569,1,8
448,312,194885,1,0
448,312,195201,5,4
72,320,196464,5,4
256,40,197727,5,4
256,136,198043,1,0
256,232,198358,1,8
256,328,198674,1,0
256,192,198990,12,4,200253
