osu file format v14

[General]
AudioFilename: Murder King - nsanlar (Official Audio).mp3
AudioLeadIn: 0
PreviewTime: 64290
Countdown: 0
SampleSet: Normal
StackLeniency: 0.7
Mode: 1
LetterboxInBreaks: 1
WidescreenStoryboard: 0

[Editor]
DistanceSpacing: 1.5
BeatDivisor: 8
GridSize: 8
TimelineZoom: 2.3

[Metadata]
Title:Insanlar
TitleUnicode:İnsanlar
Artist:Murder King
ArtistUnicode:Murder King
Creator:zigizigiefe
Version:Resistance
Source:
Tags:
BeatmapID:2008192
BeatmapSetID:959192

[Difficulty]
HPDrainRate:4
CircleSize:5
OverallDifficulty:8
ApproachRate:5
SliderMultiplier:1.4
SliderTickRate:1

[Events]
//Background and Video events
0,0,"war-wallpaper_112203147_216.jpg",0,0
//Break Periods
//Storyboard Layer 0 (Background)
//Storyboard Layer 1 (Fail)
//Storyboard Layer 2 (Pass)
//Storyboard Layer 3 (Foreground)
//Storyboard Sound Samples

[TimingPoints]
352,500,4,1,0,100,1,0
352,-50,4,1,0,100,0,0
15602,-53.3333333333333,4,1,0,100,0,0
15852,-57.1428571428571,4,1,0,100,0,0
16102,-61.5384615384615,4,1,0,100,0,0
16352,-66.6666666666667,4,1,0,100,0,0
31435,-64.8648651453616,4,1,0,100,0,0
31518,-63.1578947501385,4,1,0,100,0,0
31602,-61.5384615384615,4,1,0,100,0,0
31727,-59.2592592592593,4,1,0,100,0,0
31852,-57.1428571428571,4,1,0,100,0,0
31977,-55.1724137931035,4,1,0,100,0,0
32102,-53.3333333333333,4,1,0,100,0,0
32227,-51.6129032258065,4,1,0,100,0,0
32352,-50,4,1,0,100,0,0
47414,-50.7936507936508,4,1,0,100,0,0
47477,-51.6129032258065,4,1,0,100,0,0
47539,-52.4590163934426,4,1,0,100,0,0
47602,-53.3333333333333,4,1,0,100,0,0
47727,-55.1724137931035,4,1,0,100,0,0
47852,-57.1428571428571,4,1,0,100,0,0
47977,-59.2592592592593,4,1,0,100,0,0
48102,-61.5384615384615,4,1,0,100,0,0
48227,-64,4,1,0,100,0,0
48352,-66.6666666666667,4,1,0,100,0,0
55352,-43.4782608695652,4,1,0,100,0,0
55477,-45.4545454545455,4,1,0,100,0,0
55602,-47.6190476190476,4,1,0,100,0,0
55727,-50,4,1,0,100,0,0
55852,-52.6315789473684,4,1,0,100,0,0
55977,-55.5555555555556,4,1,0,100,0,0
56102,-58.8235294117647,4,1,0,100,0,0
56227,-62.5,4,1,0,100,0,0
56352,-66.6666666666667,4,1,0,100,0,0
63477,-62.5,4,1,0,100,0,0
63539,-60.6060606060606,4,1,0,100,0,0
63602,-58.8235294117647,4,1,0,100,0,0
63727,-55.5555555555556,4,1,0,100,0,0
63852,-52.6315789473684,4,1,0,100,0,0
63935,-50.8474593507613,4,1,0,100,0,0
64018,-49.1803286750874,4,1,0,100,0,0
64102,-47.6190476190476,4,1,0,100,0,0
64185,-46.1538475739645,4,1,0,100,0,0
64268,-44.7761200712854,4,1,0,100,0,0
64352,-43.4782608695652,4,1,0,100,0,1
83435,-44.7761200712854,4,1,0,100,0,1
83518,-46.153860355034,4,1,0,100,0,1
83602,-47.6190476190476,4,1,0,100,0,1
83664,-48.780487804878,4,1,0,100,0,1
83727,-50,4,1,0,100,0,1
83789,-51.2820512820513,4,1,0,100,0,1
83852,-52.6315789473684,4,1,0,100,0,1
83935,-54.5454555371901,4,1,0,100,0,1
84018,-56.6037949448283,4,1,0,100,0,1
84102,-58.8235294117647,4,1,0,100,0,1
84185,-61.2245022907148,4,1,0,100,0,1
84268,-63.8297899502038,4,1,0,100,0,1
84352,-66.6666666666667,4,1,0,100,0,0
99435,-64.8648651453616,4,1,0,100,0,0
99518,-63.1578947501385,4,1,0,100,0,0
99602,-61.5384615384615,4,1,0,100,0,0
99727,-59.2592592592593,4,1,0,100,0,0
99852,-57.1428571428571,4,1,0,100,0,0
99977,-55.1724137931035,4,1,0,100,0,0
100102,-53.3333333333333,4,1,0,100,0,0
100227,-51.6129032258065,4,1,0,100,0,0
100352,-50,4,1,0,100,0,0
115414,-50.7936507936508,4,1,0,100,0,0
115477,-51.6129032258065,4,1,0,100,0,0
115539,-52.4590163934426,4,1,0,100,0,0
115602,-53.3333333333333,4,1,0,100,0,0
115727,-55.1724137931035,4,1,0,100,0,0
115852,-57.1428571428571,4,1,0,100,0,0
115935,-58.536586508031,4,1,0,100,0,0
116018,-60.00000024,4,1,0,100,0,0
116102,-61.5384615384615,4,1,0,100,0,0
116185,-63.1578948698061,4,1,0,100,0,0
116268,-64.8648648929145,4,1,0,100,0,0
116352,-66.6666666666667,4,1,0,100,0,0
123352,-43.4782608695652,4,1,0,100,0,0
123477,-45.4545454545455,4,1,0,100,0,0
123602,-47.6190476190476,4,1,0,100,0,0
123727,-50,4,1,0,100,0,0
123852,-52.6315789473684,4,1,0,100,0,0
123977,-55.5555555555556,4,1,0,100,0,0
124102,-58.8235294117647,4,1,0,100,0,0
124227,-62.5,4,1,0,100,0,0
124352,-66.6666666666667,4,1,0,100,0,0
131477,-62.5,4,1,0,100,0,0
131602,-58.8235294117647,4,1,0,100,0,0
131727,-55.5555555555556,4,1,0,100,0,0
131852,-52.6315789473684,4,1,0,100,0,0
131893,-51.72413882283,4,1,0,100,0,0
131935,-50.8474593507613,4,1,0,100,0,0
132018,-49.1803286750874,4,1,0,100,0,0
132102,-47.6190476190476,4,1,0,100,0,0
132185,-46.1538475739645,4,1,0,100,0,0
132268,-44.7761200712854,4,1,0,100,0,0
132352,-43.4782608695652,4,1,0,100,0,1
151435,-44.7761200712854,4,1,0,100,0,1
151518,-46.153860355034,4,1,0,100,0,1
151602,-47.6190476190476,4,1,0,100,0,1
151664,-48.780487804878,4,1,0,100,0,1
151727,-50,4,1,0,100,0,1
151789,-51.2820512820513,4,1,0,100,0,1
151852,-52.6315789473684,4,1,0,100,0,1
151935,-54.5454555371901,4,1,0,100,0,1
152018,-56.6037949448283,4,1,0,100,0,1
152102,-58.8235294117647,4,1,0,100,0,1
152185,-61.2245022907148,4,1,0,100,0,1
152268,-63.8297899502038,4,1,0,100,0,1
152352,-66.6666666666667,4,1,0,100,0,0
158352,-50,4,1,0,100,0,0
158352,-50,4,1,0,100,0,0
158414,-50.19505799537,4,1,0,100,0,0
158477,-50.3916438560492,4,1,0,100,0,0
158539,-50.5897756039913,4,1,0,100,0,0
158602,-50.7894715457065,4,1,0,100,0,0
158664,-50.9907502778996,4,1,0,100,0,0
158726,-51.1936306932437,4,1,0,100,0,0
158789,-51.3981319862911,4,1,0,100,0,0
158851,-51.6042736595274,4,1,0,100,0,0
158914,-51.8120755295712,4,1,0,100,0,0
158977,-52.0215577335248,4,1,0,100,0,0
159039,-52.2327407354788,4,1,0,100,0,0
159102,-52.4456453331767,4,1,0,100,0,0
159164,-52.6602926648425,4,1,0,100,0,0
159227,-52.8767042161769,4,1,0,100,0,0
159289,-53.0949018275265,4,1,0,100,0,0
159352,-53.3149077012318,4,1,0,100,0,0
159414,-53.5367444091578,4,1,0,100,0,0
159477,-53.7604349004142,4,1,0,100,0,0
159539,-53.9860025092694,4,1,0,100,0,0
159602,-54.213470963265,4,1,0,100,0,0
159664,-54.4428643915357,4,1,0,100,0,0
159727,-54.6742073333421,4,1,0,100,0,0
159789,-54.9075247468214,4,1,0,100,0,0
159852,-55.1428420179633,4,1,0,100,0,0
159935,-55.4597642183584,4,1,0,100,0,0
160018,-55.7803503675367,4,1,0,100,0,0
160102,-56.104664373482,4,1,0,100,0,0
160185,-56.4327397925871,4,1,0,100,0,0
160268,-56.7647068840831,4,1,0,100,0,0
160352,-57.1006026968615,4,1,0,100,0,1
174602,-57.1428571428571,4,1,0,100,0,1
174727,-56.1182028931178,4,1,0,100,0,1
174852,-55.1296787869265,4,1,0,100,0,1
174977,-54.1753482662263,4,1,0,100,0,1
175102,-53.253495692591,4,1,0,100,0,1
175227,-52.3625182810642,4,1,0,100,0,1
175352,-51.5008374036162,4,1,0,100,0,0
175477,-50.667057140787,4,1,0,100,0,0
175602,-49.859868838629,4,1,0,100,0,0
175727,-49.0779721374537,4,1,0,100,0,0
175852,-48.3202200309539,4,1,0,100,0,0
175977,-47.5855338073804,4,1,0,100,0,0
176102,-46.8728321315139,4,1,0,100,0,0
176227,-46.1811640886032,4,1,0,100,0,0
176352,-45.5096327964259,4,1,0,100,0,1
192352,-45.4545454545455,4,1,0,100,0,0
192852,-46.3755856656775,4,1,0,100,0,0
193352,-47.3347237119512,4,1,0,100,0,0
193602,-47.8293372719198,4,1,0,100,0,0
194102,-48.8502125472748,4,1,0,100,0,0
194352,-49.3771565473122,4,1,0,100,0,0
195352,-51.6038209533187,4,1,0,100,0,0
195852,-52.7941850372833,4,1,0,100,0,0
196352,-54.0407629474913,4,1,0,100,0,0
197602,-57.4309306912042,4,1,0,100,0,0
198102,-58.9091556020545,4,1,0,100,0,0
198352,-59.6771585079039,4,1,0,100,0,0
199102,-62.1062849697201,4,1,0,100,0,0
199185,-62.3884416677429,4,1,0,100,0,0
199268,-62.6731738133931,4,1,0,100,0,0
199352,-62.9605564705823,4,1,0,100,0,0
199768,-64.437722873974,4,1,0,100,0,0
200102,-65.6703597487978,4,1,0,100,0,0
200352,-66.6262467436422,4,1,0,100,0,0
206352,-66.6666666666667,4,1,0,100,0,0
206602,-62.5202409280004,4,1,0,100,0,0
206664,-61.5630109729911,4,1,0,100,0,0
206727,-60.6346139970156,4,1,0,100,0,0
206789,-59.7338379647965,4,1,0,100,0,0
206852,-58.8593990219922,4,1,0,100,0,0
206977,-57.1851741717442,4,1,0,100,0,0
207102,-55.603559962323,4,1,0,100,0,0
207164,-54.8451283266313,4,1,0,100,0,0
207227,-54.1070789914657,4,1,0,100,0,0
207289,-53.388658220225,4,1,0,100,0,0
207352,-52.6890654909277,4,1,0,100,0,0
207477,-51.3434527855877,4,1,0,100,0,0
207602,-50.0648590248667,4,1,0,100,0,0
207727,-48.848398993723,4,1,0,100,0,0
207852,-47.6896510119029,4,1,0,100,0,0
207977,-46.5846032296174,4,1,0,100,0,0
208102,-45.5296072206315,4,1,0,100,0,0
208227,-44.5213377415394,4,1,0,100,0,0
208352,-43.5567577220687,4,1,0,100,0,1
227435,-44.7761200712854,4,1,0,100,0,1
227518,-46.153860355034,4,1,0,100,0,1
227602,-47.6190476190476,4,1,0,100,0,1
227664,-48.780487804878,4,1,0,100,0,1
227727,-50,4,1,0,100,0,1
227789,-51.2820512820513,4,1,0,100,0,1
227852,-52.6315789473684,4,1,0,100,0,1
227935,-54.5454555371901,4,1,0,100,0,1
228018,-56.6037949448283,4,1,0,100,0,1
228102,-58.8235294117647,4,1,0,100,0,1
228185,-61.2245022907148,4,1,0,100,0,1
228268,-63.8297899502038,4,1,0,100,0,1
228352,-66.6666666666667,4,1,0,100,0,0

[HitObjects]
152,96,352,5,8,0:0:0:0:
152,96,477,1,8,0:0:0:0:
152,96,602,1,8,0:0:0:0:
152,96,1102,5,8,0:0:0:0:
152,96,1227,1,8,0:0:0:0:
152,96,1352,1,8,0:0:0:0:
152,96,1852,5,8,0:0:0:0:
152,96,1977,1,8,0:0:0:0:
152,96,2102,1,8,0:0:0:0:
176,104,2164,1,8,0:0:0:0:
176,104,2227,1,8,0:0:0:0:
176,104,2289,1,8,0:0:0:0:
152,96,2352,5,8,0:0:0:0:
152,96,2477,1,8,0:0:0:0:
152,96,2602,1,8,0:0:0:0:
152,96,3102,5,8,0:0:0:0:
152,96,3227,1,8,0:0:0:0:
152,96,3352,1,8,0:0:0:0:
152,96,3602,1,8,0:0:0:0:
152,96,3852,5,8,0:0:0:0:
160,64,3977,1,8,0:0:0:0:
152,96,4102,1,8,0:0:0:0:
176,104,4164,1,8,0:0:0:0:
176,104,4227,1,8,0:0:0:0:
176,104,4289,1,8,0:0:0:0:
152,96,4352,5,8,0:0:0:0:
152,96,4477,1,8,0:0:0:0:
152,96,4602,1,8,0:0:0:0:
152,96,5102,5,8,0:0:0:0:
152,96,5227,1,8,0:0:0:0:
152,96,5352,1,8,0:0:0:0:
152,96,5852,5,8,0:0:0:0:
152,96,5977,1,8,0:0:0:0:
152,96,6102,1,8,0:0:0:0:
176,104,6164,1,8,0:0:0:0:
176,104,6227,1,8,0:0:0:0:
176,104,6289,1,8,0:0:0:0:
152,96,6352,5,8,0:0:0:0:
152,96,6477,1,8,0:0:0:0:
152,96,6602,1,8,0:0:0:0:
152,96,7102,5,8,0:0:0:0:
152,96,7227,1,8,0:0:0:0:
152,96,7352,1,8,0:0:0:0:
152,96,7602,1,8,0:0:0:0:
152,96,7852,5,8,0:0:0:0:
160,64,7977,1,8,0:0:0:0:
152,96,8102,1,8,0:0:0:0:
176,104,8164,1,8,0:0:0:0:
176,104,8227,1,8,0:0:0:0:
176,104,8289,1,8,0:0:0:0:
152,96,8352,5,8,0:0:0:0:
152,96,8477,1,8,0:0:0:0:
152,96,8602,1,8,0:0:0:0:
184,80,8852,1,0,0:0:0:0:
152,96,9102,5,8,0:0:0:0:
152,96,9227,1,8,0:0:0:0:
152,96,9352,1,8,0:0:0:0:
152,96,9852,5,8,0:0:0:0:
152,96,9977,1,8,0:0:0:0:
152,96,10102,1,8,0:0:0:0:
176,104,10164,1,8,0:0:0:0:
176,104,10227,1,8,0:0:0:0:
176,104,10289,1,8,0:0:0:0:
152,96,10352,5,8,0:0:0:0:
152,96,10477,1,8,0:0:0:0:
152,96,10602,1,8,0:0:0:0:
256,56,10852,1,0,0:0:0:0:
152,96,11102,5,8,0:0:0:0:
152,96,11227,1,8,0:0:0:0:
152,96,11352,1,8,0:0:0:0:
152,96,11602,1,8,0:0:0:0:
152,96,11852,5,8,0:0:0:0:
160,64,11977,1,8,0:0:0:0:
152,96,12102,1,8,0:0:0:0:
176,104,12164,1,8,0:0:0:0:
176,104,12227,1,8,0:0:0:0:
176,104,12289,1,8,0:0:0:0:
152,96,12352,5,8,0:0:0:0:
152,96,12477,1,8,0:0:0:0:
152,96,12602,1,8,0:0:0:0:
184,80,12852,1,0,0:0:0:0:
152,96,13102,5,8,0:0:0:0:
152,96,13227,1,8,0:0:0:0:
152,96,13352,1,8,0:0:0:0:
152,96,13852,5,8,0:0:0:0:
152,96,13977,1,8,0:0:0:0:
152,96,14102,1,8,0:0:0:0:
176,104,14164,1,8,0:0:0:0:
176,104,14227,1,8,0:0:0:0:
176,104,14289,1,8,0:0:0:0:
152,96,14352,5,8,0:0:0:0:
152,96,14477,1,8,0:0:0:0:
152,96,14602,1,8,0:0:0:0:
176,72,14852,1,0,0:0:0:0:
152,96,15102,5,8,0:0:0:0:
152,96,15227,1,8,0:0:0:0:
152,96,15352,1,0,0:0:0:0:
152,96,15602,1,0,0:0:0:0:
152,96,15852,5,0,0:0:0:0:
152,96,16102,1,0,0:0:0:0:
248,48,16352,1,4,0:0:0:0:
160,72,16477,1,0,0:0:0:0:
168,72,16602,1,0,0:0:0:0:
160,72,16727,1,8,0:0:0:0:
160,72,16852,1,8,0:0:0:0:
160,72,16977,1,0,0:0:0:0:
248,48,17352,1,0,0:0:0:0:
160,72,17477,1,0,0:0:0:0:
168,72,17602,1,0,0:0:0:0:
160,72,17727,1,8,0:0:0:0:
160,72,17852,1,8,0:0:0:0:
160,72,17977,1,0,0:0:0:0:
184,72,18102,1,0,0:0:0:0:
184,72,18227,1,8,0:0:0:0:
248,48,18352,1,0,0:0:0:0:
160,72,18477,1,0,0:0:0:0:
168,72,18602,1,8,0:0:0:0:
160,72,18727,1,8,0:0:0:0:
160,72,18852,1,8,0:0:0:0:
160,72,18977,1,0,0:0:0:0:
248,48,19352,1,0,0:0:0:0:
160,72,19477,1,0,0:0:0:0:
168,72,19602,1,8,0:0:0:0:
160,72,19727,1,8,0:0:0:0:
160,72,19852,1,8,0:0:0:0:
160,72,19977,1,0,0:0:0:0:
184,72,20102,1,0,0:0:0:0:
168,128,20164,1,0,0:0:0:0:
168,136,20227,1,0,0:0:0:0:
168,136,20289,1,0,0:0:0:0:
248,48,20352,1,0,0:0:0:0:
160,72,20477,1,8,0:0:0:0:
168,72,20602,1,8,0:0:0:0:
160,72,20727,1,8,0:0:0:0:
160,72,20852,1,8,0:0:0:0:
160,72,20977,1,0,0:0:0:0:
248,48,21352,1,0,0:0:0:0:
160,72,21477,1,8,0:0:0:0:
168,72,21602,1,8,0:0:0:0:
160,72,21727,1,8,0:0:0:0:
160,72,21852,1,8,0:0:0:0:
160,72,21977,1,0,0:0:0:0:
184,72,22102,1,0,0:0:0:0:
184,72,22227,1,8,0:0:0:0:
248,48,22352,1,0,0:0:0:0:
160,72,22477,1,0,0:0:0:0:
168,72,22602,1,8,0:0:0:0:
160,72,22727,1,0,0:0:0:0:
160,72,22852,1,8,0:0:0:0:
160,72,22977,1,0,0:0:0:0:
248,48,23352,1,0,0:0:0:0:
160,72,23477,1,0,0:0:0:0:
168,72,23602,1,8,0:0:0:0:
160,72,23852,1,0,0:0:0:0:
184,72,24102,1,0,0:0:0:0:
248,48,24352,1,12,0:0:0:0:
160,72,24477,1,0,0:0:0:0:
168,72,24602,1,0,0:0:0:0:
160,72,24727,1,8,0:0:0:0:
160,72,24852,1,8,0:0:0:0:
160,72,24977,1,0,0:0:0:0:
192,80,25102,1,8,0:0:0:0:
248,48,25227,1,0,0:0:0:0:
192,80,25352,1,8,0:0:0:0:
160,72,25477,1,0,0:0:0:0:
168,72,25602,1,0,0:0:0:0:
160,72,25727,1,8,0:0:0:0:
160,72,25852,1,8,0:0:0:0:
160,72,25977,1,0,0:0:0:0:
184,72,26102,1,0,0:0:0:0:
184,72,26227,1,8,0:0:0:0:
248,48,26352,1,8,0:0:0:0:
160,72,26477,1,0,0:0:0:0:
168,72,26602,1,8,0:0:0:0:
160,72,26727,1,8,0:0:0:0:
160,72,26852,1,8,0:0:0:0:
160,72,26977,1,0,0:0:0:0:
168,72,27102,1,8,0:0:0:0:
168,72,27227,1,0,0:0:0:0:
248,48,27352,1,8,0:0:0:0:
160,72,27477,1,0,0:0:0:0:
168,72,27602,1,8,0:0:0:0:
160,72,27727,1,8,0:0:0:0:
160,72,27852,1,8,0:0:0:0:
160,72,27977,1,0,0:0:0:0:
184,72,28102,1,8,0:0:0:0:
168,128,28164,1,8,0:0:0:0:
168,136,28227,1,8,0:0:0:0:
168,136,28289,1,8,0:0:0:0:
248,48,28352,1,8,0:0:0:0:
160,72,28477,1,8,0:0:0:0:
168,72,28602,1,8,0:0:0:0:
160,72,28727,1,8,0:0:0:0:
160,72,28852,1,8,0:0:0:0:
160,72,28977,1,0,0:0:0:0:
192,56,29102,1,8,0:0:0:0:
176,32,29227,1,0,0:0:0:0:
248,48,29352,1,8,0:0:0:0:
160,72,29477,1,8,0:0:0:0:
168,72,29602,1,8,0:0:0:0:
160,72,29727,1,8,0:0:0:0:
160,72,29852,1,8,0:0:0:0:
160,72,29977,1,0,0:0:0:0:
184,72,30102,1,0,0:0:0:0:
184,72,30227,1,8,0:0:0:0:
248,48,30352,1,0,0:0:0:0:
160,72,30477,1,0,0:0:0:0:
168,72,30602,1,8,0:0:0:0:
160,72,30727,1,0,0:0:0:0:
160,72,30852,1,8,0:0:0:0:
160,72,30977,1,0,0:0:0:0:
160,96,31102,1,8,0:0:0:0:
160,96,31227,1,8,0:0:0:0:
248,48,31352,1,0,0:0:0:0:
160,48,31435,1,0,0:0:0:0:
160,72,31518,1,0,0:0:0:0:
168,72,31602,1,8,0:0:0:0:
192,40,31727,1,8,0:0:0:0:
160,72,31852,1,0,0:0:0:0:
192,40,31977,1,8,0:0:0:0:
192,40,32102,1,8,0:0:0:0:
184,40,32227,1,8,0:0:0:0:
160,136,32352,1,4,0:0:0:0:
192,88,32476,1,0,0:0:0:0:
168,160,32601,1,8,0:0:0:0:
168,152,32726,1,0,0:0:0:0:
168,144,32852,1,0,0:0:0:0:
168,144,32914,1,0,0:0:0:0:
160,144,32977,1,0,0:0:0:0:
176,144,33102,1,8,0:0:0:0:
208,88,33227,1,8,0:0:0:0:
208,80,33352,1,0,0:0:0:0:
208,80,33477,1,0,0:0:0:0:
208,80,33539,1,0,0:0:0:0:
208,80,33602,1,8,0:0:0:0:
208,80,33727,1,0,0:0:0:0:
208,80,33852,1,8,0:0:0:0:
208,80,33914,1,8,0:0:0:0:
208,80,33977,1,0,0:0:0:0:
184,120,34102,1,8,0:0:0:0:
192,120,34227,1,0,0:0:0:0:
192,120,34352,1,8,0:0:0:0:
200,32,34414,1,8,0:0:0:0:
208,80,34477,1,0,0:0:0:0:
168,160,34602,1,8,0:0:0:0:
168,152,34727,1,0,0:0:0:0:
168,144,34789,1,0,0:0:0:0:
168,144,34852,1,0,0:0:0:0:
160,144,34977,1,0,0:0:0:0:
176,144,35102,1,8,0:0:0:0:
208,88,35227,1,8,0:0:0:0:
160,56,35289,1,8,0:0:0:0:
208,80,35352,1,0,0:0:0:0:
208,80,35477,1,0,0:0:0:0:
208,80,35539,1,0,0:0:0:0:
208,80,35602,1,8,0:0:0:0:
208,80,35727,1,0,0:0:0:0:
208,80,35852,1,8,0:0:0:0:
208,80,35914,1,8,0:0:0:0:
208,80,35977,1,8,0:0:0:0:
184,120,36102,1,8,0:0:0:0:
192,120,36227,1,0,0:0:0:0:
184,64,36352,1,8,0:0:0:0:
184,64,36414,1,8,0:0:0:0:
184,64,36477,1,0,0:0:0:0:
168,160,36602,1,8,0:0:0:0:
168,152,36727,1,0,0:0:0:0:
168,144,36789,1,0,0:0:0:0:
168,144,36852,1,0,0:0:0:0:
160,144,36977,1,0,0:0:0:0:
176,144,37102,1,8,0:0:0:0:
208,88,37227,1,8,0:0:0:0:
208,80,37352,1,0,0:0:0:0:
208,80,37414,1,0,0:0:0:0:
208,80,37477,1,0,0:0:0:0:
208,80,37602,1,8,0:0:0:0:
208,80,37727,1,0,0:0:0:0:
208,80,37852,1,8,0:0:0:0:
208,80,37914,1,0,0:0:0:0:
208,80,37977,1,8,0:0:0:0:
184,120,38102,1,8,0:0:0:0:
192,120,38227,1,0,0:0:0:0:
192,120,38352,1,8,0:0:0:0:
144,80,38414,1,0,0:0:0:0:
144,80,38477,1,8,0:0:0:0:
168,160,38602,1,8,0:0:0:0:
168,152,38727,1,8,0:0:0:0:
168,144,38789,1,8,0:0:0:0:
168,144,38852,1,0,0:0:0:0:
160,144,38977,1,0,0:0:0:0:
192,48,39039,1,0,0:0:0:0:
176,144,39102,1,8,0:0:0:0:
208,88,39227,1,8,0:0:0:0:
208,80,39352,1,0,0:0:0:0:
208,80,39477,1,0,0:0:0:0:
208,80,39539,1,0,0:0:0:0:
208,80,39602,1,8,0:0:0:0:
208,80,39727,1,0,0:0:0:0:
208,80,39852,1,8,0:0:0:0:
208,80,39914,1,8,0:0:0:0:
208,80,39977,1,8,0:0:0:0:
184,120,40102,1,8,0:0:0:0:
192,120,40227,1,8,0:0:0:0:
192,120,40352,1,4,0:0:0:0:
192,72,40477,1,0,0:0:0:0:
168,160,40602,1,8,0:0:0:0:
168,152,40727,1,0,0:0:0:0:
168,144,40852,1,8,0:0:0:0:
144,56,40914,1,0,0:0:0:0:
160,144,40977,1,8,0:0:0:0:
176,144,41102,1,8,0:0:0:0:
208,88,41227,1,8,0:0:0:0:
160,56,41289,1,8,0:0:0:0:
208,80,41352,1,0,0:0:0:0:
208,80,41477,1,0,0:0:0:0:
208,80,41602,1,8,0:0:0:0:
208,80,41727,1,0,0:0:0:0:
208,80,41789,1,0,0:0:0:0:
208,80,41852,1,8,0:0:0:0:
208,80,41914,1,0,0:0:0:0:
208,80,41977,1,8,0:0:0:0:
184,120,42102,1,8,0:0:0:0:
192,120,42227,1,0,0:0:0:0:
192,120,42352,1,8,0:0:0:0:
152,104,42414,1,8,0:0:0:0:
192,72,42477,1,0,0:0:0:0:
160,144,42602,1,8,0:0:0:0:
168,152,42727,1,0,0:0:0:0:
144,56,42789,1,0,0:0:0:0:
168,144,42852,1,8,0:0:0:0:
208,80,42977,1,0,0:0:0:0:
176,144,43102,1,8,0:0:0:0:
168,160,43164,1,0,0:0:0:0:
208,88,43227,1,8,0:0:0:0:
160,56,43289,1,8,0:0:0:0:
208,80,43352,1,0,0:0:0:0:
208,80,43477,1,0,0:0:0:0:
208,80,43602,1,8,0:0:0:0:
208,80,43727,1,0,0:0:0:0:
208,80,43852,1,8,0:0:0:0:
208,80,43914,1,8,0:0:0:0:
208,80,43977,1,8,0:0:0:0:
184,120,44102,1,8,0:0:0:0:
192,120,44227,1,0,0:0:0:0:
192,120,44352,1,8,0:0:0:0:
192,72,44477,1,0,0:0:0:0:
160,144,44602,1,8,0:0:0:0:
144,56,44664,1,0,0:0:0:0:
168,144,44727,1,8,0:0:0:0:
168,160,44852,1,8,0:0:0:0:
168,152,44977,1,0,0:0:0:0:
72,112,45039,1,0,0:0:0:0:
176,144,45102,1,8,0:0:0:0:
208,88,45227,1,8,0:0:0:0:
208,80,45352,1,0,0:0:0:0:
160,56,45414,1,0,0:0:0:0:
208,80,45477,1,0,0:0:0:0:
208,80,45602,1,8,0:0:0:0:
208,80,45727,1,0,0:0:0:0:
208,80,45789,1,0,0:0:0:0:
208,80,45852,1,8,0:0:0:0:
208,80,45914,1,0,0:0:0:0:
208,80,45977,1,8,0:0:0:0:
184,120,46102,1,8,0:0:0:0:
192,120,46227,1,0,0:0:0:0:
192,120,46352,1,8,0:0:0:0:
192,72,46477,1,0,0:0:0:0:
168,160,46602,1,8,0:0:0:0:
168,152,46727,1,0,0:0:0:0:
192,48,46789,1,0,0:0:0:0:
168,144,46852,1,8,0:0:0:0:
160,144,46977,1,0,0:0:0:0:
176,144,47102,1,8,0:0:0:0:
208,88,47227,1,0,0:0:0:0:
160,56,47289,1,0,0:0:0:0:
208,80,47352,1,8,0:0:0:0:
208,80,47414,1,0,0:0:0:0:
208,80,47477,1,0,0:0:0:0:
208,80,47539,1,0,0:0:0:0:
208,80,47602,1,8,0:0:0:0:
208,80,47727,1,8,0:0:0:0:
208,80,47852,1,0,0:0:0:0:
208,80,47977,1,8,0:0:0:0:
184,120,48102,1,8,0:0:0:0:
192,120,48227,1,8,0:0:0:0:
192,120,48352,1,4,0:0:0:0:
184,136,48477,1,8,0:0:0:0:
184,136,48602,1,0,0:0:0:0:
184,136,48727,1,0,0:0:0:0:
184,144,48852,1,8,0:0:0:0:
184,144,48977,1,8,0:0:0:0:
184,144,49102,1,8,0:0:0:0:
192,120,49227,1,0,0:0:0:0:
192,120,49352,1,8,0:0:0:0:
192,120,49477,1,8,0:0:0:0:
192,120,49602,1,0,0:0:0:0:
192,120,49727,1,0,0:0:0:0:
176,128,49852,1,8,0:0:0:0:
192,120,49977,1,8,0:0:0:0:
192,104,50102,1,8,0:0:0:0:
192,104,50227,1,8,0:0:0:0:
192,104,50352,1,8,0:0:0:0:
192,104,50477,1,0,0:0:0:0:
192,104,50602,1,8,0:0:0:0:
192,104,50727,1,0,0:0:0:0:
192,104,50852,1,8,0:0:0:0:
192,104,50977,1,0,0:0:0:0:
192,104,51102,1,8,0:0:0:0:
192,104,51227,1,0,0:0:0:0:
192,104,51352,1,8,0:0:0:0:
192,104,51477,1,8,0:0:0:0:
192,104,51602,1,0,0:0:0:0:
192,104,51727,1,0,0:0:0:0:
192,104,51852,1,8,0:0:0:0:
192,104,51977,1,8,0:0:0:0:
192,104,52102,1,0,0:0:0:0:
184,136,52227,1,0,0:0:0:0:
192,120,52352,1,8,0:0:0:0:
192,112,52477,1,8,0:0:0:0:
184,136,52602,1,8,0:0:0:0:
184,144,52727,1,8,0:0:0:0:
184,136,52852,1,8,0:0:0:0:
184,144,52977,1,0,0:0:0:0:
184,144,53102,1,8,0:0:0:0:
192,120,53227,1,0,0:0:0:0:
192,120,53352,1,8,0:0:0:0:
192,120,53477,1,8,0:0:0:0:
192,120,53602,1,0,0:0:0:0:
192,120,53727,1,0,0:0:0:0:
176,128,53852,1,8,0:0:0:0:
192,120,53977,1,8,0:0:0:0:
192,104,54102,1,8,0:0:0:0:
192,104,54227,1,8,0:0:0:0:
192,104,54352,1,8,0:0:0:0:
192,104,54477,1,0,0:0:0:0:
192,104,54602,1,8,0:0:0:0:
192,104,54727,1,0,0:0:0:0:
192,104,54852,1,8,0:0:0:0:
192,104,54977,1,0,0:0:0:0:
192,104,55102,1,8,0:0:0:0:
192,104,55227,1,0,0:0:0:0:
192,104,55352,1,12,0:0:0:0:
192,104,55477,1,0,0:0:0:0:
192,104,55602,1,12,0:0:0:0:
192,104,55727,1,0,0:0:0:0:
192,104,55852,1,12,0:0:0:0:
192,104,55977,1,0,0:0:0:0:
192,104,56102,1,12,0:0:0:0:
192,112,56227,1,8,0:0:0:0:
192,120,56352,1,4,0:0:0:0:
184,136,56477,1,0,0:0:0:0:
184,144,56602,1,8,0:0:0:0:
184,144,56727,1,8,0:0:0:0:
184,144,56852,1,8,0:0:0:0:
184,136,56977,1,0,0:0:0:0:
184,136,57102,1,8,0:0:0:0:
192,120,57227,1,0,0:0:0:0:
192,120,57352,1,8,0:0:0:0:
192,120,57477,1,8,0:0:0:0:
192,120,57602,1,0,0:0:0:0:
192,120,57727,1,0,0:0:0:0:
176,128,57852,1,8,0:0:0:0:
192,120,57977,1,8,0:0:0:0:
192,104,58102,1,8,0:0:0:0:
192,104,58227,1,8,0:0:0:0:
192,104,58352,1,8,0:0:0:0:
192,104,58477,1,0,0:0:0:0:
192,104,58602,1,8,0:0:0:0:
192,104,58727,1,0,0:0:0:0:
192,104,58852,1,8,0:0:0:0:
192,104,58977,1,0,0:0:0:0:
192,104,59102,1,8,0:0:0:0:
192,104,59227,1,0,0:0:0:0:
192,104,59352,1,8,0:0:0:0:
192,104,59477,1,8,0:0:0:0:
192,104,59602,1,0,0:0:0:0:
192,104,59727,1,0,0:0:0:0:
192,104,59852,1,8,0:0:0:0:
192,104,59977,1,8,0:0:0:0:
192,104,60102,1,0,0:0:0:0:
184,136,60227,1,0,0:0:0:0:
192,120,60352,1,8,0:0:0:0:
192,112,60477,1,8,0:0:0:0:
184,136,60602,1,8,0:0:0:0:
184,144,60727,1,8,0:0:0:0:
184,136,60852,1,8,0:0:0:0:
184,144,60977,1,0,0:0:0:0:
184,144,61102,1,8,0:0:0:0:
192,120,61227,1,0,0:0:0:0:
192,120,61352,1,8,0:0:0:0:
192,120,61477,1,8,0:0:0:0:
192,120,61602,1,0,0:0:0:0:
192,120,61727,1,0,0:0:0:0:
176,128,61852,1,8,0:0:0:0:
192,120,61977,1,8,0:0:0:0:
192,104,62102,1,8,0:0:0:0:
192,104,62227,1,8,0:0:0:0:
192,104,62352,1,8,0:0:0:0:
192,104,62477,1,0,0:0:0:0:
192,104,62602,1,8,0:0:0:0:
192,104,62727,1,0,0:0:0:0:
192,104,62852,1,8,0:0:0:0:
192,104,62977,1,0,0:0:0:0:
192,104,63102,1,8,0:0:0:0:
192,104,63227,1,0,0:0:0:0:
192,104,63352,1,4,0:0:0:0:
192,104,63477,1,8,0:0:0:0:
168,80,63539,1,8,0:0:0:0:
192,104,63602,1,8,0:0:0:0:
192,104,63727,1,8,0:0:0:0:
192,104,63852,1,0,0:0:0:0:
192,104,63935,1,0,0:0:0:0:
192,104,64018,1,0,0:0:0:0:
184,80,64102,1,0,0:0:0:0:
192,48,64185,1,0,0:0:0:0:
192,112,64268,1,0,0:0:0:0:
176,88,64352,1,12,0:0:0:0:
136,128,64601,1,0,0:0:0:0:
136,128,64851,1,8,0:0:0:0:
160,128,64976,1,8,0:0:0:0:
144,128,65101,1,0,0:0:0:0:
144,128,65226,1,0,0:0:0:0:
144,128,65351,1,0,0:0:0:0:
144,128,65602,1,0,0:0:0:0:
184,104,65852,1,8,0:0:0:0:
160,112,66102,1,0,0:0:0:0:
176,136,66185,1,8,0:0:0:0:
176,136,66268,1,8,0:0:0:0:
176,136,66352,1,0,0:0:0:0:
136,128,66602,1,0,0:0:0:0:
160,128,66727,1,0,0:0:0:0:
136,128,66852,1,8,0:0:0:0:
144,128,67102,1,0,0:0:0:0:
144,128,67227,1,8,0:0:0:0:
144,128,67352,1,0,0:0:0:0:
144,128,67602,1,0,0:0:0:0:
184,104,67852,1,8,0:0:0:0:
160,112,68102,1,0,0:0:0:0:
176,136,68352,1,0,0:0:0:0:
136,128,68602,1,0,0:0:0:0:
136,128,68852,1,8,0:0:0:0:
144,128,69102,1,0,0:0:0:0:
144,128,69227,1,0,0:0:0:0:
144,128,69352,1,0,0:0:0:0:
160,128,69477,1,8,0:0:0:0:
144,128,69602,1,0,0:0:0:0:
184,104,69852,1,8,0:0:0:0:
160,112,70102,1,8,0:0:0:0:
176,136,70185,1,8,0:0:0:0:
176,136,70268,1,8,0:0:0:0:
176,136,70352,1,0,0:0:0:0:
136,128,70602,1,0,0:0:0:0:
160,128,70727,1,0,0:0:0:0:
136,128,70852,1,8,0:0:0:0:
144,128,71102,1,0,0:0:0:0:
144,128,71227,1,0,0:0:0:0:
144,128,71352,1,8,0:0:0:0:
192,64,71435,1,8,0:0:0:0:
192,64,71518,1,8,0:0:0:0:
144,128,71602,1,0,0:0:0:0:
200,64,71685,1,0,0:0:0:0:
200,64,71768,1,0,0:0:0:0:
184,104,71852,1,8,0:0:0:0:
192,64,71935,1,8,0:0:0:0:
192,64,72018,1,0,0:0:0:0:
160,112,72102,1,0,0:0:0:0:
192,64,72185,1,0,0:0:0:0:
192,64,72268,1,0,0:0:0:0:
176,136,72352,1,12,0:0:0:0:
136,128,72602,1,0,0:0:0:0:
136,128,72852,1,8,0:0:0:0:
160,128,72977,1,8,0:0:0:0:
144,128,73102,1,0,0:0:0:0:
144,128,73227,1,8,0:0:0:0:
144,128,73352,1,0,0:0:0:0:
144,128,73602,1,0,0:0:0:0:
184,104,73852,1,8,0:0:0:0:
160,112,74102,1,0,0:0:0:0:
176,136,74185,1,8,0:0:0:0:
176,136,74268,1,8,0:0:0:0:
176,136,74352,1,0,0:0:0:0:
136,128,74602,1,0,0:0:0:0:
160,128,74727,1,0,0:0:0:0:
136,128,74852,1,8,0:0:0:0:
144,128,75102,1,0,0:0:0:0:
144,128,75227,1,8,0:0:0:0:
144,128,75352,1,0,0:0:0:0:
144,128,75602,1,0,0:0:0:0:
184,104,75852,1,8,0:0:0:0:
160,112,76102,1,0,0:0:0:0:
176,136,76352,1,0,0:0:0:0:
136,128,76602,1,0,0:0:0:0:
136,128,76852,1,8,0:0:0:0:
144,128,77102,1,0,0:0:0:0:
144,128,77227,1,0,0:0:0:0:
144,128,77352,1,0,0:0:0:0:
160,128,77477,1,8,0:0:0:0:
144,128,77602,1,0,0:0:0:0:
184,104,77852,1,8,0:0:0:0:
160,112,78102,1,8,0:0:0:0:
176,136,78185,1,8,0:0:0:0:
176,136,78268,1,8,0:0:0:0:
176,136,78352,1,0,0:0:0:0:
136,128,78602,1,0,0:0:0:0:
160,128,78727,1,0,0:0:0:0:
136,128,78852,1,8,0:0:0:0:
144,128,79102,1,0,0:0:0:0:
144,128,79227,1,0,0:0:0:0:
144,128,79352,1,8,0:0:0:0:
192,64,79435,1,8,0:0:0:0:
192,64,79518,1,8,0:0:0:0:
144,128,79602,1,0,0:0:0:0:
200,64,79685,1,0,0:0:0:0:
200,64,79768,1,0,0:0:0:0:
184,104,79852,1,8,0:0:0:0:
192,64,79935,1,8,0:0:0:0:
192,64,80018,1,0,0:0:0:0:
160,112,80102,1,0,0:0:0:0:
192,64,80185,1,0,0:0:0:0:
192,64,80268,1,0,0:0:0:0:
176,136,80352,1,12,0:0:0:0:
192,104,80602,1,0,0:0:0:0:
192,104,80852,1,8,0:0:0:0:
192,104,81102,1,0,0:0:0:0:
144,128,81352,1,8,0:0:0:0:
192,64,81435,1,8,0:0:0:0:
192,64,81518,1,8,0:0:0:0:
144,128,81602,1,0,0:0:0:0:
200,64,81685,1,0,0:0:0:0:
200,64,81768,1,0,0:0:0:0:
184,104,81852,1,8,0:0:0:0:
192,64,81935,1,8,0:0:0:0:
192,64,82018,1,0,0:0:0:0:
160,112,82102,1,0,0:0:0:0:
192,64,82185,1,0,0:0:0:0:
192,64,82268,1,0,0:0:0:0:
176,136,82352,1,12,0:0:0:0:
192,104,82602,1,0,0:0:0:0:
192,104,82852,1,8,0:0:0:0:
192,104,83102,1,0,0:0:0:0:
144,128,83352,1,8,0:0:0:0:
192,64,83435,1,8,0:0:0:0:
192,64,83518,1,8,0:0:0:0:
144,128,83602,1,0,0:0:0:0:
200,64,83664,1,0,0:0:0:0:
200,64,83727,1,0,0:0:0:0:
232,72,83789,1,0,0:0:0:0:
184,104,83852,1,8,0:0:0:0:
192,64,83935,1,8,0:0:0:0:
192,64,84018,1,8,0:0:0:0:
160,112,84102,1,8,0:0:0:0:
192,64,84185,1,8,0:0:0:0:
192,64,84268,1,8,0:0:0:0:
248,48,84352,1,4,0:0:0:0:
160,72,84477,1,0,0:0:0:0:
168,72,84602,1,0,0:0:0:0:
160,72,84727,1,8,0:0:0:0:
160,72,84852,1,8,0:0:0:0:
160,72,84977,1,0,0:0:0:0:
248,48,85352,1,0,0:0:0:0:
160,72,85477,1,0,0:0:0:0:
168,72,85602,1,0,0:0:0:0:
160,72,85727,1,8,0:0:0:0:
160,72,85852,1,8,0:0:0:0:
160,72,85977,1,0,0:0:0:0:
184,72,86102,1,0,0:0:0:0:
184,72,86227,1,8,0:0:0:0:
248,48,86352,1,0,0:0:0:0:
160,72,86477,1,0,0:0:0:0:
168,72,86602,1,8,0:0:0:0:
160,72,86727,1,8,0:0:0:0:
160,72,86852,1,8,0:0:0:0:
160,72,86977,1,0,0:0:0:0:
248,48,87352,1,0,0:0:0:0:
160,72,87477,1,0,0:0:0:0:
168,72,87602,1,8,0:0:0:0:
160,72,87727,1,8,0:0:0:0:
160,72,87852,1,8,0:0:0:0:
160,72,87977,1,0,0:0:0:0:
184,72,88102,1,0,0:0:0:0:
168,128,88164,1,0,0:0:0:0:
168,136,88227,1,0,0:0:0:0:
168,136,88289,1,0,0:0:0:0:
248,48,88352,1,0,0:0:0:0:
160,72,88477,1,8,0:0:0:0:
168,72,88602,1,8,0:0:0:0:
160,72,88727,1,8,0:0:0:0:
160,72,88852,1,8,0:0:0:0:
160,72,88977,1,0,0:0:0:0:
248,48,89352,1,0,0:0:0:0:
160,72,89477,1,8,0:0:0:0:
168,72,89602,1,8,0:0:0:0:
160,72,89727,1,8,0:0:0:0:
160,72,89852,1,8,0:0:0:0:
160,72,89977,1,0,0:0:0:0:
184,72,90102,1,0,0:0:0:0:
184,72,90227,1,8,0:0:0:0:
248,48,90352,1,0,0:0:0:0:
160,72,90477,1,0,0:0:0:0:
168,72,90602,1,8,0:0:0:0:
160,72,90727,1,0,0:0:0:0:
160,72,90852,1,8,0:0:0:0:
160,72,90977,1,0,0:0:0:0:
248,48,91352,1,0,0:0:0:0:
160,72,91477,1,0,0:0:0:0:
168,72,91602,1,8,0:0:0:0:
160,72,91852,1,0,0:0:0:0:
184,72,92102,1,0,0:0:0:0:
248,48,92352,1,12,0:0:0:0:
160,72,92477,1,0,0:0:0:0:
168,72,92602,1,0,0:0:0:0:
160,72,92727,1,8,0:0:0:0:
160,72,92852,1,8,0:0:0:0:
160,72,92977,1,0,0:0:0:0:
192,80,93102,1,8,0:0:0:0:
248,48,93227,1,0,0:0:0:0:
192,80,93352,1,8,0:0:0:0:
160,72,93477,1,0,0:0:0:0:
168,72,93602,1,0,0:0:0:0:
160,72,93727,1,8,0:0:0:0:
160,72,93852,1,8,0:0:0:0:
160,72,93977,1,0,0:0:0:0:
184,72,94102,1,0,0:0:0:0:
184,72,94227,1,8,0:0:0:0:
248,48,94352,1,8,0:0:0:0:
160,72,94477,1,0,0:0:0:0:
168,72,94602,1,8,0:0:0:0:
160,72,94727,1,8,0:0:0:0:
160,72,94852,1,8,0:0:0:0:
160,72,94977,1,0,0:0:0:0:
168,72,95102,1,8,0:0:0:0:
168,72,95227,1,0,0:0:0:0:
248,48,95352,1,8,0:0:0:0:
160,72,95477,1,0,0:0:0:0:
168,72,95602,1,8,0:0:0:0:
160,72,95727,1,8,0:0:0:0:
160,72,95852,1,8,0:0:0:0:
160,72,95977,1,0,0:0:0:0:
184,72,96102,1,8,0:0:0:0:
168,128,96164,1,8,0:0:0:0:
168,136,96227,1,8,0:0:0:0:
168,136,96289,1,8,0:0:0:0:
248,48,96352,1,8,0:0:0:0:
160,72,96477,1,8,0:0:0:0:
168,72,96602,1,8,0:0:0:0:
160,72,96727,1,8,0:0:0:0:
160,72,96852,1,8,0:0:0:0:
160,72,96977,1,0,0:0:0:0:
192,56,97102,1,8,0:0:0:0:
176,32,97227,1,0,0:0:0:0:
248,48,97352,1,8,0:0:0:0:
160,72,97477,1,8,0:0:0:0:
168,72,97602,1,8,0:0:0:0:
160,72,97727,1,8,0:0:0:0:
160,72,97852,1,8,0:0:0:0:
160,72,97977,1,0,0:0:0:0:
184,72,98102,1,0,0:0:0:0:
184,72,98227,1,8,0:0:0:0:
248,48,98352,1,0,0:0:0:0:
160,72,98477,1,0,0:0:0:0:
168,72,98602,1,8,0:0:0:0:
160,72,98727,1,0,0:0:0:0:
160,72,98852,1,8,0:0:0:0:
160,72,98977,1,0,0:0:0:0:
160,96,99102,1,8,0:0:0:0:
160,96,99227,1,8,0:0:0:0:
248,48,99352,1,0,0:0:0:0:
160,48,99435,1,0,0:0:0:0:
192,104,99518,1,0,0:0:0:0:
168,72,99602,1,8,0:0:0:0:
192,40,99727,1,8,0:0:0:0:
160,72,99852,1,0,0:0:0:0:
192,40,99977,1,8,0:0:0:0:
192,40,100102,1,8,0:0:0:0:
184,40,100227,1,8,0:0:0:0:
160,136,100352,1,4,0:0:0:0:
192,88,100477,1,0,0:0:0:0:
168,160,100602,1,8,0:0:0:0:
168,152,100727,1,0,0:0:0:0:
168,144,100852,1,0,0:0:0:0:
168,144,100914,1,0,0:0:0:0:
160,144,100977,1,0,0:0:0:0:
200,128,101039,1,0,0:0:0:0:
176,144,101102,1,8,0:0:0:0:
208,88,101227,1,8,0:0:0:0:
208,80,101352,1,0,0:0:0:0:
208,80,101477,1,0,0:0:0:0:
208,80,101539,1,0,0:0:0:0:
208,80,101602,1,8,0:0:0:0:
208,80,101727,1,0,0:0:0:0:
208,80,101852,1,8,0:0:0:0:
208,80,101914,1,8,0:0:0:0:
208,80,101977,1,0,0:0:0:0:
168,64,102039,1,0,0:0:0:0:
184,120,102102,1,8,0:0:0:0:
192,120,102227,1,0,0:0:0:0:
192,120,102352,1,8,0:0:0:0:
200,32,102414,1,8,0:0:0:0:
208,80,102477,1,0,0:0:0:0:
168,160,102602,1,8,0:0:0:0:
168,152,102727,1,0,0:0:0:0:
168,144,102789,1,0,0:0:0:0:
168,144,102852,1,8,0:0:0:0:
168,56,102914,1,0,0:0:0:0:
160,144,102977,1,0,0:0:0:0:
176,144,103102,1,8,0:0:0:0:
208,88,103227,1,8,0:0:0:0:
160,56,103289,1,8,0:0:0:0:
208,80,103352,1,0,0:0:0:0:
208,80,103477,1,0,0:0:0:0:
208,80,103539,1,0,0:0:0:0:
208,80,103602,1,8,0:0:0:0:
208,80,103727,1,0,0:0:0:0:
208,80,103852,1,8,0:0:0:0:
208,80,103914,1,8,0:0:0:0:
208,80,103977,1,8,0:0:0:0:
184,120,104102,1,8,0:0:0:0:
192,120,104227,1,0,0:0:0:0:
192,88,104289,1,0,0:0:0:0:
184,64,104352,1,8,0:0:0:0:
184,64,104414,1,8,0:0:0:0:
184,64,104477,1,0,0:0:0:0:
168,160,104602,1,8,0:0:0:0:
168,152,104727,1,0,0:0:0:0:
168,144,104789,1,0,0:0:0:0:
168,144,104852,1,0,0:0:0:0:
176,88,104914,1,0,0:0:0:0:
160,144,104977,1,0,0:0:0:0:
176,144,105102,1,8,0:0:0:0:
208,88,105227,1,8,0:0:0:0:
208,80,105352,1,0,0:0:0:0:
208,80,105414,1,0,0:0:0:0:
208,80,105477,1,0,0:0:0:0:
208,80,105602,1,8,0:0:0:0:
208,80,105727,1,0,0:0:0:0:
208,80,105852,1,8,0:0:0:0:
208,80,105914,1,0,0:0:0:0:
208,80,105977,1,8,0:0:0:0:
184,120,106102,1,8,0:0:0:0:
192,120,106227,1,0,0:0:0:0:
192,120,106352,1,8,0:0:0:0:
144,80,106414,1,0,0:0:0:0:
144,80,106477,1,8,0:0:0:0:
168,160,106602,1,8,0:0:0:0:
168,152,106727,1,8,0:0:0:0:
168,144,106789,1,8,0:0:0:0:
168,144,106852,1,0,0:0:0:0:
160,144,106977,1,0,0:0:0:0:
192,48,107039,1,0,0:0:0:0:
176,144,107102,1,8,0:0:0:0:
184,72,107164,1,0,0:0:0:0:
208,88,107227,1,8,0:0:0:0:
208,80,107352,1,0,0:0:0:0:
208,80,107477,1,0,0:0:0:0:
208,80,107602,1,8,0:0:0:0:
208,80,107727,1,0,0:0:0:0:
208,80,107852,1,0,0:0:0:0:
208,80,107914,1,0,0:0:0:0:
208,80,107977,1,0,0:0:0:0:
184,120,108102,1,8,0:0:0:0:
192,120,108227,1,8,0:0:0:0:
192,120,108352,1,4,0:0:0:0:
192,72,108477,1,0,0:0:0:0:
168,160,108602,1,8,0:0:0:0:
168,152,108727,1,0,0:0:0:0:
168,144,108852,1,8,0:0:0:0:
144,56,108914,1,0,0:0:0:0:
160,144,108977,1,8,0:0:0:0:
176,112,109039,1,0,0:0:0:0:
176,144,109102,1,8,0:0:0:0:
208,88,109227,1,0,0:0:0:0:
208,80,109352,1,0,0:0:0:0:
208,80,109477,1,0,0:0:0:0:
160,56,109539,1,0,0:0:0:0:
208,80,109602,1,8,0:0:0:0:
208,80,109727,1,0,0:0:0:0:
208,80,109789,1,0,0:0:0:0:
208,80,109852,1,8,0:0:0:0:
208,80,109914,1,0,0:0:0:0:
208,80,109977,1,8,0:0:0:0:
184,120,110102,1,8,0:0:0:0:
192,120,110227,1,0,0:0:0:0:
192,120,110352,1,8,0:0:0:0:
192,72,110477,1,0,0:0:0:0:
160,144,110602,1,8,0:0:0:0:
152,104,110664,1,8,0:0:0:0:
168,152,110727,1,0,0:0:0:0:
144,56,110789,1,0,0:0:0:0:
168,144,110852,1,8,0:0:0:0:
208,80,110977,1,0,0:0:0:0:
176,144,111102,1,8,0:0:0:0:
168,160,111164,1,0,0:0:0:0:
208,88,111227,1,8,0:0:0:0:
160,56,111289,1,8,0:0:0:0:
208,80,111352,1,0,0:0:0:0:
208,80,111477,1,0,0:0:0:0:
208,80,111602,1,8,0:0:0:0:
208,80,111727,1,0,0:0:0:0:
208,80,111852,1,8,0:0:0:0:
208,80,111914,1,8,0:0:0:0:
208,80,111977,1,8,0:0:0:0:
184,120,112102,1,8,0:0:0:0:
192,120,112227,1,0,0:0:0:0:
192,120,112352,1,8,0:0:0:0:
192,72,112477,1,0,0:0:0:0:
160,144,112602,1,8,0:0:0:0:
144,56,112664,1,0,0:0:0:0:
168,144,112727,1,8,0:0:0:0:
168,48,112789,1,8,0:0:0:0:
168,160,112852,1,0,0:0:0:0:
168,152,112977,1,0,0:0:0:0:
72,112,113039,1,0,0:0:0:0:
176,144,113102,1,8,0:0:0:0:
208,88,113227,1,8,0:0:0:0:
208,80,113352,1,0,0:0:0:0:
160,56,113414,1,0,0:0:0:0:
208,80,113477,1,0,0:0:0:0:
208,80,113602,1,8,0:0:0:0:
208,80,113727,1,0,0:0:0:0:
208,80,113789,1,0,0:0:0:0:
208,80,113852,1,8,0:0:0:0:
208,80,113914,1,0,0:0:0:0:
208,80,113977,1,8,0:0:0:0:
184,120,114102,1,8,0:0:0:0:
192,120,114227,1,0,0:0:0:0:
192,120,114352,1,8,0:0:0:0:
192,72,114477,1,0,0:0:0:0:
168,160,114602,1,8,0:0:0:0:
176,48,114664,1,0,0:0:0:0:
168,152,114727,1,0,0:0:0:0:
192,48,114789,1,0,0:0:0:0:
168,144,114852,1,8,0:0:0:0:
160,144,114977,1,0,0:0:0:0:
176,144,115102,1,8,0:0:0:0:
208,88,115227,1,0,0:0:0:0:
160,56,115289,1,0,0:0:0:0:
208,80,115352,1,8,0:0:0:0:
208,80,115414,1,0,0:0:0:0:
208,80,115477,1,0,0:0:0:0:
208,80,115539,1,0,0:0:0:0:
208,80,115602,1,8,0:0:0:0:
208,80,115727,1,8,0:0:0:0:
208,80,115852,1,0,0:0:0:0:
208,80,115935,1,8,0:0:0:0:
168,112,116018,1,0,0:0:0:0:
184,120,116102,1,8,0:0:0:0:
192,120,116185,1,8,0:0:0:0:
184,88,116268,1,8,0:0:0:0:
192,120,116352,1,4,0:0:0:0:
184,136,116477,1,8,0:0:0:0:
184,136,116602,1,0,0:0:0:0:
184,136,116727,1,0,0:0:0:0:
184,144,116852,1,8,0:0:0:0:
184,144,116977,1,8,0:0:0:0:
184,144,117102,1,8,0:0:0:0:
192,120,117227,1,0,0:0:0:0:
192,120,117352,1,8,0:0:0:0:
192,120,117477,1,8,0:0:0:0:
192,120,117602,1,0,0:0:0:0:
192,120,117727,1,0,0:0:0:0:
176,128,117852,1,8,0:0:0:0:
192,120,117977,1,8,0:0:0:0:
192,104,118102,1,8,0:0:0:0:
192,104,118227,1,8,0:0:0:0:
192,104,118352,1,8,0:0:0:0:
192,104,118477,1,0,0:0:0:0:
192,104,118602,1,8,0:0:0:0:
192,104,118727,1,0,0:0:0:0:
192,104,118852,1,8,0:0:0:0:
192,104,118977,1,0,0:0:0:0:
192,104,119102,1,8,0:0:0:0:
192,104,119227,1,0,0:0:0:0:
192,104,119352,1,8,0:0:0:0:
192,104,119477,1,8,0:0:0:0:
192,104,119602,1,0,0:0:0:0:
192,104,119727,1,0,0:0:0:0:
192,104,119852,1,8,0:0:0:0:
192,104,119977,1,8,0:0:0:0:
192,104,120102,1,0,0:0:0:0:
168,88,120164,1,0,0:0:0:0:
184,136,120227,1,0,0:0:0:0:
168,88,120289,1,0,0:0:0:0:
192,120,120352,1,8,0:0:0:0:
192,112,120477,1,8,0:0:0:0:
184,136,120602,1,8,0:0:0:0:
184,144,120727,1,8,0:0:0:0:
184,136,120852,1,8,0:0:0:0:
184,144,120977,1,0,0:0:0:0:
184,144,121102,1,8,0:0:0:0:
192,120,121227,1,0,0:0:0:0:
192,120,121352,1,8,0:0:0:0:
192,120,121477,1,8,0:0:0:0:
192,120,121602,1,0,0:0:0:0:
192,120,121727,1,0,0:0:0:0:
176,128,121852,1,8,0:0:0:0:
192,120,121977,1,8,0:0:0:0:
192,104,122102,1,8,0:0:0:0:
192,104,122227,1,8,0:0:0:0:
192,104,122352,1,8,0:0:0:0:
192,104,122477,1,0,0:0:0:0:
192,104,122602,1,8,0:0:0:0:
192,104,122727,1,0,0:0:0:0:
192,104,122852,1,8,0:0:0:0:
192,104,122977,1,0,0:0:0:0:
192,104,123102,1,8,0:0:0:0:
192,104,123227,1,0,0:0:0:0:
192,104,123352,1,12,0:0:0:0:
192,104,123477,1,0,0:0:0:0:
192,104,123602,1,12,0:0:0:0:
192,104,123727,1,0,0:0:0:0:
192,104,123852,1,12,0:0:0:0:
192,104,123977,1,0,0:0:0:0:
192,104,124102,1,12,0:0:0:0:
192,112,124227,1,8,0:0:0:0:
192,120,124352,1,4,0:0:0:0:
184,136,124477,1,0,0:0:0:0:
184,144,124602,1,8,0:0:0:0:
184,144,124727,1,8,0:0:0:0:
184,144,124852,1,8,0:0:0:0:
184,136,124977,1,0,0:0:0:0:
184,136,125102,1,8,0:0:0:0:
192,120,125227,1,0,0:0:0:0:
192,120,125352,1,8,0:0:0:0:
192,120,125477,1,8,0:0:0:0:
192,120,125602,1,0,0:0:0:0:
192,120,125727,1,0,0:0:0:0:
176,128,125852,1,8,0:0:0:0:
192,120,125977,1,8,0:0:0:0:
192,104,126102,1,8,0:0:0:0:
192,104,126227,1,8,0:0:0:0:
192,104,126352,1,8,0:0:0:0:
192,104,126477,1,0,0:0:0:0:
192,104,126602,1,8,0:0:0:0:
192,104,126727,1,0,0:0:0:0:
192,104,126852,1,8,0:0:0:0:
192,104,126977,1,0,0:0:0:0:
192,104,127102,1,8,0:0:0:0:
192,104,127227,1,0,0:0:0:0:
192,104,127352,1,8,0:0:0:0:
192,104,127477,1,8,0:0:0:0:
192,104,127602,1,0,0:0:0:0:
192,104,127727,1,0,0:0:0:0:
192,104,127852,1,8,0:0:0:0:
192,104,127935,1,0,0:0:0:0:
192,40,128018,1,0,0:0:0:0:
192,104,128102,1,0,0:0:0:0:
192,40,128185,1,0,0:0:0:0:
184,136,128268,1,0,0:0:0:0:
192,120,128352,1,8,0:0:0:0:
192,112,128476,1,8,0:0:0:0:
184,136,128601,1,8,0:0:0:0:
184,144,128726,1,8,0:0:0:0:
184,136,128851,1,8,0:0:0:0:
184,144,128976,1,0,0:0:0:0:
184,144,129101,1,8,0:0:0:0:
192,120,129226,1,0,0:0:0:0:
192,120,129351,1,8,0:0:0:0:
192,120,129476,1,8,0:0:0:0:
192,120,129601,1,0,0:0:0:0:
192,120,129726,1,0,0:0:0:0:
176,128,129851,1,8,0:0:0:0:
192,120,129976,1,8,0:0:0:0:
192,104,130101,1,8,0:0:0:0:
192,104,130226,1,8,0:0:0:0:
192,104,130351,1,8,0:0:0:0:
192,104,130476,1,0,0:0:0:0:
192,104,130601,1,8,0:0:0:0:
192,104,130726,1,0,0:0:0:0:
192,104,130851,1,8,0:0:0:0:
192,104,130976,1,0,0:0:0:0:
192,104,131102,1,8,0:0:0:0:
192,104,131227,1,0,0:0:0:0:
192,104,131352,1,4,0:0:0:0:
192,104,131477,1,8,0:0:0:0:
192,104,131602,1,8,0:0:0:0:
192,104,131727,1,8,0:0:0:0:
192,104,131852,1,0,0:0:0:0:
168,80,131893,1,0,0:0:0:0:
192,104,131935,1,0,0:0:0:0:
192,104,132018,1,0,0:0:0:0:
184,80,132102,1,0,0:0:0:0:
192,48,132185,1,0,0:0:0:0:
192,112,132268,1,0,0:0:0:0:
160,104,132352,1,12,0:0:0:0:
136,128,132602,1,0,0:0:0:0:
136,128,132852,1,8,0:0:0:0:
160,128,132977,1,8,0:0:0:0:
144,128,133102,1,0,0:0:0:0:
144,128,133227,1,0,0:0:0:0:
144,128,133352,1,0,0:0:0:0:
144,128,133602,1,0,0:0:0:0:
184,104,133852,1,8,0:0:0:0:
160,112,134102,1,0,0:0:0:0:
176,136,134185,1,8,0:0:0:0:
176,136,134268,1,8,0:0:0:0:
176,136,134352,1,0,0:0:0:0:
136,128,134602,1,0,0:0:0:0:
160,128,134727,1,0,0:0:0:0:
136,128,134852,1,8,0:0:0:0:
144,128,135102,1,0,0:0:0:0:
144,128,135227,1,8,0:0:0:0:
144,128,135352,1,0,0:0:0:0:
144,128,135602,1,0,0:0:0:0:
184,104,135852,1,8,0:0:0:0:
160,112,136102,1,0,0:0:0:0:
176,136,136352,1,0,0:0:0:0:
136,128,136602,1,0,0:0:0:0:
136,128,136852,1,8,0:0:0:0:
144,128,137102,1,0,0:0:0:0:
144,128,137227,1,0,0:0:0:0:
144,128,137352,1,0,0:0:0:0:
160,128,137477,1,8,0:0:0:0:
144,128,137602,1,0,0:0:0:0:
184,104,137852,1,8,0:0:0:0:
160,112,138102,1,8,0:0:0:0:
176,136,138185,1,8,0:0:0:0:
176,136,138268,1,8,0:0:0:0:
176,136,138352,1,0,0:0:0:0:
136,128,138602,1,0,0:0:0:0:
160,128,138727,1,0,0:0:0:0:
136,128,138852,1,8,0:0:0:0:
144,128,139102,1,0,0:0:0:0:
144,128,139227,1,0,0:0:0:0:
144,128,139352,1,8,0:0:0:0:
192,64,139435,1,8,0:0:0:0:
192,64,139518,1,8,0:0:0:0:
144,128,139602,1,0,0:0:0:0:
200,64,139685,1,0,0:0:0:0:
200,64,139768,1,0,0:0:0:0:
184,104,139852,1,8,0:0:0:0:
192,64,139935,1,8,0:0:0:0:
192,64,140018,1,0,0:0:0:0:
160,112,140102,1,0,0:0:0:0:
192,64,140185,1,0,0:0:0:0:
192,64,140268,1,0,0:0:0:0:
176,136,140352,1,12,0:0:0:0:
136,128,140602,1,0,0:0:0:0:
136,128,140852,1,8,0:0:0:0:
160,128,140977,1,8,0:0:0:0:
144,128,141102,1,0,0:0:0:0:
144,128,141227,1,8,0:0:0:0:
144,128,141352,1,0,0:0:0:0:
144,128,141602,1,0,0:0:0:0:
184,104,141852,1,8,0:0:0:0:
160,112,142102,1,0,0:0:0:0:
176,136,142185,1,8,0:0:0:0:
176,136,142268,1,8,0:0:0:0:
176,136,142352,1,0,0:0:0:0:
136,128,142602,1,0,0:0:0:0:
160,128,142727,1,0,0:0:0:0:
136,128,142852,1,8,0:0:0:0:
144,128,143102,1,0,0:0:0:0:
144,128,143227,1,8,0:0:0:0:
144,128,143352,1,0,0:0:0:0:
144,128,143602,1,0,0:0:0:0:
184,104,143852,1,8,0:0:0:0:
160,112,144102,1,0,0:0:0:0:
176,136,144352,1,0,0:0:0:0:
136,128,144602,1,0,0:0:0:0:
136,128,144852,1,8,0:0:0:0:
144,128,145102,1,0,0:0:0:0:
144,128,145227,1,0,0:0:0:0:
144,128,145352,1,0,0:0:0:0:
160,128,145477,1,8,0:0:0:0:
144,128,145602,1,0,0:0:0:0:
184,104,145852,1,8,0:0:0:0:
160,112,146102,1,8,0:0:0:0:
176,136,146185,1,8,0:0:0:0:
176,136,146268,1,8,0:0:0:0:
176,136,146352,1,0,0:0:0:0:
136,128,146602,1,0,0:0:0:0:
160,128,146727,1,0,0:0:0:0:
136,128,146852,1,8,0:0:0:0:
144,128,147102,1,0,0:0:0:0:
144,128,147227,1,0,0:0:0:0:
144,128,147352,1,8,0:0:0:0:
192,64,147435,1,8,0:0:0:0:
192,64,147518,1,8,0:0:0:0:
144,128,147602,1,0,0:0:0:0:
200,64,147685,1,0,0:0:0:0:
200,64,147768,1,0,0:0:0:0:
184,104,147852,1,8,0:0:0:0:
192,64,147935,1,8,0:0:0:0:
192,64,148018,1,0,0:0:0:0:
160,112,148102,1,0,0:0:0:0:
192,64,148185,1,0,0:0:0:0:
192,64,148268,1,0,0:0:0:0:
176,136,148352,1,12,0:0:0:0:
192,104,148602,1,0,0:0:0:0:
192,104,148852,1,8,0:0:0:0:
192,104,149102,1,0,0:0:0:0:
184,72,149185,1,0,0:0:0:0:
184,72,149268,1,0,0:0:0:0:
144,128,149352,1,8,0:0:0:0:
192,64,149435,1,8,0:0:0:0:
192,64,149518,1,8,0:0:0:0:
144,128,149602,1,0,0:0:0:0:
200,64,149685,1,0,0:0:0:0:
200,64,149768,1,0,0:0:0:0:
184,104,149852,1,8,0:0:0:0:
192,64,149935,1,8,0:0:0:0:
192,64,150018,1,0,0:0:0:0:
160,112,150102,1,0,0:0:0:0:
192,64,150185,1,0,0:0:0:0:
192,64,150268,1,0,0:0:0:0:
176,136,150352,1,12,0:0:0:0:
192,104,150602,1,0,0:0:0:0:
192,104,150852,1,8,0:0:0:0:
192,104,151102,1,0,0:0:0:0:
144,128,151352,1,8,0:0:0:0:
192,64,151435,1,8,0:0:0:0:
192,64,151518,1,8,0:0:0:0:
144,128,151602,1,0,0:0:0:0:
200,64,151664,1,0,0:0:0:0:
200,64,151727,1,0,0:0:0:0:
232,72,151789,1,0,0:0:0:0:
184,104,151852,1,8,0:0:0:0:
192,64,151935,1,8,0:0:0:0:
192,64,152018,1,8,0:0:0:0:
160,112,152102,1,8,0:0:0:0:
192,64,152185,1,8,0:0:0:0:
192,64,152268,1,8,0:0:0:0:
248,120,152352,1,0,0:0:0:0:
232,56,152852,1,8,0:0:0:0:
232,48,153102,1,0,0:0:0:0:
232,48,153227,1,0,0:0:0:0:
232,48,153352,1,0,0:0:0:0:
232,48,153602,1,0,0:0:0:0:
232,48,153727,1,0,0:0:0:0:
232,48,153852,1,8,0:0:0:0:
232,56,154102,1,8,0:0:0:0:
216,48,154352,1,0,0:0:0:0:
160,88,154602,1,0,0:0:0:0:
160,96,154727,1,0,0:0:0:0:
232,56,154852,1,8,0:0:0:0:
232,48,155102,1,0,0:0:0:0:
232,48,155227,1,8,0:0:0:0:
232,48,155352,1,0,0:0:0:0:
232,48,155602,1,0,0:0:0:0:
176,128,155664,1,0,0:0:0:0:
232,48,155727,1,0,0:0:0:0:
144,128,155789,1,0,0:0:0:0:
232,48,155852,1,8,0:0:0:0:
176,64,155977,1,8,0:0:0:0:
232,56,156102,1,8,0:0:0:0:
216,48,156352,1,0,0:0:0:0:
232,56,156852,1,8,0:0:0:0:
232,48,157102,1,0,0:0:0:0:
232,48,157227,1,0,0:0:0:0:
232,48,157352,1,0,0:0:0:0:
232,48,157602,1,0,0:0:0:0:
232,48,157727,1,0,0:0:0:0:
232,48,157852,1,8,0:0:0:0:
232,56,158102,1,8,0:0:0:0:
216,48,158352,1,8,0:0:0:0:
112,64,158414,1,8,0:0:0:0:
120,64,158477,1,0,0:0:0:0:
120,64,158539,1,0,0:0:0:0:
120,64,158602,1,8,0:0:0:0:
112,64,158664,1,8,0:0:0:0:
216,48,158727,1,8,0:0:0:0:
152,88,158789,1,8,0:0:0:0:
168,80,158852,1,0,0:0:0:0:
120,64,158914,1,0,0:0:0:0:
120,64,158977,1,0,0:0:0:0:
120,64,159039,1,0,0:0:0:0:
216,48,159102,1,8,0:0:0:0:
112,64,159164,1,8,0:0:0:0:
120,64,159227,1,8,0:0:0:0:
120,64,159289,1,8,0:0:0:0:
120,64,159352,1,0,0:0:0:0:
120,64,159414,1,0,0:0:0:0:
168,80,159477,1,0,0:0:0:0:
152,88,159539,1,0,0:0:0:0:
216,48,159602,1,8,0:0:0:0:
112,64,159664,1,8,0:0:0:0:
120,64,159727,1,0,0:0:0:0:
120,64,159789,1,0,0:0:0:0:
216,120,159852,1,8,0:0:0:0:
216,120,159935,1,8,0:0:0:0:
216,120,160018,1,8,0:0:0:0:
216,120,160102,1,8,0:0:0:0:
216,120,160185,1,8,0:0:0:0:
216,120,160268,1,8,0:0:0:0:
216,120,160352,1,4,0:0:0:0:
152,72,160602,1,0,0:0:0:0:
144,64,160664,1,0,0:0:0:0:
176,112,160727,1,0,0:0:0:0:
176,112,160789,1,0,0:0:0:0:
160,144,160852,1,8,0:0:0:0:
152,72,161102,1,0,0:0:0:0:
144,64,161164,1,0,0:0:0:0:
176,112,161227,1,0,0:0:0:0:
176,112,161289,1,0,0:0:0:0:
160,144,161352,1,0,0:0:0:0:
152,72,161602,1,0,0:0:0:0:
144,64,161664,1,0,0:0:0:0:
176,112,161727,1,0,0:0:0:0:
176,112,161789,1,0,0:0:0:0:
160,144,161852,1,8,0:0:0:0:
152,72,162102,1,8,0:0:0:0:
144,64,162164,1,8,0:0:0:0:
176,112,162227,1,0,0:0:0:0:
176,112,162289,1,0,0:0:0:0:
160,144,162352,1,0,0:0:0:0:
152,72,162602,1,8,0:0:0:0:
144,64,162664,1,8,0:0:0:0:
176,112,162727,1,0,0:0:0:0:
176,112,162789,1,0,0:0:0:0:
160,144,162852,1,8,0:0:0:0:
152,72,163102,1,8,0:0:0:0:
144,64,163164,1,8,0:0:0:0:
176,112,163227,1,8,0:0:0:0:
176,112,163289,1,8,0:0:0:0:
160,144,163352,1,0,0:0:0:0:
192,64,163477,1,8,0:0:0:0:
192,64,163602,1,0,0:0:0:0:
184,72,163727,1,8,0:0:0:0:
184,72,163852,1,0,0:0:0:0:
184,72,163977,1,8,0:0:0:0:
176,72,164102,1,8,0:0:0:0:
176,72,164227,1,8,0:0:0:0:
216,120,164352,1,4,0:0:0:0:
152,72,164602,1,0,0:0:0:0:
144,64,164664,1,0,0:0:0:0:
176,112,164727,1,0,0:0:0:0:
176,112,164789,1,0,0:0:0:0:
160,144,164852,1,8,0:0:0:0:
152,72,165102,1,0,0:0:0:0:
144,64,165164,1,0,0:0:0:0:
176,112,165227,1,0,0:0:0:0:
176,112,165289,1,0,0:0:0:0:
160,144,165352,1,0,0:0:0:0:
152,72,165602,1,0,0:0:0:0:
144,64,165664,1,0,0:0:0:0:
176,112,165727,1,8,0:0:0:0:
176,112,165789,1,8,0:0:0:0:
160,144,165852,1,8,0:0:0:0:
152,72,166102,1,8,0:0:0:0:
144,64,166164,1,8,0:0:0:0:
176,112,166227,1,0,0:0:0:0:
176,112,166289,1,0,0:0:0:0:
160,144,166352,1,0,0:0:0:0:
152,72,166602,1,8,0:0:0:0:
144,64,166664,1,8,0:0:0:0:
176,112,166727,1,0,0:0:0:0:
176,112,166789,1,0,0:0:0:0:
160,144,166852,1,8,0:0:0:0:
152,72,167102,1,8,0:0:0:0:
144,64,167164,1,8,0:0:0:0:
176,112,167227,1,8,0:0:0:0:
176,112,167289,1,8,0:0:0:0:
160,144,167352,1,0,0:0:0:0:
192,64,167435,1,8,0:0:0:0:
192,64,167518,1,8,0:0:0:0:
184,72,167602,1,0,0:0:0:0:
136,48,167685,1,0,0:0:0:0:
136,56,167768,1,8,0:0:0:0:
184,72,167852,1,0,0:0:0:0:
184,72,167935,1,8,0:0:0:0:
176,72,168018,1,8,0:0:0:0:
176,72,168102,1,8,0:0:0:0:
184,72,168185,1,8,0:0:0:0:
176,72,168268,1,8,0:0:0:0:
216,120,168352,1,4,0:0:0:0:
192,96,168602,1,0,0:0:0:0:
184,96,168727,1,0,0:0:0:0:
184,96,168852,1,8,0:0:0:0:
160,88,168977,1,0,0:0:0:0:
160,96,169102,1,8,0:0:0:0:
160,96,169227,1,8,0:0:0:0:
160,88,169352,1,0,0:0:0:0:
160,88,169477,1,8,0:0:0:0:
160,96,169602,1,0,0:0:0:0:
160,96,169727,1,0,0:0:0:0:
144,88,169852,1,8,0:0:0:0:
144,96,169977,1,0,0:0:0:0:
144,96,170102,1,8,0:0:0:0:
144,96,170227,1,8,0:0:0:0:
216,48,170352,1,0,0:0:0:0:
184,96,170602,1,8,0:0:0:0:
192,96,170727,1,0,0:0:0:0:
184,96,170852,1,0,0:0:0:0:
160,88,170977,1,0,0:0:0:0:
160,96,171102,1,8,0:0:0:0:
160,88,171227,1,0,0:0:0:0:
160,96,171352,1,8,0:0:0:0:
160,88,171477,1,0,0:0:0:0:
160,96,171602,1,0,0:0:0:0:
160,96,171727,1,0,0:0:0:0:
144,88,171852,1,8,0:0:0:0:
144,96,171977,1,0,0:0:0:0:
144,96,172102,1,8,0:0:0:0:
144,96,172227,1,8,0:0:0:0:
216,120,172352,1,4,0:0:0:0:
192,96,172602,1,0,0:0:0:0:
184,96,172727,1,0,0:0:0:0:
184,96,172852,1,8,0:0:0:0:
160,88,172977,1,0,0:0:0:0:
160,96,173102,1,8,0:0:0:0:
160,96,173227,1,8,0:0:0:0:
160,88,173352,1,0,0:0:0:0:
160,88,173477,1,8,0:0:0:0:
160,96,173602,1,0,0:0:0:0:
160,96,173727,1,0,0:0:0:0:
144,88,173852,1,8,0:0:0:0:
144,96,173977,1,0,0:0:0:0:
144,96,174102,1,8,0:0:0:0:
144,96,174227,1,8,0:0:0:0:
216,48,174352,1,0,0:0:0:0:
184,96,174602,1,8,0:0:0:0:
192,96,174727,1,8,0:0:0:0:
184,96,174852,1,8,0:0:0:0:
160,88,174977,1,8,0:0:0:0:
160,96,175102,1,8,0:0:0:0:
160,88,175227,1,8,0:0:0:0:
160,96,175352,1,4,0:0:0:0:
160,88,175477,1,4,0:0:0:0:
160,96,175602,1,4,0:0:0:0:
160,96,175727,1,4,0:0:0:0:
144,88,175852,1,4,0:0:0:0:
144,96,175977,1,4,0:0:0:0:
144,96,176102,1,4,0:0:0:0:
144,96,176227,1,4,0:0:0:0:
264,112,176352,1,12,0:0:0:0:
200,96,176477,1,0,0:0:0:0:
200,96,176539,1,0,0:0:0:0:
200,96,176602,1,8,0:0:0:0:
200,96,176727,1,0,0:0:0:0:
200,96,176789,1,0,0:0:0:0:
200,96,176852,1,8,0:0:0:0:
200,96,176977,1,0,0:0:0:0:
200,96,177039,1,0,0:0:0:0:
200,96,177102,1,8,0:0:0:0:
160,96,177164,1,0,0:0:0:0:
200,96,177227,1,0,0:0:0:0:
200,96,177289,1,0,0:0:0:0:
200,96,177352,1,8,0:0:0:0:
200,96,177477,1,0,0:0:0:0:
200,96,177539,1,0,0:0:0:0:
200,96,177602,1,8,0:0:0:0:
200,96,177727,1,0,0:0:0:0:
200,96,177852,1,8,0:0:0:0:
200,96,177914,1,0,0:0:0:0:
200,96,177977,1,0,0:0:0:0:
200,96,178039,1,0,0:0:0:0:
200,96,178102,1,8,0:0:0:0:
160,96,178164,1,8,0:0:0:0:
200,96,178227,1,0,0:0:0:0:
200,96,178289,1,0,0:0:0:0:
200,96,178352,1,8,0:0:0:0:
200,96,178477,1,0,0:0:0:0:
200,96,178539,1,0,0:0:0:0:
200,96,178602,1,8,0:0:0:0:
184,96,178664,1,0,0:0:0:0:
200,96,178727,1,0,0:0:0:0:
200,96,178852,1,8,0:0:0:0:
200,96,178914,1,8,0:0:0:0:
200,96,178977,1,0,0:0:0:0:
200,96,179039,1,0,0:0:0:0:
200,96,179102,1,8,0:0:0:0:
200,96,179227,1,0,0:0:0:0:
200,80,179289,1,0,0:0:0:0:
200,96,179352,1,8,0:0:0:0:
200,96,179414,1,0,0:0:0:0:
200,96,179477,1,0,0:0:0:0:
200,96,179539,1,0,0:0:0:0:
200,96,179602,1,8,0:0:0:0:
184,88,179664,1,8,0:0:0:0:
200,96,179727,1,0,0:0:0:0:
184,80,179789,1,0,0:0:0:0:
200,96,179852,1,8,0:0:0:0:
200,96,179914,1,8,0:0:0:0:
200,96,179977,1,8,0:0:0:0:
200,96,180039,1,0,0:0:0:0:
200,96,180102,1,8,0:0:0:0:
160,96,180164,1,8,0:0:0:0:
200,96,180227,1,0,0:0:0:0:
200,96,180289,1,0,0:0:0:0:
200,96,180352,1,8,0:0:0:0:
200,96,180477,1,0,0:0:0:0:
200,96,180539,1,0,0:0:0:0:
200,96,180602,1,8,0:0:0:0:
200,96,180727,1,0,0:0:0:0:
200,96,180789,1,0,0:0:0:0:
200,96,180852,1,8,0:0:0:0:
200,96,180977,1,0,0:0:0:0:
200,96,181102,1,8,0:0:0:0:
160,96,181164,1,0,0:0:0:0:
200,96,181227,1,0,0:0:0:0:
200,96,181289,1,0,0:0:0:0:
200,96,181352,1,8,0:0:0:0:
200,96,181477,1,0,0:0:0:0:
200,96,181539,1,0,0:0:0:0:
200,96,181602,1,8,0:0:0:0:
200,96,181727,1,0,0:0:0:0:
200,96,181789,1,0,0:0:0:0:
200,96,181852,1,8,0:0:0:0:
200,96,181914,1,0,0:0:0:0:
200,96,181977,1,0,0:0:0:0:
200,96,182039,1,0,0:0:0:0:
200,96,182102,1,8,0:0:0:0:
160,96,182164,1,8,0:0:0:0:
200,96,182227,1,0,0:0:0:0:
176,96,182289,1,0,0:0:0:0:
200,96,182352,1,8,0:0:0:0:
200,96,182477,1,0,0:0:0:0:
200,96,182539,1,0,0:0:0:0:
200,96,182602,1,8,0:0:0:0:
184,96,182664,1,0,0:0:0:0:
200,96,182727,1,0,0:0:0:0:
200,96,182852,1,8,0:0:0:0:
200,96,182914,1,8,0:0:0:0:
200,96,182977,1,0,0:0:0:0:
200,96,183039,1,0,0:0:0:0:
200,96,183102,1,8,0:0:0:0:
200,96,183227,1,0,0:0:0:0:
200,80,183289,1,0,0:0:0:0:
200,96,183352,1,8,0:0:0:0:
200,96,183414,1,0,0:0:0:0:
200,96,183477,1,0,0:0:0:0:
200,96,183539,1,0,0:0:0:0:
200,96,183602,1,8,0:0:0:0:
184,88,183664,1,8,0:0:0:0:
200,96,183727,1,0,0:0:0:0:
184,80,183789,1,0,0:0:0:0:
200,96,183852,1,8,0:0:0:0:
200,96,183914,1,8,0:0:0:0:
200,96,183977,1,8,0:0:0:0:
200,96,184039,1,0,0:0:0:0:
200,96,184102,1,8,0:0:0:0:
160,96,184164,1,8,0:0:0:0:
200,96,184227,1,0,0:0:0:0:
200,96,184289,1,0,0:0:0:0:
200,96,184352,1,8,0:0:0:0:
200,96,184477,1,0,0:0:0:0:
200,96,184539,1,0,0:0:0:0:
200,96,184602,1,8,0:0:0:0:
200,96,184727,1,0,0:0:0:0:
200,96,184789,1,0,0:0:0:0:
200,96,184852,1,8,0:0:0:0:
200,96,184977,1,0,0:0:0:0:
200,96,185102,1,8,0:0:0:0:
160,96,185164,1,0,0:0:0:0:
200,96,185227,1,0,0:0:0:0:
200,96,185289,1,0,0:0:0:0:
200,96,185352,1,8,0:0:0:0:
200,96,185477,1,0,0:0:0:0:
200,96,185539,1,0,0:0:0:0:
200,96,185602,1,8,0:0:0:0:
200,96,185727,1,0,0:0:0:0:
200,96,185852,1,8,0:0:0:0:
200,96,185914,1,0,0:0:0:0:
200,96,185977,1,0,0:0:0:0:
200,96,186039,1,0,0:0:0:0:
200,96,186102,1,8,0:0:0:0:
160,96,186164,1,8,0:0:0:0:
200,96,186227,1,0,0:0:0:0:
200,96,186289,1,0,0:0:0:0:
200,96,186352,1,8,0:0:0:0:
200,96,186477,1,0,0:0:0:0:
200,96,186539,1,0,0:0:0:0:
200,96,186602,1,8,0:0:0:0:
184,96,186664,1,0,0:0:0:0:
200,96,186727,1,0,0:0:0:0:
200,96,186852,1,8,0:0:0:0:
200,96,186914,1,8,0:0:0:0:
200,96,186977,1,0,0:0:0:0:
200,96,187039,1,0,0:0:0:0:
200,96,187102,1,8,0:0:0:0:
200,96,187227,1,0,0:0:0:0:
200,80,187289,1,0,0:0:0:0:
200,96,187352,1,8,0:0:0:0:
200,96,187414,1,0,0:0:0:0:
200,96,187477,1,0,0:0:0:0:
200,96,187539,1,0,0:0:0:0:
200,96,187602,1,8,0:0:0:0:
184,88,187664,1,8,0:0:0:0:
200,96,187727,1,0,0:0:0:0:
184,80,187789,1,0,0:0:0:0:
200,96,187852,1,8,0:0:0:0:
200,96,187914,1,8,0:0:0:0:
200,96,187977,1,8,0:0:0:0:
200,96,188039,1,0,0:0:0:0:
200,96,188102,1,8,0:0:0:0:
160,96,188164,1,8,0:0:0:0:
200,96,188227,1,0,0:0:0:0:
200,96,188289,1,0,0:0:0:0:
200,96,188352,1,8,0:0:0:0:
200,96,188477,1,0,0:0:0:0:
200,96,188539,1,0,0:0:0:0:
200,96,188602,1,8,0:0:0:0:
192,80,188664,1,0,0:0:0:0:
200,96,188727,1,0,0:0:0:0:
200,96,188789,1,0,0:0:0:0:
200,96,188852,1,8,0:0:0:0:
200,96,188914,1,8,0:0:0:0:
200,96,188977,1,0,0:0:0:0:
200,96,189102,1,8,0:0:0:0:
160,96,189164,1,0,0:0:0:0:
200,96,189227,1,0,0:0:0:0:
200,96,189289,1,0,0:0:0:0:
200,96,189352,1,8,0:0:0:0:
200,96,189477,1,0,0:0:0:0:
200,96,189539,1,0,0:0:0:0:
200,96,189602,1,8,0:0:0:0:
200,96,189727,1,0,0:0:0:0:
200,96,189852,1,8,0:0:0:0:
200,96,189914,1,0,0:0:0:0:
200,96,189977,1,0,0:0:0:0:
200,96,190039,1,0,0:0:0:0:
200,96,190102,1,8,0:0:0:0:
160,96,190164,1,8,0:0:0:0:
200,96,190227,1,0,0:0:0:0:
200,96,190289,1,0,0:0:0:0:
200,96,190352,1,8,0:0:0:0:
200,96,190477,1,8,0:0:0:0:
200,96,190602,1,0,0:0:0:0:
200,96,190727,1,8,0:0:0:0:
200,96,190852,1,0,0:0:0:0:
200,96,190977,1,8,0:0:0:0:
200,96,191102,1,8,0:0:0:0:
200,96,191185,1,0,0:0:0:0:
200,80,191268,1,0,0:0:0:0:
200,96,191352,1,8,0:0:0:0:
200,96,191414,1,0,0:0:0:0:
200,96,191477,1,0,0:0:0:0:
200,96,191539,1,0,0:0:0:0:
200,96,191602,1,8,0:0:0:0:
184,88,191664,1,8,0:0:0:0:
200,96,191727,1,8,0:0:0:0:
184,80,191789,1,8,0:0:0:0:
200,96,191852,1,0,0:0:0:0:
200,96,191914,1,0,0:0:0:0:
200,96,191977,1,8,0:0:0:0:
200,96,192039,1,8,0:0:0:0:
200,96,192102,1,8,0:0:0:0:
160,96,192164,1,8,0:0:0:0:
200,96,192227,1,0,0:0:0:0:
200,96,192289,1,0,0:0:0:0:
200,96,192352,1,12,0:0:0:0:
240,72,192852,1,8,0:0:0:0:
240,72,193352,1,8,0:0:0:0:
240,72,193602,1,0,0:0:0:0:
248,64,194102,1,0,0:0:0:0:
240,64,194352,1,8,0:0:0:0:
192,56,195352,1,8,0:0:0:0:
192,56,195852,1,8,0:0:0:0:
200,96,196352,1,12,0:0:0:0:
240,72,197602,1,0,0:0:0:0:
248,64,198102,1,0,0:0:0:0:
240,64,198352,1,8,0:0:0:0:
152,128,199102,1,0,0:0:0:0:
152,128,199185,1,0,0:0:0:0:
80,144,199268,1,0,0:0:0:0:
192,56,199352,1,8,0:0:0:0:
368,288,199768,1,0,0:0:0:0:
192,56,200102,1,0,0:0:0:0:
192,80,200352,1,12,0:0:0:0:
240,72,201602,1,0,0:0:0:0:
248,64,202102,1,0,0:0:0:0:
160,80,202185,1,8,0:0:0:0:
160,80,202268,1,8,0:0:0:0:
240,64,202352,1,8,0:0:0:0:
192,56,203352,1,8,0:0:0:0:
208,88,203664,1,0,0:0:0:0:
136,96,203727,1,0,0:0:0:0:
176,112,203789,1,0,0:0:0:0:
192,56,203852,1,8,0:0:0:0:
200,96,204352,1,12,0:0:0:0:
240,72,205602,1,8,0:0:0:0:
248,64,206102,1,8,0:0:0:0:
240,64,206352,1,4,0:0:0:0:
192,32,206602,1,8,0:0:0:0:
192,32,206664,1,8,0:0:0:0:
192,32,206727,1,8,0:0:0:0:
192,32,206789,1,8,0:0:0:0:
192,32,206852,1,8,0:0:0:0:
200,40,206977,1,8,0:0:0:0:
152,128,207102,1,8,0:0:0:0:
152,128,207164,1,8,0:0:0:0:
80,144,207227,1,8,0:0:0:0:
192,56,207289,1,8,0:0:0:0:
144,80,207352,1,0,0:0:0:0:
256,48,207477,1,0,0:0:0:0:
256,48,207602,1,0,0:0:0:0:
256,48,207727,1,0,0:0:0:0:
192,56,207852,1,8,0:0:0:0:
184,32,207977,1,8,0:0:0:0:
368,288,208102,1,0,0:0:0:0:
224,72,208227,1,0,0:0:0:0:
176,88,208352,1,12,0:0:0:0:
136,128,208601,1,0,0:0:0:0:
136,128,208851,1,8,0:0:0:0:
144,128,209101,1,0,0:0:0:0:
144,128,209226,1,0,0:0:0:0:
144,128,209351,1,0,0:0:0:0:
160,128,209477,1,8,0:0:0:0:
144,128,209602,1,0,0:0:0:0:
184,104,209852,1,8,0:0:0:0:
160,112,210102,1,0,0:0:0:0:
176,136,210185,1,8,0:0:0:0:
176,136,210268,1,8,0:0:0:0:
176,136,210352,1,0,0:0:0:0:
136,128,210602,1,0,0:0:0:0:
160,128,210727,1,0,0:0:0:0:
136,128,210852,1,8,0:0:0:0:
144,128,211102,1,0,0:0:0:0:
144,128,211352,1,0,0:0:0:0:
144,128,211477,1,8,0:0:0:0:
144,128,211602,1,0,0:0:0:0:
184,104,211852,1,8,0:0:0:0:
160,112,212102,1,0,0:0:0:0:
176,136,212352,1,0,0:0:0:0:
136,128,212602,1,0,0:0:0:0:
136,128,212852,1,8,0:0:0:0:
160,128,212977,1,8,0:0:0:0:
144,128,213102,1,0,0:0:0:0:
144,128,213227,1,8,0:0:0:0:
144,128,213352,1,0,0:0:0:0:
144,128,213602,1,0,0:0:0:0:
184,104,213852,1,8,0:0:0:0:
160,112,214102,1,8,0:0:0:0:
176,136,214185,1,8,0:0:0:0:
176,136,214268,1,8,0:0:0:0:
176,136,214352,1,0,0:0:0:0:
136,128,214602,1,0,0:0:0:0:
160,128,214727,1,0,0:0:0:0:
136,128,214852,1,8,0:0:0:0:
144,128,215102,1,0,0:0:0:0:
144,128,215227,1,0,0:0:0:0:
144,128,215352,1,8,0:0:0:0:
192,64,215435,1,8,0:0:0:0:
192,64,215518,1,8,0:0:0:0:
144,128,215602,1,0,0:0:0:0:
200,64,215685,1,0,0:0:0:0:
200,64,215768,1,0,0:0:0:0:
184,104,215852,1,8,0:0:0:0:
192,64,215935,1,8,0:0:0:0:
192,64,216018,1,0,0:0:0:0:
160,112,216102,1,0,0:0:0:0:
192,64,216185,1,0,0:0:0:0:
192,64,216268,1,0,0:0:0:0:
176,136,216352,1,12,0:0:0:0:
136,128,216602,1,0,0:0:0:0:
136,128,216852,1,8,0:0:0:0:
144,128,217102,1,0,0:0:0:0:
144,128,217227,1,8,0:0:0:0:
144,128,217352,1,0,0:0:0:0:
160,128,217477,1,8,0:0:0:0:
144,128,217602,1,0,0:0:0:0:
184,104,217852,1,8,0:0:0:0:
160,112,218102,1,0,0:0:0:0:
176,136,218185,1,8,0:0:0:0:
176,136,218268,1,8,0:0:0:0:
176,136,218352,1,0,0:0:0:0:
136,128,218602,1,0,0:0:0:0:
160,128,218727,1,0,0:0:0:0:
136,128,218852,1,8,0:0:0:0:
144,128,219102,1,0,0:0:0:0:
144,128,219227,1,8,0:0:0:0:
144,128,219352,1,0,0:0:0:0:
144,128,219602,1,0,0:0:0:0:
184,104,219852,1,8,0:0:0:0:
160,112,220102,1,0,0:0:0:0:
176,136,220352,1,0,0:0:0:0:
136,128,220602,1,0,0:0:0:0:
136,128,220852,1,8,0:0:0:0:
144,128,221102,1,0,0:0:0:0:
144,128,221227,1,0,0:0:0:0:
144,128,221352,1,0,0:0:0:0:
160,128,221477,1,8,0:0:0:0:
144,128,221602,1,0,0:0:0:0:
184,104,221852,1,8,0:0:0:0:
160,112,222102,1,8,0:0:0:0:
176,136,222185,1,8,0:0:0:0:
176,136,222268,1,8,0:0:0:0:
176,136,222352,1,0,0:0:0:0:
136,128,222602,1,0,0:0:0:0:
160,128,222727,1,0,0:0:0:0:
136,128,222852,1,8,0:0:0:0:
144,128,223102,1,0,0:0:0:0:
144,128,223227,1,0,0:0:0:0:
144,128,223352,1,8,0:0:0:0:
192,64,223435,1,8,0:0:0:0:
192,64,223518,1,8,0:0:0:0:
144,128,223602,1,0,0:0:0:0:
200,64,223685,1,0,0:0:0:0:
200,64,223768,1,0,0:0:0:0:
184,104,223852,1,8,0:0:0:0:
192,64,223935,1,8,0:0:0:0:
192,64,224018,1,0,0:0:0:0:
160,112,224102,1,0,0:0:0:0:
192,64,224185,1,0,0:0:0:0:
192,64,224268,1,0,0:0:0:0:
176,136,224352,1,12,0:0:0:0:
192,104,224602,1,0,0:0:0:0:
192,104,224852,1,8,0:0:0:0:
192,104,225102,1,0,0:0:0:0:
208,80,225185,1,0,0:0:0:0:
224,64,225268,1,0,0:0:0:0:
144,128,225352,1,8,0:0:0:0:
192,64,225435,1,8,0:0:0:0:
192,64,225518,1,8,0:0:0:0:
144,128,225602,1,0,0:0:0:0:
200,64,225685,1,0,0:0:0:0:
200,64,225768,1,0,0:0:0:0:
184,104,225852,1,8,0:0:0:0:
192,64,225935,1,8,0:0:0:0:
192,64,226018,1,0,0:0:0:0:
160,112,226102,1,0,0:0:0:0:
192,64,226185,1,0,0:0:0:0:
192,64,226268,1,0,0:0:0:0:
176,136,226352,1,12,0:0:0:0:
192,104,226602,1,0,0:0:0:0:
192,104,226852,1,8,0:0:0:0:
192,104,227102,1,0,0:0:0:0:
144,128,227352,1,8,0:0:0:0:
192,64,227435,1,8,0:0:0:0:
192,64,227518,1,8,0:0:0:0:
144,128,227602,1,0,0:0:0:0:
200,64,227664,1,0,0:0:0:0:
200,64,227727,1,0,0:0:0:0:
232,72,227789,1,0,0:0:0:0:
184,104,227852,1,8,0:0:0:0:
192,64,227935,1,8,0:0:0:0:
192,64,228018,1,8,0:0:0:0:
160,112,228102,1,8,0:0:0:0:
192,64,228185,1,8,0:0:0:0:
192,64,228268,1,8,0:0:0:0:
248,48,228352,1,4,0:0:0:0:
256,72,228477,1,0,0:0:0:0:
256,72,228602,1,0,0:0:0:0:
256,72,228727,1,0,0:0:0:0:
256,72,228852,1,8,0:0:0:0:
256,80,229352,1,0,0:0:0:0:
168,64,229602,1,0,0:0:0:0:
176,56,229727,1,0,0:0:0:0:
176,56,229852,1,8,0:0:0:0:
176,40,229977,1,0,0:0:0:0:
168,40,230102,1,0,0:0:0:0:
168,40,230227,1,8,0:0:0:0:
248,40,230352,1,0,0:0:0:0:
248,40,230435,1,0,0:0:0:0:
248,40,230518,1,0,0:0:0:0:
248,40,230602,1,0,0:0:0:0:
192,40,230685,1,0,0:0:0:0:
248,40,230768,1,0,0:0:0:0:
256,72,230852,1,8,0:0:0:0:
256,80,231352,1,0,0:0:0:0:
168,64,231602,1,0,0:0:0:0:
176,56,231727,1,0,0:0:0:0:
176,56,231852,1,8,0:0:0:0:
176,40,231977,1,0,0:0:0:0:
168,40,232102,1,8,0:0:0:0:
168,40,232227,1,8,0:0:0:0:
248,48,232352,1,0,0:0:0:0:
256,72,232477,1,0,0:0:0:0:
256,72,232602,1,0,0:0:0:0:
256,72,232727,1,0,0:0:0:0:
256,72,232852,1,8,0:0:0:0:
256,80,233352,1,0,0:0:0:0:
168,64,233602,1,0,0:0:0:0:
176,56,233727,1,0,0:0:0:0:
176,56,233852,1,8,0:0:0:0:
176,40,233977,1,0,0:0:0:0:
168,40,234102,1,0,0:0:0:0:
168,40,234227,1,8,0:0:0:0:
248,40,234352,1,0,0:0:0:0:
248,40,234435,1,0,0:0:0:0:
248,40,234518,1,0,0:0:0:0:
248,40,234602,1,0,0:0:0:0:
192,40,234685,1,0,0:0:0:0:
248,40,234768,1,0,0:0:0:0:
256,72,234852,1,8,0:0:0:0:
256,80,235352,1,0,0:0:0:0:
168,64,235602,1,0,0:0:0:0:
176,56,235727,1,0,0:0:0:0:
176,56,235852,1,8,0:0:0:0:
240,168,235914,1,0,0:0:0:0:
176,40,235977,1,0,0:0:0:0:
120,144,236039,1,0,0:0:0:0:
168,40,236102,1,8,0:0:0:0:
168,40,236227,1,8,0:0:0:0:
