osu file format v5

[General]
AudioFilename: Murata Ayumi - Happiness!.mp3
AudioLeadIn: 0
PreviewTime: -1
Countdown: 0
SampleSet: Normal
StackLeniency: 0.8
Mode: 0
LetterboxInBreaks: 1
EditorDistanceSpacing: 1.29999995231628

[Metadata]
Title:Happiness!
Artist:Murata Ayumi
Creator:quintitem
Version:Normal
Source:
Tags:

[Difficulty]
HPDrainRate:5
CircleSize:4
OverallDifficulty:4
SliderMultiplier:1
SliderTickRate:1

[Events]
//Background and Video events
0,0,"happiness.jpg"
//Break Periods
2,16735,27242
2,85306,95813
//Storyboard Layer 0 (Background)
//Storyboard Layer 1 (Fail)
//Storyboard Layer 2 (Pass)
//Storyboard Layer 3 (Foreground)
//Storyboard Sound Samples
//Background Colour Transformations
3,100,163,162,255

[TimingPoints]
285,357.142857142857,4,1,0,90,1,0
6535,-100,4,1,0,95,0,0
6713,-100,4,1,0,90,0,0
9213,-100,4,1,0,95,0,0
9570,-100,4,1,0,90,0,0
12963,-100,4,1,0,95,0,0
13320,-100,4,1,0,90,0,0
13856,-200,4,1,0,90,0,0
14570,-100,4,1,0,90,0,0
15284,-200,4,1,0,90,0,0
15999,-100,4,1,0,90,0,0
27784,-100,4,1,0,75,0,0
30463,-100,4,1,0,90,0,0
30820,-100,4,1,0,75,0,0
38142,-100,4,1,0,90,0,0
38320,-100,4,1,0,75,0,0
39392,-200,4,2,0,90,0,0
41535,-100,4,2,0,90,0,0
42427,-200,4,2,0,90,0,0
43142,-100,4,2,0,90,0,0
44927,-100,4,1,0,90,0,0
56177,-100,4,1,0,95,0,0
56534,-100,4,1,0,90,0,0
59213,-100,4,2,0,90,0,0
59392,-100,4,1,0,100,0,0
60820,-100,4,1,0,90,0,0
63677,-100,4,1,0,95,0,0
63856,-100,4,1,0,90,0,0
66713,-100,4,1,0,100,0,0
66892,-100,4,1,0,90,0,0
70284,-100,4,1,0,95,0,0
70463,-100,4,1,0,90,0,0
71981,-100,4,1,0,95,0,0
72249,-100,4,1,0,90,0,0
74927,-100,4,1,0,95,0,0
75284,-100,4,1,0,90,0,0
78142,-100,4,1,0,100,0,0
78320,-100,4,1,0,90,0,0
81713,-100,4,1,0,95,0,0
81892,-100,4,1,0,90,0,0
82427,-200,4,1,0,90,0,0
83142,-100,4,1,0,90,0,0
83855,-200,4,1,0,90,0,0
84570,-100,4,1,0,90,0,0
96356,-100,4,1,0,75,0,0
99034,-100,4,1,0,90,0,0
99392,-100,4,1,0,75,0,0
106713,-100,4,1,0,90,0,0
106892,-100,4,1,0,75,0,0
107963,-200,4,2,0,90,0,0
108856,-100,4,2,0,85,0,0
109213,-200,4,2,0,85,0,0
110284,-100,4,2,0,85,0,0
110642,-200,4,2,0,85,0,0
111713,-100,4,2,0,85,0,0
113499,-100,4,1,0,75,0,0
122338,-100,4,1,0,90,0,0
124927,-100,4,1,0,95,0,0
125106,-100,4,1,0,90,0,0
126713,-200,4,2,0,85,0,0
127963,-100,4,1,0,100,0,0
129392,-100,4,1,0,90,0,0
132070,-100,4,1,0,95,0,0
132427,-100,4,1,0,90,0,0
135284,-100,4,1,0,100,0,0
135463,-100,4,1,0,90,0,0
138677,-100,4,1,0,95,0,0
139034,-100,4,1,0,90,0,0
140552,-100,4,1,0,95,0,0
140820,-100,4,1,0,90,0,0
143499,-100,4,1,0,95,0,0
143856,-100,4,1,0,90,0,0
146713,-100,4,1,0,100,0,0
146892,-100,4,1,0,90,0,0
150106,-100,4,1,0,95,0,0
150463,-200,4,1,0,90,0,0
151713,-100,4,1,0,90,0,0
152426,-200,4,1,0,90,0,0
153142,-100,4,1,0,90,0,0

[Colours]
Combo1 : 239,123,110
Combo2 : 95,44,53
Combo3 : 153,207,235
Combo4 : 91,56,120

[HitObjects]
256,192,999,12,0,3499
40,192,3856,5,0
40,64,4213,1,0
40,64,4392,1,0
168,64,4749,2,0,B|168:176,5,100,0|0|0|0|0|4
32,304,7070,6,0,B|240:352|448:304,1,400
427,307,8678,1,0
424,176,9035,1,0
424,48,9392,1,4
232,48,9927,6,0,B|160:48,3,50
48,48,10820,1,0
48,48,10999,2,0,B|96:208|256:248,1,300
384,248,12428,1,0
384,120,12785,1,0
256,120,13142,1,4
128,120,13499,5,0
128,248,13856,2,0,B|88:280|144:328,1,75
320,312,14927,1,0
448,312,15284,2,0,B|488:280|432:232,1,75,0|0
320,240,16177,2,0,B|320:184,2,50,0|0|4
32,80,28142,6,0,B|272:-16|488:96,1,450
472,208,30106,1,0
472,208,30284,1,0
352,248,30642,1,4
472,304,30999,6,0,B|232:400|16:288,1,450
40,168,32963,1,0
40,168,33142,1,4
256,312,33856,6,0,B|480:296|472:88|240:64,1,450
224,192,35820,2,0,B|184:248,3,50
72,192,36713,2,0,B|32:136|88:96,4,100,0|0|0|0|4
96,320,38499,6,0,B|24:320,4,50
224,280,39570,2,0,B|280:312|336:272,1,100,2|2
440,296,40642,1,2
440,296,40820,2,0,B|472:240|432:184,1,100
440,200,41713,1,2
440,200,41892,1,0
440,200,42070,1,2
304,200,42427,6,0,B|272:144|312:88,1,100,2|2
168,104,43499,1,2
168,104,43677,1,0
40,104,44034,1,0
40,232,44392,1,2
328,88,45284,5,0
328,88,45463,1,0
256,192,45820,1,0
176,296,46177,1,0
176,296,46356,1,0
184,88,48142,5,0
184,88,48321,1,0
256,192,48678,1,0
336,296,49035,1,0
336,296,49214,1,0
32,40,50999,6,0,B|32:240|32:240|248:240,1,400
232,240,52606,1,0
232,112,52963,1,0
360,112,53320,1,0
360,240,53677,1,0
360,240,53856,1,0
256,192,54034,12,4,56356
352,320,56713,5,8
352,192,57070,1,0
224,192,57427,1,8
96,192,57784,1,0
96,192,57963,1,0
256,192,58142,12,0,59213
64,192,59570,5,4
256,192,60106,1,0
448,192,60642,1,0
448,320,60999,5,4
320,320,61356,1,0
320,320,61534,1,0
192,320,61892,2,0,B|152:264|200:216,1,100
320,224,62606,2,0,B|360:168|312:120,1,100
192,128,63320,2,0,B|152:72|200:24,1,100,0|4
384,40,64213,6,0,B|456:40,3,50
384,160,65106,1,0
384,160,65285,1,0
256,160,65642,1,0
256,160,65821,1,0
256,32,66178,1,0
128,32,66534,2,0,B|128:72,2,25,0|0|4
80,152,67070,6,0,B|8:152,3,50
80,280,67963,1,0
80,280,68142,2,0,B|232:320|384:280,1,300
384,152,69570,2,0,B|280:80|192:160,1,200,0|4
72,136,70642,5,0
72,264,70999,2,0,B|144:352,1,100
136,344,71534,1,0
264,344,71892,1,0
264,344,72070,1,4
392,344,72427,5,0
392,216,72784,1,0
392,216,72963,1,0
392,88,73320,1,0
264,88,73677,1,0
264,216,74034,1,0
136,216,74392,1,0
136,88,74749,1,0
264,88,75106,1,4
456,88,75642,5,0
456,88,75820,1,0
456,88,75999,1,0
456,88,76177,1,0
456,216,76534,2,0,B|400:216,1,50
400,344,77070,2,0,B|344:344,1,50
216,344,77606,1,0
88,344,77963,2,0,B|48:344,2,25,0|0|4
88,216,78499,5,0
88,216,78677,1,0
88,216,78856,1,0
88,216,79034,1,0
96,88,79392,2,0,B|152:88,1,50
272,88,79927,2,0,B|272:160,1,50
272,264,80463,2,0,B|336:264,1,50
448,264,80999,2,0,B|480:320|440:368,2,100,0|0|4
448,136,82070,5,0
336,72,82427,2,0,B|304:32|256:88,1,75,0|0
72,72,83499,1,0
40,192,83855,2,0,B|0:224|56:272,1,75,0|0
168,256,84749,1,0
168,256,84927,1,0
168,256,85106,1,4
472,40,96713,6,0,B|408:40,4,50
472,168,97784,1,0
472,168,97963,1,0
344,168,98320,1,0
216,168,98677,1,0
216,168,98855,1,0
88,168,99213,1,4
40,48,99570,6,0,B|104:48,4,50
88,168,100641,1,0
88,168,100820,1,0
88,296,101177,1,0
216,296,101534,1,0
216,296,101713,1,4
456,192,102427,6,0,B|392:192,4,50
456,320,103498,1,0
456,320,103677,1,0
328,320,104034,1,0
208,320,104392,1,0
208,320,104570,1,0
208,320,104749,1,0
208,320,104927,1,0
80,320,105284,2,0,B|40:264|96:224,4,100,0|0|0|0|4
208,320,107070,5,0
208,320,107249,1,0
208,320,107427,2,0,B|280:320,2,50,0|0|0
208,184,108141,2,0,B|264:152|320:192,1,100,2|2
432,184,109213,1,2
432,184,109391,2,0,B|464:128|424:72,1,100,0|0
432,88,110284,1,2
432,88,110463,1,0
432,88,110641,1,2
304,88,110999,6,0,B|248:56|192:96,1,100,2|2
208,216,112070,1,2
208,216,112248,1,0
336,216,112605,1,0
336,344,112963,1,2
192,56,113855,5,0
192,56,114034,1,0
320,56,114391,1,0
192,56,114748,1,0
192,56,114927,1,0
320,328,116713,5,0
320,328,116892,1,0
192,328,117249,1,0
320,328,117606,1,0
320,328,117785,1,0
32,64,119570,6,0,B|88:64,1,50
208,64,120105,1,0
336,64,120463,2,0,B|392:64,1,50
384,192,120998,1,0
384,192,121177,1,0
256,192,121534,1,0
128,192,121891,1,0
128,320,122248,1,0
128,320,122427,2,0,B|176:344|248:312,7,100,0|0|0|0|0|0|0|4
368,320,125284,6,0,B|400:256|352:208,2,100,8|0|8
240,320,126355,1,0
240,320,126534,1,0
104,320,126892,2,0,B|56:264|112:192,1,125,0|0
104,72,128141,5,4
296,72,128677,1,0
200,240,129213,1,0
320,280,129570,5,4
448,280,129927,2,0,B|448:216,1,50
448,96,130463,1,0
320,96,130820,1,0
192,96,131177,1,0
64,96,131534,1,0
64,224,131892,1,0
192,224,132249,1,4
360,320,132784,5,0
360,320,132963,1,0
360,320,133141,2,0,B|360:256,1,50,0|0
392,144,133677,1,0
392,144,133855,1,0
264,144,134213,1,0
264,144,134391,1,0
136,144,134748,1,0
80,264,135106,2,0,B|40:264,2,25,0|0|4
208,264,135642,5,0
208,264,135821,1,0
208,264,135999,2,0,B|208:328,1,50,0|0
336,312,136534,2,0,B|392:312,1,50
432,192,137070,2,0,B|432:120,1,50
304,128,137606,2,0,B|240:128,1,50
120,128,138142,1,0
120,256,138499,1,0
120,128,138856,1,4
248,128,139213,5,0
376,128,139570,1,0
480,200,139927,1,0
480,200,140105,1,0
360,256,140463,1,0
360,256,140641,1,4
240,304,140998,5,0
112,304,141355,2,0,B|112:248,1,50
80,128,141891,1,0
208,128,142248,1,0
80,128,142606,1,0
208,128,142963,1,0
80,128,143320,1,0
208,128,143676,1,4
208,320,144213,5,0
208,320,144392,2,0,B|136:320,2,50
336,320,145105,1,0
336,320,145284,1,0
464,320,145642,2,0,B|464:248,1,50
464,136,146177,1,0
336,136,146534,2,0,B|336:88,2,25,0|0|4
208,136,147070,5,0
208,136,147249,2,0,B|208:72,2,50
80,144,147963,2,0,B|80:208,1,50
128,312,148498,1,0
128,312,148677,1,0
256,312,149034,2,0,B|320:312,1,50
432,312,149570,1,0
432,184,149927,1,0
304,184,150284,1,4
176,184,150642,5,0
48,184,150998,2,0,B|8:152|64:104,1,75,0|0
232,48,152070,1,0
232,48,152426,2,0,B|264:8|312:64,1,75,0|0
424,48,153320,1,0
424,112,153498,1,0
424,176,153677,1,4
