osu file format v5

[General]
AudioFilename: Murata Ayumi - Happiness!.mp3
AudioLeadIn: 0
PreviewTime: -1
Countdown: 0
SampleSet: Normal
StackLeniency: 0.8
Mode: 0
LetterboxInBreaks: 1
EditorDistanceSpacing: 0.800000011920929

[Metadata]
Title:Happiness!
Artist:Murata Ayumi
Creator:quintitem
Version:Hard
Source:
Tags:

[Difficulty]
HPDrainRate:6
CircleSize:5
OverallDifficulty:7
SliderMultiplier:1.4
SliderTickRate:1

[Events]
//Background and Video events
0,0,"happiness.jpg"
//Break Periods
2,16735,27242
2,85306,95813
2,165127,181527
//Storyboard Layer 0 (Background)
//Storyboard Layer 1 (Fail)
//Storyboard Layer 2 (Pass)
//Storyboard Layer 3 (Foreground)
//Storyboard Sound Samples
//Background Colour Transformations
3,100,163,162,255

[TimingPoints]
285,357.142857142857,4,1,0,90,1,0
6356,-100,4,1,0,95,0,0
6713,-100,4,1,0,90,0,0
9213,-100,4,1,0,95,0,0
9570,-100,4,1,0,90,0,0
12963,-100,4,1,0,95,0,0
13320,-100,4,1,0,90,0,0
13856,-200,4,1,0,90,0,0
14570,-100,4,1,0,90,0,0
15285,-200,4,1,0,90,0,0
15999,-100,4,1,0,90,0,0
27784,-100,4,1,0,75,0,0
30463,-100,4,1,0,90,0,0
30820,-100,4,1,0,75,0,0
33320,-100,4,1,0,90,0,0
33677,-100,4,1,0,75,0,0
38320,-100,4,1,0,90,0,0
38409,-100,4,1,0,75,0,0
39392,-200,4,2,0,90,0,0
41535,-100,4,2,0,90,0,0
42427,-200,4,2,0,90,0,0
43142,-100,4,2,0,90,0,0
44213,-100,4,1,0,90,0,0
45106,-100,4,1,0,95,0,0
45284,-100,4,1,0,75,0,0
47784,-100,4,1,0,90,0,0
47963,-100,4,1,0,75,0,0
50642,-100,4,1,0,90,0,0
50820,-100,4,1,0,75,0,0
54035,-100,4,1,0,90,0,0
58142,-100,4,2,0,90,0,0
58856,-200,4,2,0,90,0,0
59481,-100,4,1,0,100,0,0
60820,-100,4,1,0,90,0,0
63767,-100,4,1,0,95,0,0
64035,-100,4,1,0,90,0,0
66713,-100,4,1,0,100,0,0
66892,-100,4,1,0,90,0,0
70463,-100,4,1,0,100,0,0
70642,-100,4,1,0,90,0,0
71981,-100,4,1,0,95,0,0
72249,-100,4,1,0,90,0,0
75195,-100,4,1,0,95,0,0
75463,-100,4,1,0,90,0,0
78320,-100,4,1,0,100,0,0
78499,-100,4,1,0,90,0,0
81535,-100,4,1,0,96,0,0
81892,-100,4,1,0,90,0,0
82427,-200,4,1,0,90,0,0
83142,-100,4,1,0,90,0,0
83856,-200,4,1,0,90,0,0
84570,-100,4,1,0,90,0,0
96356,-100,4,1,0,75,0,0
99034,-100,4,1,0,90,0,0
99392,-100,4,1,0,75,0,0
101624,-100,4,1,0,90,0,0
102427,-100,4,1,0,75,0,0
106802,-100,4,1,0,90,0,0
107070,-100,4,1,0,75,0,0
107963,-200,4,2,0,90,0,0
108856,-100,4,2,0,90,0,0
109213,-200,4,2,0,90,0,0
110284,-100,4,2,0,90,0,0
110642,-200,4,2,0,90,0,0
111713,-100,4,2,0,90,0,0
113052,-100,4,1,0,90,0,0
113767,-100,4,1,0,75,0,0
115284,-100,4,1,0,90,0,0
116534,-100,4,1,0,75,0,0
118142,-100,4,1,0,90,0,0
119392,-100,4,1,0,75,0,0
122606,-100,4,1,0,90,0,0
127784,-100,4,2,0,90,0,0
127963,-100,4,1,0,100,0,0
129392,-100,4,1,0,90,0,0
132427,-100,4,1,0,95,0,0
132606,-100,4,1,0,90,0,0
135240,-100,4,1,0,100,0,0
135463,-100,4,1,0,90,0,0
138990,-100,4,1,0,100,0,0
139213,-100,4,1,0,85,0,0
140552,-100,4,1,0,95,0,0
140820,-100,4,1,0,90,0,0
143856,-100,4,1,0,95,0,0
144034,-100,4,1,0,90,0,0
146668,-100,4,1,0,100,0,0
146892,-100,4,1,0,90,0,0
150284,-100,4,1,0,95,0,0
150463,-100,4,1,0,90,0,0
150642,-200,4,1,0,90,0,0
151713,-100,4,1,0,90,0,0
152427,-200,4,1,0,90,0,0
153142,-100,4,1,0,90,0,0
157963,-100,4,1,0,100,0,0
158856,-100,4,1,0,80,0,0
159213,-100,4,1,0,100,0,0
162249,-100,4,1,0,80,0,0
162784,-100,4,1,0,64,0,0
163320,-100,4,1,0,50,0,0
164034,-100,4,1,0,90,0,0
164570,-100,4,1,0,80,0,0
182070,-100,4,1,0,90,0,0
184927,-100,4,2,0,90,0,0
185106,-100,4,1,0,100,0,0
186534,-200,4,2,0,100,0,0
189570,-100,4,2,0,100,0,0
190642,-200,4,2,0,100,0,0
192427,-100,4,2,0,100,0,0
193499,-200,4,2,0,100,0,0
196177,-100,4,2,0,100,0,0
197784,-100,4,1,0,90,0,0
200909,-100,4,1,0,95,0,0
201177,-100,4,1,0,90,0,0
203811,-100,4,1,0,100,0,0
204034,-100,4,1,0,90,0,0
207249,-100,4,1,0,95,0,0
207784,-200,4,1,0,90,0,0
208856,-100,4,1,0,90,0,0
210642,-100,4,1,0,100,0,0
210820,-100,4,1,0,90,0,0
213811,-100,4,1,0,95,0,0
214034,-100,4,1,0,90,0,0
216668,-100,4,1,0,100,0,0
216892,-100,4,1,0,90,0,0
220418,-100,4,1,0,100,0,0
220642,-100,4,1,0,90,0,0
221981,-100,4,1,0,95,0,0
222249,-100,4,1,0,90,0,0
225284,-100,4,1,0,95,0,0
225463,-100,4,1,0,90,0,0
228276,-100,4,1,0,100,0,0
228499,-100,4,1,0,90,0,0
231534,-100,4,1,0,95,0,0
231892,-200,4,1,0,90,0,0
233142,-100,4,1,0,90,0,0
234927,-100,4,1,0,100,0,0

[Colours]
Combo1 : 239,123,110
Combo2 : 95,44,53
Combo3 : 153,207,235
Combo4 : 91,56,120

[HitObjects]
256,192,999,12,4,3499
256,192,3856,5,0
144,192,4213,1,0
88,192,4392,1,0
88,80,4749,1,0
200,80,5106,1,0
312,80,5463,1,0
424,80,5821,1,0
424,192,6178,1,0
312,192,6534,1,4
144,192,7070,5,0
144,248,7249,1,0
144,304,7428,1,0
200,304,7606,1,0
200,192,7963,1,0
256,192,8142,1,0
368,192,8499,1,0
368,248,8678,1,0
368,136,9035,1,0
256,136,9392,1,4
88,136,9928,5,0
144,136,10106,1,0
200,136,10285,1,0
256,136,10463,1,0
256,248,10821,1,0
200,248,10999,1,0
88,248,11356,1,0
144,248,11535,1,0
144,136,11892,1,0
88,136,12071,1,0
200,136,12428,1,0
312,136,12785,1,0
424,136,13142,1,4
424,248,13499,5,0
312,248,13856,2,0,B|264:288|192:232,1,105
160,248,14570,1,0
48,248,14927,1,0
48,136,15285,2,0,B|96:96|168:152,1,105
256,136,16178,1,0
312,136,16356,1,0
368,136,16535,1,4
32,32,28142,5,0
32,88,28320,1,0
88,88,28499,1,0
88,144,28677,1,0
144,144,28856,1,0
144,256,29213,1,0
200,256,29392,1,0
200,144,29749,1,0
312,144,30106,1,0
368,144,30284,1,0
480,144,30642,1,4
480,32,30999,5,0
480,88,31177,1,0
424,88,31356,1,0
424,144,31534,1,0
368,144,31713,1,0
368,256,32070,1,0
312,256,32249,1,0
312,144,32606,1,0
200,144,32963,1,0
144,144,33141,1,0
32,144,33499,1,4
32,256,33856,5,0
88,256,34034,1,0
144,256,34213,1,0
200,256,34392,1,0
256,256,34570,1,0
368,256,34927,1,0
424,256,35106,1,0
424,144,35463,1,0
312,144,35820,1,0
256,144,35999,1,0
200,144,36177,1,0
144,144,36356,1,0
32,152,36713,6,0,B|88:208,1,70,0|0
136,200,37070,2,0,B|192:144,1,70,0|0
240,152,37427,2,0,B|296:208,1,70,0|0
344,200,37784,2,0,B|400:144,1,70,0|0
448,152,38142,2,0,B|504:208,1,70,0|4
496,256,38499,5,0
496,312,38677,1,0
440,312,38856,1,0
440,368,39034,1,0
384,368,39213,1,0
256,368,39570,2,0,B|208:296|264:232,1,140,2|2
368,240,40642,1,2
312,240,40820,2,0,B|360:168|304:104,1,140
256,112,41713,1,2
200,112,41892,1,0
144,112,42070,1,2
144,112,42427,6,0,B|96:184|152:248,1,140,2|2
256,240,43499,1,2
256,296,43677,1,0
368,296,44034,1,0
480,296,44392,1,0
480,240,44570,1,0
480,184,44749,2,0,B|440:160|400:192,2,70,0|0|4
480,128,45284,5,0
424,128,45463,1,0
312,128,45820,1,0
200,128,46177,1,0
144,128,46356,1,0
256,192,46535,12,4,47785
32,256,48142,5,0
88,256,48321,1,0
200,256,48678,1,0
312,256,49035,1,0
368,256,49214,1,0
256,192,49392,12,4,50642
200,136,50999,5,0
200,136,51177,1,0
312,136,51534,1,0
312,248,51892,1,0
312,248,52070,1,0
200,248,52427,1,0
200,248,52606,1,0
104,192,52963,1,0
216,192,53320,1,0
328,192,53677,1,0
384,192,53856,1,0
384,304,54213,5,0
272,304,54570,1,0
216,304,54749,2,0,B|192:264|224:224,2,70
104,304,55463,1,0
216,304,55820,1,0
272,304,55999,2,0,B|296:264|264:224,2,70,0|0|4
384,304,56713,5,8
384,192,57070,1,0
272,192,57427,1,8
272,304,57784,1,0
272,248,57963,1,0
160,248,58320,1,0
160,136,58677,1,0
160,80,58856,2,0,B|208:40|280:96,1,105,2|0
256,24,59570,5,4
256,192,60106,1,0
256,360,60642,1,0
256,248,60999,5,4
144,248,61356,1,0
88,248,61534,1,0
72,192,61713,1,0
72,136,61892,2,0,B|152:96|224:152,1,140
200,192,62427,1,0
192,248,62606,2,0,B|272:288|344:240,1,140
320,192,63142,1,0
312,136,63320,2,0,B|392:96|464:152,1,140
448,192,63856,1,4
440,304,64213,5,0
440,304,64392,1,0
440,304,64570,2,0,B|360:304,1,70
256,304,65106,1,0
200,304,65284,1,0
88,304,65642,1,0
32,304,65820,1,0
32,248,65999,1,0
32,192,66177,1,0
88,192,66356,1,0
144,192,66534,2,0,B|144:232,2,35,0|0|4
256,192,67070,5,0
256,136,67249,1,0
312,136,67427,2,0,B|400:136,1,70
472,200,67963,1,0
472,200,68142,1,0
440,304,68499,2,0,B|360:304,1,70
312,304,68856,2,0,B|232:304,1,70
240,304,69213,1,0
128,320,69570,1,0
128,264,69749,1,0
128,208,69927,1,0
184,208,70106,1,0
240,208,70284,2,0,B|240:248,2,35,0|0|4
296,208,70642,5,0
352,208,70820,1,0
408,208,70999,2,0,B|408:128,1,70
408,80,71356,2,0,B|328:80,1,70
280,80,71713,1,0
224,80,71892,1,0
168,80,72070,1,4
56,80,72427,5,0
56,192,72784,1,0
56,192,72963,2,0,B|56:344,1,140
112,336,73499,1,0
112,336,73677,2,0,B|112:184,1,140
168,200,74213,1,0
168,200,74392,2,0,B|168:352,1,140,0|0
168,339,74927,1,0
224,342,75106,1,0
280,343,75284,1,4
280,224,75641,5,0
280,224,75820,2,0,B|280:136,1,70
224,152,76177,1,0
112,152,76534,1,0
112,208,76713,1,0
112,320,77070,1,0
168,320,77249,2,0,B|256:320,1,70
296,320,77606,2,0,B|384:320,1,70
368,264,77963,1,0
424,264,78142,2,0,B|464:264,2,35,0|0|4
424,208,78499,5,0
424,152,78677,1,0
424,96,78856,1,0
368,96,79034,1,0
256,96,79392,1,0
200,96,79570,1,0
88,96,79927,1,0
32,96,80106,2,0,B|32:184,1,70
32,224,80463,1,0
32,280,80642,1,0
144,280,80999,1,0
256,280,81356,1,0
368,280,81713,1,4
368,168,82070,5,0
368,168,82427,2,0,B|320:208|248:152,1,105
216,168,83142,1,0
216,56,83498,1,0
320,56,83856,2,0,B|368:16|440:72,1,105
472,152,84749,2,0,B|472:240,2,70,0|0|4
32,352,96713,5,0
32,352,96892,2,0,B|120:352,1,70
104,296,97249,2,0,B|192:296,1,70
176,184,97784,1,0
176,184,97963,2,0,B|264:184,1,70,0|0
304,184,98320,2,0,B|304:272,1,70
304,256,98677,1,0
368,256,98855,1,0
480,256,99213,1,4
480,352,99570,5,0
480,352,99749,2,0,B|392:352,1,70
408,296,100106,2,0,B|320:296,1,70
336,184,100641,1,0
336,184,100820,2,0,B|248:184,1,70,0|0
208,184,101177,2,0,B|208:272,1,70
208,256,101534,1,0
152,256,101713,2,0,B|64:256,1,70
24,256,102070,2,0,B|24:168,1,70,0|4
24,128,102427,5,0
56,80,102605,1,0
88,128,102784,1,0
120,80,102963,1,0
152,128,103141,1,0
264,128,103498,1,0
264,128,103677,2,0,B|264:216,1,70
264,200,104034,2,0,B|352:200,1,70
336,200,104391,1,0
392,200,104570,1,0
448,200,104748,1,0
448,144,104927,1,0
480,32,105284,5,0
424,32,105463,2,0,B|368:88,1,70
336,120,105820,1,0
280,120,105998,2,0,B|224:176,1,70
176,168,106356,1,0
120,168,106534,2,0,B|64:224,1,70
16,216,106892,1,4
16,272,107070,6,0,B|72:328,1,70,0|0
120,320,107427,1,0
176,320,107605,1,0
232,320,107784,1,0
344,320,108141,2,0,B|392:248|336:184,1,140,2|2
232,200,109213,1,2
232,200,109391,2,0,B|184:128|240:64,1,140
235,72,110284,1,2
235,72,110463,1,0
235,72,110641,1,2
352,72,110998,6,0,B|400:144|344:208,1,140,2|2
288,296,112070,1,2
288,296,112248,1,0
176,280,112606,1,0
64,256,112963,1,0
64,200,113142,2,0,B|64:112,1,70
120,128,113499,2,0,B|120:40,1,70
176,56,113855,5,0
232,56,114034,1,0
344,56,114391,1,0
456,56,114748,1,0
456,112,114927,1,0
288,128,115463,5,0
336,160,115641,1,0
288,184,115820,1,0
336,216,115999,1,0
336,216,116356,1,4
336,328,116713,5,0
280,328,116892,1,0
168,328,117249,1,0
56,328,117606,1,0
56,272,117785,1,0
224,256,118320,5,0
176,224,118498,1,0
224,200,118677,1,0
176,168,118856,1,0
176,168,119213,1,4
176,56,119570,5,0
232,56,119748,1,0
344,56,120105,1,0
344,168,120463,1,0
344,224,120641,1,0
344,336,120998,1,0
288,336,121177,1,0
176,336,121534,1,0
176,224,121891,1,0
176,112,122248,1,0
176,56,122427,1,0
64,56,122784,5,0
64,168,123141,1,0
120,168,123320,2,0,B|144:208|112:248,2,70
232,168,124034,1,0
232,280,124391,1,0
176,280,124570,2,0,B|152:320|184:360,2,70,0|0|4
104,192,125284,5,8
256,40,125641,1,0
408,192,125998,1,8
256,344,126355,1,0
256,344,126534,1,0
256,192,126713,12,0,127784
256,32,128142,5,4
479,352,128677,1,0
31,352,129213,1,0
32,240,129570,5,4
144,240,129927,2,0,B|144:328,2,70
144,240,130463,1,0
200,240,130642,2,0,B|200:152,2,70
200,240,131177,1,0
256,240,131356,2,0,B|256:328,2,70
256,240,131892,1,0
312,240,132070,2,0,B|312:152,2,70,0|0|4
424,224,132784,6,0,B|480:168,1,70
472,120,133142,2,0,B|416:64,1,70
312,72,133677,1,0
264,104,133856,1,0
192,16,134213,2,0,B|136:72,1,70
88,64,134570,2,0,B|32:120,1,70
40,112,134927,1,0
40,112,135106,1,0
40,112,135195,1,0
40,112,135284,1,4
24,232,135642,6,0,B|80:288,1,70
32,312,135999,2,0,B|88:368,1,70
192,360,136534,1,0
232,320,136713,1,0
344,312,137070,2,0,B|400:368,1,70
448,360,137427,2,0,B|504:304,1,70
496,256,137784,1,0
408,192,138142,2,0,B|320:192,1,70
336,192,138499,2,0,B|248:192,1,70,0|0
264,192,138856,1,0
264,192,138945,1,0
264,192,139034,1,4
208,192,139213,5,0
152,192,139391,1,0
152,248,139570,2,0,B|152:328,1,70
96,320,139927,2,0,B|16:320,1,70
24,320,140284,2,0,B|24:240,1,70
24,248,140641,1,4
32,144,140999,5,0
144,144,141356,2,0,B|144:56,2,70
144,144,141892,1,0
200,144,142070,2,0,B|200:232,2,70
200,144,142606,1,0
256,144,142784,2,0,B|256:56,2,70
256,144,143320,1,0
312,144,143499,2,0,B|312:232,2,70
424,152,144213,6,0,B|480:208,1,70
472,264,144571,2,0,B|416:320,1,70
320,352,145106,1,0
264,336,145284,1,0
152,336,145642,2,0,B|96:280,1,70
136,240,145999,2,0,B|80:184,1,70
32,192,146356,1,0
32,192,146535,1,0
32,192,146624,1,0
32,192,146713,1,4
32,80,147071,6,0,B|88:24,1,70
128,56,147428,2,0,B|184:0,1,70
264,72,147963,1,0
296,120,148142,1,0
384,56,148499,2,0,B|440:0,1,70
472,48,148856,2,0,B|416:104,1,70
424,96,149213,1,0
488,192,149570,2,0,B|416:240|352:184,3,140,0|0|4|0
256,192,150998,6,0,B|208:152|136:208,1,105,0|0
160,248,151713,1,0
48,248,152069,1,0
48,136,152427,2,0,B|96:96|168:152,1,105
256,136,153320,1,0
312,136,153499,1,0
368,136,153677,1,4
256,192,153856,12,4,157963
256,32,158499,5,0
256,352,159034,1,4
256,192,159213,12,0,162070
256,32,162427,5,4
32,352,162963,1,4
480,352,163499,1,4
256,192,164213,1,4
256,192,164749,2,0,B|256:240,2,35,0|0|4
480,192,182427,5,8
256,352,182784,1,0
32,192,183141,1,8
256,32,183498,1,0
256,32,183677,1,0
256,192,183856,12,0,184927
256,352,185285,5,4
33,32,185820,1,0
481,32,186356,1,0
496,136,186713,6,0,B|272:312|0:128,1,525,2|0
32,296,189927,1,2
88,296,190106,1,0
144,296,190284,1,2
200,296,190463,1,0
296,336,190820,2,0,B|392:192|288:32,1,315,0|2
184,40,192784,5,2
128,40,192963,1,0
72,40,193142,1,2
16,40,193320,1,0
16,144,193677,2,0,B|160:240|320:136,1,315,0|2
416,144,195642,1,2
416,240,195999,1,2
256,192,196177,12,0,197784
32,32,198142,5,0
144,32,198499,1,0
144,32,198677,2,0,B|56:160,1,140
64,147,199213,1,0
96,200,199392,2,0,B|192:328,1,140
180,312,199927,1,0
232,304,200106,2,0,B|368:264,1,140
368,264,200642,1,0
424,264,200820,1,0
424,208,200999,1,4
480,112,201356,6,0,B|424:56,1,70,0|0
376,64,201713,2,0,B|312:104,1,70
208,136,202249,1,0
184,184,202427,1,0
192,288,202784,2,0,B|256:360,1,70
296,328,203142,2,0,B|360:264,1,70
384,240,203499,1,0
384,240,203678,1,0
384,240,203767,1,0
384,240,203856,1,4
464,160,204214,6,0,B|408:104,1,70
360,96,204570,2,0,B|288:136,1,70
200,120,205106,1,0
152,88,205284,1,0
40,128,205642,2,0,B|80:200,1,70
128,208,205999,2,0,B|88:272,1,70
90,267,206356,1,0
192,312,206713,2,0,B|344:312,1,140
408,232,207427,2,0,B|408:88,1,140,4|0
296,96,208141,6,0,B|248:56|176:112,1,105,0|0
200,96,208856,1,0
256,192,209212,1,0
256,192,209392,12,0,210642
480,32,210999,5,0
368,32,211356,1,0
368,88,211534,1,0
368,200,211892,2,0,B|312:272,2,70
288,120,212606,2,0,B|232:48,2,70
232,216,213320,2,0,B|168:288,2,70
232,216,213856,1,4
120,208,214213,6,0,B|24:208,3,70
40,96,215106,1,0
40,40,215284,1,0
152,40,215642,2,0,B|232:72,3,70
248,112,216356,1,0
248,112,216534,1,0
248,112,216624,1,0
248,112,216713,1,4
336,40,217070,6,0,B|416:88,3,70
408,184,217963,2,0,B|376:272,1,70
280,248,218499,2,0,B|200:248,3,70
208,248,219213,1,0
96,248,219570,2,0,B|32:184,1,70
64,144,219927,2,0,B|136:80,1,70
116,99,220284,1,0
116,98,220374,1,0
116,98,220463,1,4
168,96,220642,6,0,B|248:136,3,70
288,128,221356,2,0,B|368:88,3,70
384,144,222070,1,4
448,232,222427,5,0
376,320,222784,1,0
320,320,222963,1,0
208,320,223320,1,0
152,320,223499,1,0
96,320,223677,1,0
96,208,224034,1,0
152,208,224213,1,0
208,208,224392,1,0
208,96,224749,1,0
152,96,224927,1,0
96,96,225106,2,0,B|40:152,1,70,0|4
48,256,225642,6,0,B|48:336,1,70
104,328,225999,2,0,B|104:248,1,70,0|0
216,256,226534,2,0,B|288:256,1,70
400,256,227070,2,0,B|400:176,1,70,0|0
400,184,227427,2,0,B|320:184,1,70,0|0
328,184,227784,2,0,B|328:112,1,70,0|0
328,112,228142,1,0
328,112,228231,1,0
328,112,228320,1,4
272,112,228499,6,0,B|192:112,1,70
200,168,228856,1,0
144,168,229034,1,0
48,224,229392,1,0
48,280,229570,1,0
160,304,229927,1,0
160,304,230106,1,0
272,304,230463,1,0
272,304,230642,1,0
384,304,230999,1,0
384,192,231356,1,0
384,80,231713,1,4
272,80,232070,5,0
272,192,232427,2,0,B|224:232|152:176,1,105,0|0
176,192,233142,1,0
176,192,233498,1,0
256,192,233677,12,4,235106
