osu file format v9

[General]
AudioFilename: Kurokami midareshi shura to narite.mp3
AudioLeadIn: 0
PreviewTime: 32900
Countdown: 0
SampleSet: Normal
StackLeniency: 0.7
Mode: 0
LetterboxInBreaks: 0

[Editor]
Bookmarks: 20100,69700,84100,96500,120890,146500,159300,165700,184000,191300,197800
DistanceSpacing: 1.1
BeatDivisor: 4
GridSize: 8

[Metadata]
Title:Kurokami Midareshi Shura to Narite
Artist:Muramasa Kuoria
Creator:littlecar3370
Version:ENJOY
Source:Pop'n Music
Tags:NanaDesu suzuhime chata sengoku retsuden 18

[Difficulty]
HPDrainRate:1
CircleSize:3
OverallDifficulty:1
ApproachRate:3
SliderMultiplier:1.1
SliderTickRate:1

[Events]
//Background and Video events
0,0,"suzu.jpg"
//Break Periods
2,58690,68250
2,111490,119450
2,133490,145050
2,175290,182650
//Storyboard Layer 0 (Background)
//Storyboard Layer 1 (Fail)
//Storyboard Layer 2 (Pass)
//Storyboard Layer 3 (Foreground)
Sprite,Foreground,Centre,"SB\BG Effect3.jpg",320,240 F,0,146490,159290,1
Sprite,Foreground,Centre,"SB\Suzuhime.png",320,240 F,0,146490,159290,1
Sprite,Foreground,Centre,"SB\BG Effect1.jpg",320,240 F,0,13690,31290,0.4 S,0,13690,32890,1 F,0,31290,32890,0.4,1 S,0,32890,32990,1,1.05 F,0,32890,34490,1,0 S,0,32990,34490,1.05,1.15 F,0,55290,56890,0,0.85 S,0,55290,56890,1 F,0,56890,56990,0.85,1 S,0,56890,56990,1,1.05 F,0,56990,58490,1,0 S,0,56990,58490,1.05,1.15 F,0,84090,96890,0.65 S,0,84090,96890,1 F,0,96890,96990,0.65 S,0,96890,96990,1,1.05 F,0,96990,98490,0.65,0 S,0,96990,98490,1.05,1.15 F,0,135290,136090,0,0.6 S,0,135290,146490,1 F,0,136090,144890,0.6 F,0,144890,146490,0.6,0.3 F,0,146490,146590,0.3,1 S,0,146490,146590,1,1.05 F,0,146590,148090,1,0 S,0,146590,148090,1.05,1.15 F,0,172090,173690,0,0.5 S,0,172090,173690,1 F,0,173690,184890,0.5 S,0,173690,184890,1 F,0,196090,197690,0.6 S,0,196090,202490,1 F,0,197690,202490,0.6 F,0,202490,202590,0.6,1 S,0,202490,202590,1,1.05 F,0,202590,204090,1,0 S,0,202590,204090,1.05,1.15
Sprite,Foreground,Centre,"SB\BG Effect2.jpg",320,240 F,0,184090,184890,0,1 F,0,184890,189690,1 S,0,184890,191290,1 F,0,189690,191290,1,0 F,0,191290,191390,0,1 S,0,191290,191390,1,1.05 F,0,191390,192890,1,0 S,0,191390,192890,1.05,1.2 S,0,192890,192990,1.2,1.15
Sprite,Foreground,Centre,"SB\Kiri.png",320,240 F,0,96890,98490,0,1 M,0,96890,108090,819,410,-174,452 F,0,98490,106490,1 F,0,106490,108090,1,0 F,0,159290,160890,0,1 M,0,159290,172090,901,449,-293,464 F,0,160890,170490,1 F,0,170490,172090,1,0 F,0,189690,191290,0,1 M,0,189690,202490,851,469,-293,464 F,0,191290,200890,1 F,0,200890,202490,1,0
Sprite,Foreground,Centre,"SB\01.png",320,240 F,0,20090,20890,0,1 M,0,20090,32090,546,194,546,252 F,0,20890,31290,1 F,0,31290,32090,1,0
Sprite,Foreground,Centre,"SB\02.png",320,240 F,0,26490,27290,0,1 M,0,26490,32090,492,312,492,284 F,0,27290,31290,1 F,0,31290,32090,1,0
Sprite,Foreground,Centre,"SB\03.png",320,240 F,0,32690,33290,0,1 M,0,32690,39090,531,149,531,191 F,0,33290,38490,1 F,0,38490,39090,1,0
Sprite,Foreground,Centre,"SB\04.png",320,240 F,0,35890,36490,0,1 M,0,35890,39090,482,328,482,304 F,0,36490,38490,1 F,0,38490,39090,1,0
Sprite,Foreground,Centre,"SB\05.png",320,240 F,0,39090,39690,0,1 M,0,39090,45490,535,197,535,222 F,0,39690,44890,1 F,0,44890,45490,1,0
Sprite,Foreground,Centre,"SB\06.png",320,240 F,0,43490,44090,0,1 M,0,43490,45690,483,246,483,228 F,0,44090,44890,1 F,0,44890,45690,1,0
Sprite,Foreground,Centre,"SB\07.png",320,240 S,0,44590,44690,1.24,1.29 F,0,44590,44890,0,1 S,0,44690,46290,1.29,1.6 M,0,44790,,439,339 F,0,44890,45690,1 F,0,45690,46290,1,0
Sprite,Foreground,Centre,"SB\08.png",320,240 F,0,45290,46290,0,1 M,0,45290,51690,539,158,539,225 F,0,46290,50890,1 F,0,50890,51690,1,0 F,0,96490,97290,0,1 M,0,96490,102490,539,166,539,216 F,0,97290,101690,1 F,0,101690,102490,1,0
Sprite,Foreground,Centre,"SB\09.png",320,240 F,0,48090,48890,0,1 M,0,48090,51690,488,312,488,289 F,0,48890,50890,1 F,0,50890,51690,1,0 F,0,99290,100090,0,1 M,0,99290,102490,488,326,488,295 F,0,100090,101690,1 F,0,101690,102490,1,0
Sprite,Foreground,Centre,"SB\010.png",320,240 F,0,51690,52490,0,1 M,0,51690,59490,537,163,537,220 F,0,52490,57290,1 F,0,57290,59490,1,0 F,0,102490,103290,0,1 M,0,102490,110690,537,155,537,218 F,0,103290,108490,1 F,0,108490,110690,1,0 F,0,190490,191290,0,1 M,0,190490,198490,537,165,537,217 F,0,191290,196890,1 F,0,196890,198490,1,0
Sprite,Foreground,Centre,"SB\11.png",320,240 F,0,54490,55290,0,1 M,0,54490,59490,489,326,489,293 F,0,55290,57290,1 F,0,57290,59490,1,0 F,0,105690,106490,0,1 M,0,105690,110690,489,332,489,293 F,0,106490,108490,1 F,0,108490,110690,1,0 F,0,193690,194490,0,1 M,0,193690,198490,489,326,489,291 F,0,194490,196890,1 F,0,196890,198490,1,0
Sprite,Foreground,Centre,"SB\Black.jpg",320,240 M,0,890,,320,240 F,0,890,2490,0,1 F,0,2490,13690,1 F,0,13690,14490,1,0 F,0,119290,120890,0,1 F,0,120890,132090,1 F,0,132090,133290,1 F,0,133290,133690,1,0.7
Sprite,Foreground,Centre,"SB\title.png",320,240 F,0,6890,7190,0,0.3 F,0,7190,7290,0.3,1 S,0,7190,7290,1,1.07 M,0,7290,,311,214 F,0,7290,12090,1 S,0,7290,13690,1.07,1.14 F,0,12090,13690,1,0
Sprite,Foreground,Centre,"SB\Sen.png",320,240 F,0,6890,7290,0,1 M,0,7290,,311,261 F,0,7290,12090,1 S,0,7290,13690,1,1.07 F,0,12090,13690,1,0
Sprite,Foreground,Centre,"SB\White Effect.png",320,240 M,0,6890,,308,236 F,0,6890,7281,0,0.3 F,0,7281,7290,0.3,1 F,0,7290,7490,1 V,0,7290,7490,1.744769,0.3577225,2.790178,0.4192169 F,0,7490,8890,1,0 F,0,13590,13690,0,1 S,0,13590,13690,1,1.4 F,0,13690,15290,1,0 S,0,13690,15290,1.4,1.7 F,0,18490,20090,0,0.5 S,0,18490,20090,1,1.28 F,0,20090,20190,0.5,1 S,0,20090,20190,1.28,1.9 F,0,20190,21690,1,0 S,0,20190,21690,1.9,2 F,0,44090,45690,0,0.4 S,0,44090,45690,0.7,1.28 F,0,45690,45790,0.4,1 S,0,45690,45790,1.28,3.14 F,0,45790,47290,1,0 S,0,45790,47290,3.14,2.5 F,0,55290,56890,0,0.35 S,0,55290,56890,1,1.27 F,0,56890,56990,0.3,1 S,0,56890,56990,1.27,1.55 F,0,56990,58490,1,0 S,0,56990,58490,1.55,1.74 F,0,82490,84090,0,0.5 S,0,82490,84090,1,1 F,0,84090,84190,0.5,1 S,0,84090,84190,1,1.5 F,0,84190,85690,1,0 S,0,84190,85690,1.5 F,0,106490,108090,0,0.5 S,0,106490,108090,1,1.23 F,0,108090,108190,0.5,1 S,0,108090,108190,1.23,2.25 F,0,108190,109690,1,0 S,0,108190,109690,2.25 F,0,157690,159290,0,0.3 S,0,157690,159290,1,1.28 F,0,159290,159390,0.3,1 S,0,159290,159390,1.28,2.72 F,0,159390,160890,1,0 S,0,159390,160890,2.72
Sprite,Foreground,Centre,"SB\12.png",320,240 F,0,71490,72290,0,1 M,0,71490,83290,537,146,537,231 F,0,72290,82490,1 F,0,82490,83290,1,0
Sprite,Foreground,Centre,"SB\13.png",320,240 F,0,77890,78690,0,1 M,0,77890,83290,490,309,490,282 F,0,78690,82490,1 F,0,82490,83290,1,0
Sprite,Foreground,Centre,"SB\14.png",320,240 F,0,83690,84490,0,1 M,0,83690,90090,535,115,535,165 F,0,84490,89290,1 F,0,89290,90090,1,0
Sprite,Foreground,Centre,"SB\15.png",320,240 F,0,86890,87690,0,1 M,0,86890,90090,486,337,486,311 F,0,87690,89290,1 F,0,89290,90090,1,0
Sprite,Foreground,Centre,"SB\16.png",320,240 F,0,90090,90890,0,1 M,0,90090,96490,535,164,535,213 F,0,90890,95690,1 F,0,95690,96490,1,0
Sprite,Foreground,Centre,"SB\17.png",320,240 F,0,92890,93690,0,1 M,0,92890,96490,483,344,483,314 F,0,93690,95690,1 F,0,95690,96490,1,0
Sprite,Foreground,Centre,"SB\18.png",320,240 F,0,158890,159690,0,1 M,0,158890,165290,537,177,537,231 F,0,159690,164490,1 F,0,164490,165290,1,0
Sprite,Foreground,Centre,"SB\19.png",320,240 F,0,163490,164090,0,1 M,0,163490,165490,486,347,486,324 F,0,164090,164890,1 F,0,164890,165490,1,0
Sprite,Foreground,Centre,"SB\20-1.png",320,240 F,0,165290,166090,0,1 M,0,165290,174890,538,151,538,216 F,0,166090,173290,1 F,0,173290,174890,1,0
Sprite,Foreground,Centre,"SB\20-2.png",320,240 F,0,168490,169290,0,1 M,0,168490,174890,491,306,491,270 F,0,169290,173290,1 F,0,173290,174890,1,0
Sprite,Foreground,Centre,"SB\24.png",320,240 M,0,170990,,417,110 F,0,170990,171090,0,1 S,0,170990,171090,1.546619,1.191317 F,0,171090,173290,1 F,0,173290,174890,1,0
Sprite,Foreground,Centre,"SB\25.png",320,240 M,0,171090,,413,173 F,0,171090,171190,0,1 S,0,171090,171190,1.327971,1.116157 F,0,171190,173290,1 F,0,173290,174890,1,0
Sprite,Foreground,Centre,"SB\26.png",320,240 M,0,171190,,416,236 F,0,171190,171690,0,1 S,0,171190,171690,1.505623,1.250693 F,0,171690,173290,1 F,0,173290,174890,1,0
Sprite,Foreground,Centre,"SB\27.png",320,240 M,0,171890,,417,309 F,0,171890,172290,0,1 S,0,171890,172290,1.478292,1.252811 F,0,172290,173290,1 F,0,173290,174890,1,0
Sprite,Foreground,Centre,"SB\22.png",320,240 F,0,184090,184890,0,1 M,0,184090,190490,535,163,535,212 F,0,184890,189690,1 F,0,189690,190490,1,0
Sprite,Foreground,Centre,"SB\23.png",320,240 F,0,187290,188090,0,1 M,0,187290,190490,486,306,486,278 F,0,188090,189690,1 F,0,189690,190490,1,0
Sprite,Foreground,Centre,"SB\Arist.png",320,240 M,0,8890,9290,387,345,351,344 F,0,8890,9690,0,1 M,0,9290,13690,351,344,291,344 F,0,9690,11690,1 F,0,11690,,1 F,0,11690,12490,1 F,0,12490,13690,1,0
Sprite,Foreground,Centre,"SB\SAKURA.png",320,240 S,0,32890,,0.26272 M,0,32890,45690,476,-13,138,491 R,0,32890,45690,0,14.4384 S,0,47690,,0.17056 M,0,47690,69690,525,-23,398,488 R,0,47690,69690,14.4384,36.4544 M,0,71690,82490,616,-10,461,492 R,0,71690,82490,36.23524,50 M,0,85090,95690,570,-11,462,484 R,0,85090,95690,50,33.25979 M,0,102090,119290,380,-12,12,493 R,0,102090,119290,-23.47929,33.25979 M,0,161090,172090,404,-15,167,495 R,0,161090,172090,22.92868,33.25979 M,0,177490,184890,257,-15,169,486 R,0,177490,184890,32.96019,43.66026
Sprite,Foreground,Centre,"SB\SAKURA.png",320,240 S,0,36090,,0.2012801 M,0,36090,55290,328,-11,115,489 R,0,36090,55290,0,14.21312 S,0,58890,,0.2012801 M,0,58890,68090,190,-20,-11,269 R,0,58890,68090,14.20646,-5.577221 M,0,74490,87290,316,-17,-12,422 R,0,74490,87290,-5.063275,-34.89502 M,0,93690,106490,339,-16,-12,422 R,0,93690,106490,-34.17486,-45.27123 M,0,110490,120890,422,-15,265,347 R,0,110490,120890,-45.27123,-36.60732 F,0,119290,120890,1,0 F,0,162690,,1 M,0,162690,176890,260,-19,158,498 R,0,162690,176890,-50,-40.06048 M,0,178890,184890,428,-14,345,254 R,0,178890,184890,-40.06048,-35.41422 F,0,184090,184890,1,0
Sprite,Foreground,Centre,"SB\SAKURA.png",320,240 S,0,63290,,0.25248 M,0,63290,76090,501,-12,180,493 R,0,63290,76090,0,15.23712 M,0,77690,84890,412,-13,233,491 R,0,77690,84890,15.23712,43.22402 M,0,91690,103290,385,-15,272,490 R,0,91690,103290,43.18904,25.30093 M,0,109690,117690,479,-23,265,492 R,0,109690,117690,25.66949,36.88885 M,0,166690,178490,538,-17,426,496 R,0,166690,178490,18.43225,30.15723
Sprite,Foreground,Centre,"SB\BG.jpg",320,240 S,0,0,120890,0.6653594 F,0,120890,121690,0,1 M,0,120890,133690,279,332,324,452 F,0,121690,132090,1 F,0,132090,133290,1,0
Sprite,Foreground,Centre,"SB\SAKURA.png",320,240 S,0,64090,,0.1527402 M,0,64090,80890,406,-14,-14,444 R,0,64090,80890,0,16.0706 M,0,106890,120890,141,-16,-8,418 R,0,106890,120890,-27.52228,7.256363 M,0,168290,180890,301,-14,-8,418 R,0,168290,180890,-22.36064,-12.61715
Sprite,Foreground,Centre,"SB\SAKURA.png",320,240 S,0,78490,,0.2210674 M,0,78490,93690,443,-11,43,490 R,0,78490,93690,0,42.89594 M,0,100290,112890,449,-18,82,494 R,0,100290,112890,42.87054,10.825 M,0,117690,120890,576,-16,452,141 R,0,117690,120890,10.825,17.3161 F,0,119290,120890,1,0 F,0,173090,,1 M,0,173090,178890,456,-24,162,497 R,0,173090,178890,-0.4763522,10.825
Sprite,Foreground,Centre,"SB\Black Ring.png",320,240 F,0,68090,69690,0,1 M,0,69690,,320,240 F,0,69690,84090,1,0.994375 F,0,84090,84190,0.994375,0 S,0,120890,,0.8054399 F,0,120890,133290,1
Sprite,Foreground,Centre,"SB\LIGHT.png",320,240 F,0,133690,133790,0,1 S,0,133790,,0.73376 F,0,133790,136090,1 R,0,133790,146490,-0.2015659,-1.612527 M,0,135290,,320,240 F,0,136090,144890,1 F,0,144890,146490,1,0
Animation,Foreground,Centre,"SB\suzu\suzu.jpg",320,240,28,60,LoopForever F,0,1690,3290,0,1 M,0,2490,,170,233 S,0,2490,,1.136655 F,0,3290,5690,1 F,0,5690,6890,1,0
Sprite,Foreground,Centre,"SB\Source.png",320,240 F,0,2490,4090,0,1 M,0,3290,,423,236 F,0,4090,5690,1 F,0,5690,6890,1,0
Sprite,Foreground,Centre,"SB\White.jpg",320,240 F,0,133690,133790,0,1 F,0,133790,135290,1,0
//Storyboard Sound Samples
//Background Colour Transformations
3,100,163,162,255

[TimingPoints]
890,400,4,1,1,60,1,0
45690,-100,4,1,1,60,0,1
56890,-100,4,1,1,60,0,0
96890,-100,4,1,1,60,0,1
108099,-100,4,1,1,60,0,0
120890,-100,4,2,1,60,0,0
146490,-100,4,1,1,60,0,0
146490,-100,4,1,1,60,0,0
159290,-100,4,1,1,60,0,1
172090,-100,4,1,1,60,0,0
184090,-100,4,2,1,60,0,0
189690,-100,4,1,1,60,0,0
191290,-100,4,1,1,60,0,1
196090,-100,4,1,1,60,0,0

[Colours]
Combo1 : 255,128,255
Combo2 : 255,202,176
Combo3 : 128,128,255
Combo4 : 255,172,89

[HitObjects]
48,256,7290,2,0,B|88:256|88:256|128:272|128:272|176:272,1,110
264,328,8090,2,0,B|384:328,2,110
216,216,9290,1,0
320,160,9690,2,0,B|448:160,2,110
200,160,10890,1,0
200,160,11290,1,0
88,120,11690,1,0
80,240,12090,2,0,B|48:296,3,55
176,296,13090,6,0,B|224:328|296:336|352:288,1,165
256,208,14090,1,8
136,208,14490,2,0,B|112:144|152:80,1,110
248,160,15290,2,0,B|304:168|344:232,1,110,0|8
224,272,16090,2,0,B|176:296|184:328,2,55,8|0|8
344,272,16890,6,0,B|408:272|408:272|464:248,1,110,0|8
384,152,17690,1,0
264,152,18090,1,8
176,232,18490,2,0,B|224:272|224:272|296:272,1,110,0|8
392,240,19290,2,0,B|392:112,2,110,0|8|0
296,320,20490,5,0
184,264,20890,1,0
144,152,21290,1,2
240,80,21690,2,0,B|368:80,1,110,0|2
400,192,22490,2,0,B|272:192,1,110,0|2
168,192,23290,2,0,B|96:192,2,55,0|0|2
288,192,24090,2,0,B|384:192,2,82.5
160,320,25290,5,2
280,320,25690,2,0,B|384:320,2,82.5
104,288,26890,5,2
120,168,27290,2,0,B|176:128|248:136,1,110,0|2
312,224,28090,2,0,B|352:160|320:96,1,110,0|2
232,48,28890,2,0,B|184:56|128:40,2,82.5
368,176,30090,6,0,B|392:232|392:232|392:296,1,110,2|0
288,344,30890,1,2
192,272,31290,2,0,B|120:272,1,55,2|0
152,216,31690,2,0,B|88:216,1,55,8|0
120,160,32090,2,0,B|48:160,2,55,2|2|8
240,184,32890,6,0,B|248:232|264:264|312:288,1,110,2|8
376,192,33690,1,2
440,88,34090,1,8
320,88,34490,2,0,B|256:72|200:88,1,110,2|8
112,160,35290,2,0,B|112:240,2,55,2|2|8
216,96,36090,6,0,B|264:96|264:96|296:112|296:112|344:112,1,110,2|8
408,200,36890,2,0,B|408:272,2,55,2|0|8
400,80,37690,2,0,B|360:80|360:80|328:64|328:64|280:64,1,110,2|8
208,144,38490,2,0,B|208:224,2,55,2|8|8
104,80,39290,6,0,B|64:128|80:208,1,110,2|8
56,304,40090,2,0,B|120:328|216:336|296:296,1,220,2|0
416,192,41490,1,0
416,192,41690,2,0,B|400:136|400:136|400:64,1,110,2|8
280,48,42490,2,0,B|200:32|152:48|88:48|64:96,1,220,2|0
48,264,43890,5,0
48,264,44090,2,0,B|96:288|96:288|176:288,1,110,2|8
264,336,44890,2,0,B|312:264|368:296|368:240|440:256|448:192,1,220
464,96,46090,5,8
344,96,46490,1,2
232,144,46890,1,8
136,224,47290,2,0,B|192:280|248:256|296:272|304:232|368:272,1,220,2|0
464,288,48490,1,8
352,328,48890,2,0,B|336:264|336:232|360:200,1,110,2|8
472,208,49690,2,0,B|464:136|408:112,1,110,2|8
304,88,50490,2,0,B|200:88,4,82.5,2|8|8|2|8
392,176,52090,5,2
272,208,52490,2,0,B|208:216|176:256,1,110,8|2
88,336,53290,2,0,B|64:272|80:216,1,110,8|2
96,112,54090,1,8
208,64,54490,1,2
320,112,54890,5,8
368,224,55290,2,0,B|344:280|280:296,1,110,2|0
216,200,56090,2,0,B|176:232|160:288,2,82.5,8|8|4
256,192,56890,12,0,58490
432,272,69690,6,0,B|400:256|352:280|304:256,1,110
200,280,70490,1,0
256,176,70890,1,0
136,184,71290,6,0,B|88:232|88:304,1,110,2|0
192,336,72090,2,0,B|232:296|240:216,1,110,2|0
200,120,72890,1,2
320,152,73290,1,0
440,184,73690,2,0,B|456:248|440:304,1,110,2|0
312,248,74490,2,0,B|224:248,2,82.5,2|0|0
224,336,75490,2,0,B|144:336,1,60,8|8
48,328,76090,2,0,B|40:240|56:192|120:192|112:112,1,220,2|0
208,48,77290,1,4
304,128,77690,6,0,B|368:120|416:144,1,110,2|0
344,240,78490,2,0,B|272:256|216:224,1,110,2|0
168,128,79290,2,0,B|120:168|120:232,1,110,2|0
72,336,80090,2,0,B|128:352|184:328,1,110,2|0
296,288,80890,1,2
392,216,81290,1,0
472,120,81690,2,0,B|408:88|344:96,1,110,8|0
256,40,82490,2,0,B|232:104|256:160,1,110,8|0
288,264,83290,1,2
288,264,83690,2,0,B|160:264,1,110,8|0
64,224,84490,5,8
152,144,84890,2,0,B|216:120|296:120|328:128|376:160,1,220,2|0
464,224,86090,1,8
360,288,86490,2,0,B|288:320|240:328|184:320|136:280,1,220,2|0
56,216,87690,1,8
136,128,88090,2,0,B|200:104|256:136,1,110,2|8
184,232,88890,2,0,B|256:248|320:240|376:232|416:208,1,220,2|0
232,48,90490,6,0,B|112:48,1,110,4|0
216,128,91290,2,0,B|96:168,1,110,2|8
224,208,92090,2,0,B|120:280,1,110,2|8
248,296,92890,2,0,B|296:304|328:288|368:304,1,110,0|8
480,320,93690,2,0,B|464:232|408:224|424:192|360:184|352:128,1,220,4|0
256,72,94890,1,8
152,136,95290,2,0,B|166:208|102:216|118:248|62:256|48:336,1,220,4|0
296,312,96890,6,0,B|360:336|416:312,1,110,4|8
352,208,97690,1,2
408,104,98090,2,0,B|354:79|288:104,1,110,8|2
352,208,98890,1,8
232,208,99290,2,0,B|192:192|160:224|112:200,2,110,2|8|2
352,208,100490,5,8
472,208,100890,2,0,B|464:144|416:112|368:88|304:88|288:112,1,220
192,136,102090,1,8
96,208,102490,2,0,B|72:264|88:328,1,110,2|8
200,280,103290,6,0,B|312:280,2,110,4|8|2
224,160,104490,1,8
224,160,104890,2,0,B|344:160,2,110,2|8|2
104,160,106090,1,8
40,264,106490,1,4
136,336,106890,1,8
200,232,107290,2,0,B|240:216|280:240|312:224,1,110,8|8
256,192,108090,12,4,111290
64,280,120890,6,0,B|136:264|192:288|232:296|304:288,1,220,0|0
392,240,122090,1,2
288,176,122490,2,0,B|217:182|177:174|121:150|56:160,1,220,0|0
104,272,123690,1,2
216,320,124090,1,0
328,280,124490,1,2
216,240,124890,2,0,B|200:176|232:168|216:120,1,110,0|2
128,40,125690,6,0,B|88:88|104:152,1,110,0|2
160,256,126490,2,0,B|200:224|248:224,2,82.5
128,288,127290,1,0
232,344,127690,1,2
344,296,128090,1,0
344,176,128490,1,2
232,128,128890,5,0
120,176,129290,1,2
232,216,129690,2,0,B|272:272|344:280,1,110,0|2
440,328,130490,2,0,B|448:256|408:216|392:184|392:152|392:96,1,220
296,48,131690,1,2
192,112,132090,2,0,B|192:192|160:224|144:256|144:288|144:336,1,220
264,320,133290,1,2
440,64,146490,5,6
328,112,146890,1,8
424,184,147290,1,2
320,248,147690,1,8
224,176,148090,2,0,B|192:232|208:304,1,110,2|8
320,248,148890,2,0,B|368:296|432:312,1,110,2|8
424,184,149690,2,0,B|384:176|320:160|328:64|256:64|224:80,1,220,2|0
128,112,150890,1,8
192,216,151290,2,0,B|192:296,2,55,2|0|8
304,168,152090,2,0,B|368:168,2,55,2|0|8
192,120,152890,6,0,B|184:168|176:224|104:208|104:272|104:336,1,220,0|2
224,312,154090,2,0,B|336:320,1,110,8|2
432,248,154890,2,0,B|352:240,2,55,2|0|8
432,128,155690,2,0,B|384:128|384:128|352:112|352:112|304:112,1,110,8|2
224,48,156490,2,0,B|192:80|200:120,2,55,2|0|8
104,72,157290,1,8
48,184,157690,2,0,B|120:208|176:176,1,110,4|0
272,128,158490,2,0,B|360:128,2,82.5,8|0|8
272,128,159290,5,4
176,200,159690,1,8
288,240,160090,1,2
384,168,160490,1,8
272,128,160890,2,0,B|224:88|160:88,1,110,2|8
168,208,161690,2,0,B|80:208,2,82.5,2|8|2
168,208,162490,1,4
256,288,162890,1,8
344,208,163290,1,2
160,56,164090,5,4
160,176,164490,2,0,B|152:240|160:304,2,110,8|2|8
256,104,165690,2,0,B|328:104|328:104|376:128,1,110,2|8
424,224,166490,2,0,B|352:256|320:192|272:240|240:200|184:240,1,220,2|0
136,320,167690,2,0,B|96:280|96:216,1,110,8|0
56,104,168490,1,2
168,64,168890,6,0,B|216:80|256:80|296:64,2,110,8|8|2
56,104,170090,1,8
128,200,170490,2,0,B|208:200|208:200|280:224|280:224|360:224,1,220,2|0
440,296,171690,1,0
256,192,172090,12,4,173690
256,192,173890,12,4,175090
96,264,184090,6,0,B|208:264,2,110,0|2|0
40,160,185290,1,2
160,160,185690,2,0,B|224:160,2,55,0|0|2
96,56,186490,2,0,B|224:56,2,110,0|2|0
40,160,187690,2,0,B|40:272,1,110,2|0
152,312,188490,1,2
152,192,188890,2,0,B|144:128|152:80,1,110,0|2
256,144,189690,2,0,B|344:144,4,82.5,0|8|2|8|8
200,248,191290,6,0,B|296:248,2,82.5,2|0|0
200,248,192090,1,2
104,184,192490,2,0,B|80:240|88:296,1,110,8|2
112,176,193290,1,8
208,104,193690,2,0,B|272:88|344:120|384:152|400:200,1,220,2|0
336,296,194890,1,8
216,296,195290,2,0,B|120:296,2,82.5,2|8|2
216,296,196090,1,4
256,192,196290,12,4,197690
184,128,198490,6,0,B|312:128,1,110,8|8
368,224,199290,1,2
368,224,199690,1,2
320,336,200090,2,0,B|256:336|192:240|112:240,1,220,8|8
104,360,201290,1,8
8,280,201690,2,0,B|-8:208|8:136|80:112|128:128,1,220,2|12
