osu file format v9

[General]
AudioFilename: Kurokami midareshi shura to narite.mp3
AudioLeadIn: 2000
PreviewTime: 32900
Countdown: 0
SampleSet: Normal
StackLeniency: 0.7
Mode: 0
LetterboxInBreaks: 0

[Editor]
Bookmarks: 20100,45690,69700,84100,96500,112890,121000,146500,159300,165700,184000,191300,197800
DistanceSpacing: 1
BeatDivisor: 4
GridSize: 8

[Metadata]
Title:Kurokami Midareshi Shura to Narite
Artist:Muramasa Kuoria
Creator:littlecar3370
Version:BATTLE
Source:Pop'n Music
Tags:NanaDesu suzuhime chata sengoku retsuden 18

[Difficulty]
HPDrainRate:7
CircleSize:4
OverallDifficulty:6
ApproachRate:8
SliderMultiplier:1.8
SliderTickRate:1

[Events]
//Background and Video events
0,0,"suzu.jpg"
//Break Periods
2,63090,68940
2,114290,120140
2,175290,183340
//Storyboard Layer 0 (Background)
//Storyboard Layer 1 (Fail)
//Storyboard Layer 2 (Pass)
//Storyboard Layer 3 (Foreground)
Sprite,Foreground,Centre,"SB\BG Effect3.jpg",320,240 F,0,146490,159290,1
Sprite,Foreground,Centre,"SB\Suzuhime.png",320,240 F,0,146490,159290,1
Sprite,Foreground,Centre,"SB\BG Effect1.jpg",320,240 F,0,13690,31290,0.4 S,0,13690,32890,1 F,0,31290,32890,0.4,1 S,0,32890,32990,1,1.05 F,0,32890,34490,1,0 S,0,32990,34490,1.05,1.15 F,0,55290,56890,0,0.85 S,0,55290,56890,1 F,0,56890,56990,0.85,1 S,0,56890,56990,1,1.05 F,0,56990,58490,1,0 S,0,56990,58490,1.05,1.15 F,0,84090,96890,0.65 S,0,84090,96890,1 F,0,96890,96990,0.65 S,0,96890,96990,1,1.05 F,0,96990,98490,0.65,0 S,0,96990,98490,1.05,1.15 F,0,135290,136090,0,0.6 S,0,135290,146490,1 F,0,136090,144890,0.6 F,0,144890,146490,0.6,0.3 F,0,146490,146590,0.3,1 S,0,146490,146590,1,1.05 F,0,146590,148090,1,0 S,0,146590,148090,1.05,1.15 F,0,172090,173690,0,0.5 S,0,172090,173690,1 F,0,173690,184890,0.5 S,0,173690,184890,1 F,0,196090,197690,0.6 S,0,196090,202490,1 F,0,197690,202490,0.6 F,0,202490,202590,0.6,1 S,0,202490,202590,1,1.05 F,0,202590,204090,1,0 S,0,202590,204090,1.05,1.15
Sprite,Foreground,Centre,"SB\BG Effect2.jpg",320,240 F,0,184090,184890,0,1 F,0,184890,189690,1 S,0,184890,191290,1 F,0,189690,191290,1,0 F,0,191290,191390,0,1 S,0,191290,191390,1,1.05 F,0,191390,192890,1,0 S,0,191390,192890,1.05,1.2 S,0,192890,192990,1.2,1.15
Sprite,Foreground,Centre,"SB\Kiri.png",320,240 F,0,96890,98490,0,1 M,0,96890,108090,819,410,-174,452 F,0,98490,106490,1 F,0,106490,108090,1,0 F,0,159290,160890,0,1 M,0,159290,172090,901,449,-293,464 F,0,160890,170490,1 F,0,170490,172090,1,0 F,0,189690,191290,0,1 M,0,189690,202490,851,469,-293,464 F,0,191290,200890,1 F,0,200890,202490,1,0
Sprite,Foreground,Centre,"SB\01.png",320,240 F,0,20090,20890,0,1 M,0,20090,32090,546,194,546,252 F,0,20890,31290,1 F,0,31290,32090,1,0
Sprite,Foreground,Centre,"SB\02.png",320,240 F,0,26490,27290,0,1 M,0,26490,32090,492,312,492,284 F,0,27290,31290,1 F,0,31290,32090,1,0
Sprite,Foreground,Centre,"SB\03.png",320,240 F,0,32690,33290,0,1 M,0,32690,39090,531,149,531,191 F,0,33290,38490,1 F,0,38490,39090,1,0
Sprite,Foreground,Centre,"SB\04.png",320,240 F,0,35890,36490,0,1 M,0,35890,39090,482,328,482,304 F,0,36490,38490,1 F,0,38490,39090,1,0
Sprite,Foreground,Centre,"SB\05.png",320,240 F,0,39090,39690,0,1 M,0,39090,45490,535,197,535,222 F,0,39690,44890,1 F,0,44890,45490,1,0
Sprite,Foreground,Centre,"SB\06.png",320,240 F,0,43490,44090,0,1 M,0,43490,45690,483,246,483,228 F,0,44090,44890,1 F,0,44890,45690,1,0
Sprite,Foreground,Centre,"SB\07.png",320,240 S,0,44590,44690,1.24,1.29 F,0,44590,44890,0,1 S,0,44690,46290,1.29,1.6 M,0,44790,,439,339 F,0,44890,45690,1 F,0,45690,46290,1,0
Sprite,Foreground,Centre,"SB\08.png",320,240 F,0,45290,46290,0,1 M,0,45290,51690,539,158,539,225 F,0,46290,50890,1 F,0,50890,51690,1,0 F,0,96490,97290,0,1 M,0,96490,102490,539,166,539,216 F,0,97290,101690,1 F,0,101690,102490,1,0
Sprite,Foreground,Centre,"SB\09.png",320,240 F,0,48090,48890,0,1 M,0,48090,51690,488,312,488,289 F,0,48890,50890,1 F,0,50890,51690,1,0 F,0,99290,100090,0,1 M,0,99290,102490,488,326,488,295 F,0,100090,101690,1 F,0,101690,102490,1,0
Sprite,Foreground,Centre,"SB\010.png",320,240 F,0,51690,52490,0,1 M,0,51690,59490,537,163,537,220 F,0,52490,57290,1 F,0,57290,59490,1,0 F,0,102490,103290,0,1 M,0,102490,110690,537,155,537,218 F,0,103290,108490,1 F,0,108490,110690,1,0 F,0,190490,191290,0,1 M,0,190490,198490,537,165,537,217 F,0,191290,196890,1 F,0,196890,198490,1,0
Sprite,Foreground,Centre,"SB\11.png",320,240 F,0,54490,55290,0,1 M,0,54490,59490,489,326,489,293 F,0,55290,57290,1 F,0,57290,59490,1,0 F,0,105690,106490,0,1 M,0,105690,110690,489,332,489,293 F,0,106490,108490,1 F,0,108490,110690,1,0 F,0,193690,194490,0,1 M,0,193690,198490,489,326,489,291 F,0,194490,196890,1 F,0,196890,198490,1,0
Sprite,Foreground,Centre,"SB\Black.jpg",320,240 M,0,890,,320,240 F,0,890,2490,0,1 F,0,2490,13690,1 F,0,13690,14490,1,0 F,0,119290,120890,0,1 F,0,120890,132090,1 F,0,132090,133290,1 F,0,133290,133690,1,0.7
Sprite,Foreground,Centre,"SB\title.png",320,240 F,0,6890,7190,0,0.3 F,0,7190,7290,0.3,1 S,0,7190,7290,1,1.07 M,0,7290,,311,214 F,0,7290,12090,1 S,0,7290,13690,1.07,1.14 F,0,12090,13690,1,0
Sprite,Foreground,Centre,"SB\Sen.png",320,240 F,0,6890,7290,0,1 M,0,7290,,311,261 F,0,7290,12090,1 S,0,7290,13690,1,1.07 F,0,12090,13690,1,0
Sprite,Foreground,Centre,"SB\White Effect.png",320,240 M,0,6890,,308,236 F,0,6890,7281,0,0.3 F,0,7281,7290,0.3,1 F,0,7290,7490,1 V,0,7290,7490,1.744769,0.3577225,2.790178,0.4192169 F,0,7490,8890,1,0 F,0,13590,13690,0,1 S,0,13590,13690,1,1.4 F,0,13690,15290,1,0 S,0,13690,15290,1.4,1.7 F,0,18490,20090,0,0.5 S,0,18490,20090,1,1.28 F,0,20090,20190,0.5,1 S,0,20090,20190,1.28,1.9 F,0,20190,21690,1,0 S,0,20190,21690,1.9,2 F,0,44090,45690,0,0.4 S,0,44090,45690,0.7,1.28 F,0,45690,45790,0.4,1 S,0,45690,45790,1.28,3.14 F,0,45790,47290,1,0 S,0,45790,47290,3.14,2.5 F,0,55290,56890,0,0.35 S,0,55290,56890,1,1.27 F,0,56890,56990,0.3,1 S,0,56890,56990,1.27,1.55 F,0,56990,58490,1,0 S,0,56990,58490,1.55,1.74 F,0,82490,84090,0,0.5 S,0,82490,84090,1 F,0,84090,84190,0.5,1 S,0,84090,84190,1,1.5 F,0,84190,85690,1,0 S,0,84190,85690,1.5 F,0,106490,108090,0,0.5 S,0,106490,108090,1,1.23 F,0,108090,108190,0.5,1 S,0,108090,108190,1.23,2.25 F,0,108190,109690,1,0 S,0,108190,109690,2.25 F,0,157690,159290,0,0.3 S,0,157690,159290,1,1.28 F,0,159290,159390,0.3,1 S,0,159290,159390,1.28,2.72 F,0,159390,160890,1,0 S,0,159390,160890,2.72
Sprite,Foreground,Centre,"SB\12.png",320,240 F,0,71490,72290,0,1 M,0,71490,83290,537,146,537,231 F,0,72290,82490,1 F,0,82490,83290,1,0
Sprite,Foreground,Centre,"SB\13.png",320,240 F,0,77890,78690,0,1 M,0,77890,83290,490,309,490,282 F,0,78690,82490,1 F,0,82490,83290,1,0
Sprite,Foreground,Centre,"SB\14.png",320,240 F,0,83690,84490,0,1 M,0,83690,90090,535,115,535,165 F,0,84490,89290,1 F,0,89290,90090,1,0
Sprite,Foreground,Centre,"SB\15.png",320,240 F,0,86890,87690,0,1 M,0,86890,90090,486,337,486,311 F,0,87690,89290,1 F,0,89290,90090,1,0
Sprite,Foreground,Centre,"SB\16.png",320,240 F,0,90090,90890,0,1 M,0,90090,96490,535,164,535,213 F,0,90890,95690,1 F,0,95690,96490,1,0
Sprite,Foreground,Centre,"SB\17.png",320,240 F,0,92890,93690,0,1 M,0,92890,96490,483,344,483,314 F,0,93690,95690,1 F,0,95690,96490,1,0
Sprite,Foreground,Centre,"SB\18.png",320,240 F,0,158890,159690,0,1 M,0,158890,165290,537,177,537,231 F,0,159690,164490,1 F,0,164490,165290,1,0
Sprite,Foreground,Centre,"SB\19.png",320,240 F,0,163490,164090,0,1 M,0,163490,165490,486,347,486,324 F,0,164090,164890,1 F,0,164890,165490,1,0
Sprite,Foreground,Centre,"SB\20-1.png",320,240 F,0,165290,166090,0,1 M,0,165290,174890,538,151,538,216 F,0,166090,173290,1 F,0,173290,174890,1,0
Sprite,Foreground,Centre,"SB\20-2.png",320,240 F,0,168490,169290,0,1 M,0,168490,174890,491,306,491,270 F,0,169290,173290,1 F,0,173290,174890,1,0
Sprite,Foreground,Centre,"SB\24.png",320,240 M,0,170990,,417,110 F,0,170990,171090,0,1 S,0,170990,171090,1.546619,1.191317 F,0,171090,173290,1 F,0,173290,174890,1,0
Sprite,Foreground,Centre,"SB\25.png",320,240 M,0,171090,,413,173 F,0,171090,171190,0,1 S,0,171090,171190,1.327971,1.116157 F,0,171190,173290,1 F,0,173290,174890,1,0
Sprite,Foreground,Centre,"SB\26.png",320,240 M,0,171190,,416,236 F,0,171190,171690,0,1 S,0,171190,171690,1.505623,1.250693 F,0,171690,173290,1 F,0,173290,174890,1,0
Sprite,Foreground,Centre,"SB\27.png",320,240 M,0,171890,,417,309 F,0,171890,172290,0,1 S,0,171890,172290,1.478292,1.252811 F,0,172290,173290,1 F,0,173290,174890,1,0
Sprite,Foreground,Centre,"SB\22.png",320,240 F,0,184090,184890,0,1 M,0,184090,190490,535,163,535,212 F,0,184890,189690,1 F,0,189690,190490,1,0
Sprite,Foreground,Centre,"SB\23.png",320,240 F,0,187290,188090,0,1 M,0,187290,190490,486,306,486,278 F,0,188090,189690,1 F,0,189690,190490,1,0
Sprite,Foreground,Centre,"SB\Arist.png",320,240 M,0,8890,9290,387,345,351,344 F,0,8890,9690,0,1 M,0,9290,13690,351,344,291,344 F,0,9690,11690,1 F,0,11690,,1 F,0,11690,12490,1 F,0,12490,13690,1,0
Sprite,Foreground,Centre,"SB\SAKURA.png",320,240 S,0,32890,,0.26272 M,0,32890,45690,476,-13,138,491 R,0,32890,45690,0,14.4384 S,0,47690,,0.17056 M,0,47690,69690,525,-23,398,488 R,0,47690,69690,14.4384,36.4544 M,0,71690,82490,616,-10,461,492 R,0,71690,82490,36.23524,50 M,0,85090,95690,570,-11,462,484 R,0,85090,95690,50,33.25979 M,0,102090,119290,380,-12,12,493 R,0,102090,119290,-23.47929,33.25979 M,0,161090,172090,404,-15,167,495 R,0,161090,172090,22.92868,33.25979 M,0,177490,184890,257,-15,169,486 R,0,177490,184890,32.96019,43.66026
Sprite,Foreground,Centre,"SB\SAKURA.png",320,240 S,0,36090,,0.2012801 M,0,36090,55290,328,-11,115,489 R,0,36090,55290,0,14.21312 S,0,58890,,0.2012801 M,0,58890,68090,190,-20,-11,269 R,0,58890,68090,14.20646,-5.577221 M,0,74490,87290,316,-17,-12,422 R,0,74490,87290,-5.063275,-34.89502 M,0,93690,106490,339,-16,-12,422 R,0,93690,106490,-34.17486,-45.27123 M,0,110490,120890,422,-15,265,347 R,0,110490,120890,-45.27123,-36.60732 F,0,119290,120890,1,0 F,0,162690,,1 M,0,162690,176890,260,-19,158,498 R,0,162690,176890,-50,-40.06048 M,0,178890,184890,428,-14,345,254 R,0,178890,184890,-40.06048,-35.41422 F,0,184090,184890,1,0
Sprite,Foreground,Centre,"SB\SAKURA.png",320,240 S,0,63290,,0.25248 M,0,63290,76090,501,-12,180,493 R,0,63290,76090,0,15.23712 M,0,77690,84890,412,-13,233,491 R,0,77690,84890,15.23712,43.22402 M,0,91690,103290,385,-15,272,490 R,0,91690,103290,43.18904,25.30093 M,0,109690,117690,479,-23,265,492 R,0,109690,117690,25.66949,36.88885 M,0,166690,178490,538,-17,426,496 R,0,166690,178490,18.43225,30.15723
Sprite,Foreground,Centre,"SB\BG.jpg",320,240 S,0,0,120890,0.6653594 F,0,120890,121690,0,1 M,0,120890,133690,279,332,324,452 F,0,121690,132090,1 F,0,132090,133290,1,0
Sprite,Foreground,Centre,"SB\SAKURA.png",320,240 S,0,64090,,0.1527402 M,0,64090,80890,406,-14,-14,444 R,0,64090,80890,0,16.0706 M,0,106890,120890,141,-16,-8,418 R,0,106890,120890,-27.52228,7.256363 M,0,168290,180890,301,-14,-8,418 R,0,168290,180890,-22.36064,-12.61715
Sprite,Foreground,Centre,"SB\SAKURA.png",320,240 S,0,78490,,0.2210674 M,0,78490,93690,443,-11,43,490 R,0,78490,93690,0,42.89594 M,0,100290,112890,449,-18,82,494 R,0,100290,112890,42.87054,10.825 M,0,117690,120890,576,-16,452,141 R,0,117690,120890,10.825,17.3161 F,0,119290,120890,1,0 F,0,173090,,1 M,0,173090,178890,456,-24,162,497 R,0,173090,178890,-0.4763522,10.825
Sprite,Foreground,Centre,"SB\Black Ring.png",320,240 F,0,68090,69690,0,1 M,0,69690,,320,240 F,0,69690,84090,1,0.994375 F,0,84090,84190,0.994375,0 S,0,120890,,0.8054399 F,0,120890,133290,1
Sprite,Foreground,Centre,"SB\LIGHT.png",320,240 F,0,133690,133790,0,1 S,0,133790,,0.73376 F,0,133790,136090,1 R,0,133790,146490,-0.2015659,-1.612527 M,0,135290,,320,240 F,0,136090,144890,1 F,0,144890,146490,1,0
Sprite,Foreground,Centre,"SB\littlecar3370.png",320,240 M,0,20090,20490,-122,309,166,309 M,0,20490,45490,166,309 M,0,45490,45690,166,309,166,395 M,0,45690,45890,166,395,-114,395 M,0,69690,70090,-116,310,166,310 M,0,70090,83890,166,310,165,310 M,0,83890,84090,165,310,165,394 M,0,84090,84290,165,394,-110,394 M,0,96890,97290,-109,311,166,311 M,0,97290,114290,166,311 M,0,114290,114490,166,311,164,394 M,0,114490,114690,164,394,-108,394 M,0,146490,146890,-108,311,165,311 M,0,146890,159090,165,311 M,0,159090,159290,165,311,165,394 M,0,159290,159490,165,394,-108,394 M,0,165690,166090,-108,310,166,310 M,0,166090,173490,166,310 M,0,173490,173690,166,310,166,394 M,0,173690,173890,166,394,-108,394 M,0,191290,191690,-106,303,165,303 M,0,191690,197490,165,303,166,303 M,0,197490,197690,166,303,166,386 M,0,197690,197890,166,386,-109,386
Sprite,Foreground,Centre,"SB\NanaDesu.png",320,240 M,0,13690,14090,-144,311,162,311 M,0,14090,19890,162,311 M,0,19890,20090,162,311,160,395 M,0,20090,20290,160,395,-80,395 M,2,45690,46090,-88,311,163,311 M,0,46090,63090,163,311,161,311 M,0,63090,63290,161,311,161,394 M,0,63290,63490,161,394,-78,394 M,0,84090,84490,-78,310,162,310 M,0,84490,96690,162,310 M,0,96690,96890,162,310,162,394 M,0,96890,97090,162,394,-74,394 M,0,120890,121290,-73,311,162,311 M,0,121290,146290,162,311,161,311 M,0,146290,146490,161,311,161,394 M,0,146490,146690,161,394,-93,394 M,0,159290,159690,-74,311,162,311 M,0,159690,165490,162,311,161,311 M,0,165490,165690,161,311,161,394 M,0,165690,165890,161,394,-72,394 M,0,184090,184490,-85,311,162,311 M,0,184490,191090,162,311,161,311 M,0,191090,191290,161,311,161,393 M,0,191290,191490,161,393,-74,393 M,0,197690,198090,-76,311,162,311 M,0,198090,203890,162,311,161,311 M,0,203890,204090,161,311,161,394 M,0,204090,204290,161,394,-71,394
Animation,Foreground,Centre,"SB\suzu\suzu.jpg",320,240,28,60,LoopForever F,0,1690,3290,0,1 M,0,2490,,170,233 S,0,2490,,1.136655 F,0,3290,5690,1 F,0,5690,6890,1,0
Sprite,Foreground,Centre,"SB\Source.png",320,240 F,0,2490,4090,0,1 M,0,3290,,423,236 F,0,4090,5690,1 F,0,5690,6890,1,0
Sprite,Foreground,Centre,"SB\White.jpg",320,240 F,0,133690,133790,0,1 F,0,133790,135290,1,0
//Storyboard Sound Samples
//Background Colour Transformations
3,100,163,162,255

[TimingPoints]
890,400,4,1,0,60,1,0
890,-100,4,2,1,60,0,0
7290,-100,4,1,1,60,0,0
20490,-100,4,2,1,50,0,0
23690,-200,4,2,1,50,0,0
24290,-100,4,2,1,50,0,0
25290,-200,4,2,1,50,0,0
25890,-100,4,2,1,50,0,0
31290,-100,4,1,1,50,0,0
32890,-100,4,1,1,60,0,0
32890,-100,4,1,1,60,0,0
44890,-200,4,1,0,0,0,0
45690,-100,4,1,1,70,0,1
56890,-100,4,1,1,70,0,0
59390,-100,4,1,2,80,0,0
59790,-100,4,1,1,70,0,0
62590,-100,4,1,2,70,0,0
62990,-100,4,1,1,70,0,0
69690,-100,4,1,1,60,0,0
84090,-100,4,1,1,70,0,0
86790,-100,4,1,2,70,0,0
87156,-100,4,1,1,70,0,0
89990,-100,4,1,2,70,0,0
90390,-100,4,1,1,70,0,0
93190,-100,4,1,2,70,0,0
93590,-100,4,1,1,70,0,0
96390,-100,4,2,2,70,0,0
96890,-100,4,1,1,70,0,1
108090,-100,4,1,1,70,0,0
110690,-100,4,1,2,70,0,0
111290,-100,4,1,1,70,0,0
113890,-100,4,1,2,70,0,0
123990,-100,4,1,1,10,0,0
124290,-100,4,2,1,60,0,0
133690,-100,4,1,1,70,0,0
134690,-100,4,1,2,70,0,0
146490,-100,4,1,1,70,0,0
158890,-200,4,1,1,70,0,0
159290,-100,4,1,1,70,0,1
159290,-100,4,1,1,70,0,1
161990,-100,4,1,2,70,0,1
162390,-100,4,1,2,70,0,1
163790,-100,4,1,1,70,0,1
163990,-100,4,1,2,70,0,1
165690,-100,4,1,1,70,0,1
172090,-100,4,1,1,70,0,0
184090,-100,4,2,1,50,0,0
189590,-100,4,1,1,50,0,0
189890,-100,4,1,1,60,0,0
190190,-100,4,1,2,70,0,0
190490,-100,4,1,1,70,0,0
191290,-100,4,1,1,70,0,1
192890,-200,4,1,1,70,0,1
193490,-100,4,1,1,70,0,1
196090,-100,4,1,1,70,0,0
203990,-100,4,1,1,10,0,0

[Colours]
Combo1 : 255,128,255
Combo2 : 255,202,176
Combo3 : 128,128,255
Combo4 : 255,172,89

[HitObjects]
256,192,890,1,0
256,280,1090,1,0
256,280,1190,1,0
256,280,1290,2,0,B|192:304|192:304|128:304,1,90
136,224,1690,2,0,B|88:256|88:304,1,90
168,344,2090,2,0,B|232:352|232:352|272:352,1,90
344,320,2490,2,0,B|488:320,2,135,2|2|2
296,248,3290,2,0,B|136:248,2,135,2|2|2
336,248,3990,1,0
376,248,4090,1,0
464,192,4290,5,0
464,192,4390,1,0
464,192,4490,2,0,B|408:168|408:168|280:168,1,180,2|0
200,168,5090,1,0
144,240,5290,2,0,B|112:288|112:288|112:328,1,90,2|0
200,344,5690,2,0,B|288:344,2,45,2|0|0
232,256,6090,2,0,B|288:256,2,45,2|0|0
144,280,6490,1,2
144,280,6690,2,0,B|72:280,2,45,2|0|0
224,320,7090,5,4
312,320,7290,1,0
344,304,7390,1,0
368,320,7490,1,0
456,320,7690,2,0,B|448:272|400:240,1,90,8|0
328,200,8090,2,0,B|208:200,2,90
400,144,8690,2,0,B|440:184|432:200,2,45,0|0|2
312,112,9090,6,0,B|208:112,1,90,2|8
144,160,9490,1,0
144,160,9590,1,0
144,160,9690,2,0,B|112:248|112:248|112:344,1,180
200,344,10290,2,0,B|296:344,2,90,0|2|2
184,256,10890,1,8
272,256,11090,1,0
272,256,11190,1,0
272,256,11290,1,0
344,304,11490,2,0,B|376:264|352:192,1,90,0|0
296,152,11890,5,0
296,152,11990,1,0
296,152,12090,2,0,B|224:152|224:152|192:176|192:176|104:176,1,180,2|8
56,120,12690,1,0
56,120,12890,2,0,B|40:160|40:160|40:240,1,90
120,240,13290,2,0,B|96:280|32:296,1,90,0|0
120,240,13690,5,2
120,240,13790,1,0
120,240,13890,1,2
160,160,14090,1,8
216,232,14290,1,0
392,272,14690,6,0,B|464:272,2,45
336,200,15090,2,0,B|272:200,2,45,0|0|2
368,200,15390,1,0
400,192,15490,1,2
432,176,15590,1,0
456,160,15690,2,0,B|432:104|376:88,1,90,8|0
224,32,16290,6,0,B|224:128,1,90
136,112,16690,2,0,B|136:208,1,90,0|2
80,272,17090,1,2
80,272,17190,1,0
80,272,17290,2,0,B|120:304|184:280|184:280|264:280,1,180,8|2
272,192,17890,2,0,B|328:200|352:264,2,90,0|8|0
184,192,18490,2,0,B|184:136|248:104,2,90,2|0|0
224,272,19090,5,0
224,272,19190,1,0
224,272,19290,1,2
312,272,19490,1,0
344,272,19590,1,0
376,264,19690,1,8
400,248,19790,1,0
416,224,19890,1,0
336,176,20090,5,4
96,304,20490,6,0,B|224:304,1,90,2|0
272,336,20890,1,0
352,296,21090,2,0,B|440:224|440:224|440:128,1,180
440,157,21590,1,0
440,157,21690,1,2
296,56,22090,5,0
296,56,22190,1,0
208,56,22390,1,0
208,56,22490,1,0
128,104,22690,1,0
96,184,22890,2,0,B|32:224|64:296,1,90
144,264,23290,2,0,B|160:336|224:328,1,90,2|0
232,248,23690,6,0,B|232:104,1,135
168,48,24490,1,0
168,48,24590,1,0
120,128,24790,1,0
120,128,24890,1,2
144,216,25090,1,0
192,296,25290,6,0,B|264:336|328:336,1,135
400,272,26090,1,0
400,272,26190,1,0
440,192,26390,1,0
440,192,26490,1,2
280,280,26890,6,0,B|160:280,1,90
136,208,27290,1,0
80,280,27490,1,0
32,208,27690,1,0
88,136,27890,1,0
112,112,27990,1,0
136,88,28090,1,2
224,88,28290,6,0,B|192:160,2,45
312,112,28690,1,0
400,80,28890,1,0
448,152,29090,1,0
432,184,29190,1,0
416,216,29290,2,0,B|376:296,1,90
304,352,29690,5,2
216,352,29890,2,0,B|136:352,2,45
264,272,30290,1,0
304,192,30490,1,0
216,88,30790,1,0
80,88,31090,1,0
120,168,31290,6,0,B|32:312,1,135,0|0
49,283,31690,1,8
112,344,31890,1,0
192,296,32090,2,0,B|272:160,1,135
260,179,32490,1,8
408,80,32890,5,2
432,168,33090,1,0
432,168,33190,1,0
432,168,33290,2,0,B|448:288,1,90,8|0
368,304,33690,1,2
344,216,33890,1,0
344,216,33990,1,0
344,216,34090,2,0,B|304:112,1,90,8|0
240,72,34490,5,2
152,72,34690,1,0
192,152,34890,2,0,B|128:152,2,45,8|0|0
280,152,35290,1,0
312,168,35390,1,0
352,168,35490,1,0
376,192,35590,1,0
408,200,35690,1,0
264,312,36090,6,0,B|208:248|208:248|208:192,1,135,2|0
208,198,36490,1,8
216,112,36690,1,0
296,72,36890,1,2
296,72,36990,1,0
376,112,37190,1,0
376,112,37290,1,8
464,88,37490,1,0
472,176,37690,5,2
384,200,37890,1,0
352,200,37990,1,0
320,216,38090,2,0,B|224:248,1,90,8|0
200,328,38490,6,0,B|136:328,2,45,2|0|0
232,328,38790,1,0
264,328,38890,1,0
296,328,38990,1,0
328,328,39090,2,0,B|400:336|408:264,1,90,0|2
344,216,39490,5,0
344,216,39590,1,0
344,216,39690,2,0,B|400:152|376:96,1,90,8|0
392,48,40090,2,0,B|328:40|296:96,1,90,2|0
310,75,40390,1,0
310,75,40490,1,8
264,152,40690,1,0
224,232,40890,5,2
136,232,41090,1,0
104,224,41190,1,0
80,200,41290,2,0,B|32:152|40:104,1,90,8|0
128,112,41690,1,0
128,112,41790,1,0
192,48,41990,1,0
192,48,42090,1,0
280,48,42290,2,0,B|336:48|392:104,1,90,0|2
440,128,42690,5,0
440,128,42790,1,0
440,128,42890,1,8
360,176,43090,1,0
328,184,43190,2,0,B|248:184|232:224,1,90
216,224,43490,1,0
176,304,43690,2,0,B|232:352,2,45,8|0|0
88,288,44090,5,0
80,272,44190,1,0
96,264,44290,1,0
88,248,44390,1,0
80,232,44490,1,0
96,216,44590,1,0
88,200,44690,1,0
88,184,44790,1,0
88,168,44890,2,0,B|88:64,2,90,2|0|4
200,304,45890,5,0
200,216,46090,1,0
280,256,46290,1,0
280,256,46390,1,0
280,256,46490,2,0,B|344:256|344:256|384:280|384:280|464:280,1,180,0|8
432,192,47090,1,0
432,192,47190,1,0
432,192,47290,1,2
352,152,47490,2,0,B|256:152,1,90,0|8
216,72,47890,1,0
216,72,47990,1,0
216,72,48090,2,0,B|336:72,2,90,2|0|8
160,144,48690,5,0
96,208,48890,1,2
96,208,49090,2,0,B|96:296,1,90,0|8
176,264,49490,1,0
176,264,49590,1,0
176,264,49690,2,0,B|176:368,2,90,2|0|8
248,208,50290,1,0
312,272,50490,2,0,B|448:272,1,135,6|0
392,144,51090,2,0,B|224:144,1,135,4|2
152,56,51690,5,8
152,232,51890,1,0
176,320,52090,2,0,B|232:320|280:256,1,90
248,192,52490,1,8
248,192,52690,2,0,B|312:200|360:240,1,90
408,272,53090,1,0
408,272,53190,1,0
408,272,53290,2,0,B|448:192|392:136|448:72,1,180,8|0
368,32,53890,1,0
328,40,53990,1,0
288,56,54090,2,0,B|96:56,1,180,8|2
120,168,54690,5,0
120,168,54890,1,8
296,168,55090,1,0
424,296,55290,2,0,B|352:296|352:296|328:336|328:336|232:336,1,180,2|8
176,336,55890,1,0
176,336,55990,1,0
176,336,56090,2,0,B|56:336,1,90,2|0
56,248,56490,2,0,B|160:248,1,90,8|0
232,256,56890,6,0,B|224:168|184:160|192:72,1,180
112,48,57490,2,0,B|176:32|248:32|320:80,1,180
312,152,58090,2,0,B|344:184|352:240,1,90,8|0
328,320,58490,2,0,B|384:344|440:288,1,90,2|0
456,232,58890,2,0,B|456:120,1,90,8|0
376,96,59290,2,0,B|376:208,2,90,0|8|8
256,296,59890,5,0
256,296,59990,1,0
256,296,60090,1,4
176,336,60290,1,0
176,336,60390,1,0
96,296,60590,1,0
176,248,60790,1,0
176,248,60890,1,2
176,160,61090,5,0
176,160,61190,1,0
176,160,61290,1,0
96,200,61490,2,0,B|96:104,1,90,0|2
256,200,61890,1,0
256,200,61990,1,0
176,248,62190,1,0
176,248,62290,1,0
256,296,62490,2,0,B|368:296,2,90,2|8|8
256,192,69690,5,4
392,72,69890,1,0
416,96,69990,1,0
432,128,70090,1,8
344,144,70290,1,0
344,144,70390,1,0
344,144,70490,5,8
288,72,70690,1,8
208,112,70890,1,0
208,112,70990,1,8
136,64,71190,1,8
136,64,71290,2,0,B|104:96|40:88,1,90,0|0
176,216,71890,5,0
240,280,72090,1,0
328,256,72290,2,0,B|400:176|328:56,1,180
264,48,72890,1,0
208,120,73090,1,0
208,120,73190,1,0
208,120,73290,1,0
160,48,73490,2,0,B|48:56,1,90
70,54,73790,1,0
32,136,73990,1,0
64,144,74090,2,0,B|128:152|176:120,1,90
208,208,74490,5,0
320,72,74690,1,0
472,176,74890,2,0,B|504:264|448:320|416:344,1,180
344,360,75490,6,0,B|288:360,2,45
312,272,75890,1,0
232,312,76090,1,2
232,312,76190,1,0
232,312,76290,2,0,B|168:320|136:280,1,90,0|8
112,280,76590,1,0
88,256,76690,1,0
152,184,76890,1,2
184,176,76990,1,0
200,152,77090,1,0
232,152,77190,1,0
264,136,77290,5,8
440,64,77490,1,0
400,192,77690,1,4
408,280,77890,5,0
408,280,77990,1,0
408,280,78090,2,0,B|320:312,1,90
240,336,78490,1,0
184,264,78690,1,0
144,344,78890,1,0
96,264,79090,1,0
72,232,79190,1,0
64,200,79290,2,0,B|56:152|72:96,1,90
144,152,79690,5,0
208,88,79890,1,0
208,88,79990,1,0
232,168,80190,1,0
232,168,80290,2,0,B|320:128,1,90
336,40,80690,1,0
408,96,80890,5,0
456,224,81090,1,0
320,200,81290,2,0,B|224:168,1,90
234,171,81590,1,0
234,171,81690,5,0
168,56,81990,1,0
40,88,82290,1,0
72,176,82490,2,0,B|192:208|232:232,1,135,2|0
200,216,82890,5,8
368,152,83090,1,0
336,328,83290,2,0,B|216:312|184:288,1,135,2|0
204,299,83690,1,8
128,240,83890,1,0
64,176,84090,6,0,B|48:128|64:80,1,90,6|0
144,128,84490,2,0,B|208:112|208:112|248:112,1,90,8|0
240,200,84890,1,2
312,144,85090,1,0
384,96,85290,1,8
416,176,85490,5,0
416,176,85590,1,0
416,176,85690,2,0,B|448:216|448:288,1,90,2|0
360,248,86090,2,0,B|360:304|416:344,1,90,8|0
446,259,86490,1,2
280,320,86690,1,0
312,144,86890,1,12
400,144,87090,5,4
400,176,87190,1,0
400,208,87290,1,2
400,296,87490,2,0,B|360:328|360:328|320:328,1,90,0|8
256,264,87890,1,0
256,264,87990,1,0
256,264,88090,2,0,B|200:264|200:264|144:288|144:288|72:288,1,180,2|8
40,208,88690,1,0
72,208,88790,1,0
104,208,88890,2,0,B|152:184|152:184|208:184,1,90,2|0
280,184,89290,6,0,B|336:208|344:248,2,90,8|0|2
208,128,89890,1,2
208,128,89990,1,8
208,128,90090,2,0,B|160:104|152:48,1,90,4|0
240,48,90490,2,0,B|288:48|288:48|288:96|288:96|336:96|336:96|336:160,1,180,2|8
288,208,91090,5,0
288,208,91190,1,0
288,208,91290,2,0,B|336:232|400:208,1,90,2|0
456,168,91690,1,8
456,256,91890,2,0,B|440:304|440:304|440:344,1,90,0|2
440,343,92290,1,0
352,344,92490,2,0,B|352:296|352:296|328:248,1,90,8|0
333,258,92790,1,0
333,258,92890,1,2
400,192,93090,5,0
400,192,93190,1,0
400,192,93290,1,12
312,168,93490,1,4
248,232,93690,2,0,B|184:280|80:264|72:208,1,180,2|8
80,144,94290,1,0
80,144,94390,1,0
80,144,94490,2,0,B|120:112|184:96|245:143,1,180,2|8
296,216,95090,1,0
296,216,95190,1,0
296,216,95290,2,0,B|320:288|392:272|432:344,1,180,2|8
488,272,95890,5,0
488,272,95990,1,0
488,272,96090,2,0,B|488:208|488:208|456:168|456:168|456:104,1,180,2|0
272,88,96890,5,2
184,64,97090,1,0
184,64,97190,1,0
184,64,97290,2,0,B|64:64,1,90,8|0
136,144,97690,1,2
224,168,97890,1,0
224,168,97990,1,0
224,168,98090,2,0,B|336:184,1,90,8|0
352,104,98490,5,2
440,96,98690,2,0,B|432:176|384:192,1,90,0|8
407,177,98990,1,0
440,264,99190,1,0
440,264,99290,1,2
376,328,99490,1,0
288,296,99690,1,8
288,296,99790,1,0
288,296,99890,1,0
232,224,100090,6,0,B|232:136,1,90,2|0
168,72,100490,1,8
104,136,100690,2,0,B|40:136,2,45,0|0|2
80,224,101090,2,0,B|88:272|168:296,1,90,0|8
139,285,101390,1,0
139,285,101490,1,0
224,328,101690,5,0
160,64,101990,1,0
408,168,102290,1,0
144,208,102590,1,0
368,64,102890,1,0
368,64,103090,5,0
280,48,103290,2,0,B|296:128|344:144,1,90,2|0
317,128,103590,1,0
317,128,103690,1,8
400,160,103890,2,0,B|400:248,1,90,0|2
344,320,104290,1,0
320,296,104390,1,0
296,272,104490,2,0,B|256:248|240:192,1,90,8|0
184,128,104890,5,2
184,128,105090,2,0,B|80:128,1,90,0|8
24,184,105490,1,0
48,208,105590,2,0,B|80:248|152:248,1,90
160,256,105890,1,0
240,208,106090,1,8
240,208,106290,1,0
320,248,106490,5,2
400,216,106690,1,0
424,192,106790,1,0
440,160,106890,2,0,B|480:64,1,90,8|0
384,88,107290,5,2
384,88,107390,1,0
384,88,107490,1,0
312,136,107690,2,0,B|288:224,1,90,8|0
240,304,108090,2,0,B|192:248|192:248|192:136,1,180,4|8
136,72,108690,2,0,B|136:16,2,45
88,144,109090,1,0
88,144,109290,2,0,B|72:248,1,90,8|0
128,304,109690,6,0,B|184:336|240:312,1,90,2|0
240,312,109990,1,0
264,304,110090,2,0,B|312:288|352:304,1,90,8|0
376,312,110390,1,0
400,320,110490,1,2
296,176,110690,5,8
296,176,110890,1,8
408,288,111290,6,0,B|336:288|336:288|256:256,1,135,2|0
277,263,111690,1,8
184,256,111890,1,0
136,176,112090,2,0,B|200:176|200:176|224:144|224:144|272:144,1,135,2|0
255,144,112490,1,8
344,144,112690,1,0
312,56,112890,2,0,B|144:56,1,135,2|0
177,56,113290,1,8
88,56,113490,1,0
56,144,113690,1,2
216,224,113890,5,8
216,224,114090,1,8
256,192,120890,12,0,124090
80,312,124490,5,2
160,352,124690,2,0,B|224:352|224:352|272:328|272:328|344:328,1,180
424,320,125290,2,0,B|416:272|368:248,1,90,2|0
288,224,125690,2,0,B|200:224,1,90
112,224,126090,1,2
48,160,126290,1,0
136,136,126490,2,0,B|288:136,2,135
48,160,127290,6,0,B|32:208|32:208|32:280,1,90
104,304,127690,2,0,B|208:304,2,90,2|0|0
32,247,128290,1,0
104,192,128490,2,0,B|168:192|168:192|216:216|216:216|288:216,1,180,2|0
368,216,129090,1,0
368,40,129290,1,2
192,40,129490,2,0,B|176:88|176:88|176:136,1,90
232,200,129890,2,0,B|192:232|136:208,2,90,0|2|0
264,112,130490,6,0,B|304:144|328:192|328:240|328:240|328:280,1,180,0|2
248,320,131090,1,0
176,272,131290,2,0,B|80:272,2,90,0|0|2
248,216,131890,1,0
320,272,132090,2,0,B|464:272,2,135
248,216,132890,2,0,B|112:216,2,135
280,216,133590,1,0
312,216,133690,1,0
376,152,133890,5,0
352,128,133990,1,0
328,112,134090,2,0,B|232:112,1,90
64,64,134690,5,0
72,88,134790,1,0
64,112,134890,1,8
72,136,134990,1,0
64,160,135090,1,0
72,184,135190,1,0
64,208,135290,2,0,B|56:256|56:256|56:304,1,90
136,344,135690,2,0,B|224:344,1,90
400,288,136290,5,0
408,264,136390,1,0
400,240,136490,1,8
408,224,136590,1,0
400,200,136690,1,0
408,176,136790,1,0
400,152,136890,2,0,B|400:104|400:104|416:48,1,90
320,48,137290,2,0,B|272:64|272:64|208:64,1,90
56,112,137890,5,0
80,120,137990,1,0
88,144,138090,1,8
112,144,138190,1,0
120,168,138290,1,0
144,168,138390,1,0
152,192,138490,2,0,B|200:224|200:224|264:232,1,90
296,296,138890,2,0,B|336:280|336:216,2,90
216,336,139490,5,0
192,328,139590,1,0
176,312,139690,1,8
168,296,139790,1,0
160,272,139890,1,0
152,248,139990,1,0
152,224,140090,2,0,B|152:112,1,90
232,96,140490,2,0,B|232:208,1,90
376,288,141090,5,0
384,264,141190,1,0
376,240,141290,1,8
384,216,141390,1,0
376,192,141490,2,0,B|368:152|384:136,2,45
256,264,141890,5,0
144,128,142090,1,0
320,112,142290,1,0
96,88,142690,5,0
88,112,142790,1,0
96,128,142890,1,8
88,152,142990,1,0
96,176,143090,2,0,B|104:208|88:224,2,45
176,128,143490,5,0
280,272,143690,1,0
384,128,143890,1,0
160,296,144290,5,0
160,272,144390,1,0
160,248,144490,1,8
160,224,144590,1,0
160,200,144690,1,0
160,176,144790,1,0
160,152,144890,2,0,B|160:64,1,90
248,32,145290,2,0,B|248:160,1,90
248,304,145890,5,0
272,296,145990,1,0
296,304,146090,1,8
320,296,146190,1,0
344,304,146290,1,8
368,296,146390,1,0
392,304,146490,1,12
432,224,146690,5,0
241,33,147090,1,0
241,302,147490,1,0
431,111,147890,1,0
352,160,148090,5,2
272,200,148290,1,0
272,200,148390,1,0
272,200,148490,1,8
272,112,148690,1,0
192,64,148890,2,0,B|104:64,1,90
24,112,149290,2,0,B|72:168|120:136,1,90,8|0
192,152,149690,5,2
192,240,149890,1,0
192,240,149990,1,0
192,240,150090,2,0,B|192:304|240:336,1,90,8|0
288,256,150490,1,0
288,256,150590,1,0
344,184,150790,1,0
344,184,150890,2,0,B|408:80,1,90,8|0
448,176,151290,5,0
448,176,151390,1,0
448,176,151490,1,0
384,239,151690,2,0,B|384:295,2,45
360,152,152090,1,0
336,128,152190,1,0
304,112,152290,1,0
280,88,152390,1,0
248,80,152490,5,0
72,48,152690,1,0
88,136,152890,5,6
112,272,153190,1,0
216,184,153490,1,0
216,184,153590,1,0
216,184,153690,2,0,B|216:96,1,90,2|0
304,64,154090,2,0,B|304:160,1,90
288,224,154490,5,2
383,335,154790,1,0
383,200,155090,1,0
319,136,155290,1,2
319,136,155390,1,0
232,168,155590,1,0
232,168,155690,2,0,B|144:224,1,90
176,304,156090,6,0,B|112:304|112:304|48:272,2,135,2|0|0
248,248,156890,2,0,B|312:248|312:248|375:279,2,135,2|0|0
176,192,157690,5,0
176,192,157790,1,0
104,136,157990,1,0
104,136,158090,1,8
184,104,158290,1,0
272,104,158490,1,0
304,112,158590,1,0
336,136,158690,1,0
368,144,158790,1,0
392,168,158890,2,0,B|432:204|464:248,1,90,8|6
400,312,159490,5,0
376,320,159590,1,0
352,328,159690,2,0,B|280:344|232:320|152:352,1,180,0|2
96,304,160290,1,0
96,304,160390,1,0
96,304,160490,1,0
48,224,160690,2,0,B|40:192|40:192|40:128,1,90,0|2
96,64,161090,1,0
120,64,161190,1,0
144,64,161290,1,0
168,152,161490,6,0,B|224:152,2,45,0|0|8
128,232,161890,2,0,B|184:256|224:224,1,90,0|12
288,176,162290,1,4
352,240,162490,2,8,B|392:312|464:336,2,135,8|8|4
288,176,163290,2,0,B|264:120|208:88,2,90,8|0|8
224,240,163890,1,8
224,240,164090,2,0,B|184:312|112:336,2,135,8|8|4
288,176,164890,2,0,B|312:120|368:88,2,90,0|8|8
224,240,165490,1,0
144,288,165690,1,4
96,112,166090,6,0,B|192:72,1,90
179,77,166390,1,0
179,77,166490,1,2
264,112,166690,2,0,B|368:112,2,90,0|8|0
192,168,167290,2,0,B|144:224|40:224,2,135,2|0|0
280,168,168090,5,2
440,80,168290,1,0
440,256,168490,1,8
280,336,168890,5,2
280,176,169190,1,0
280,176,169290,1,8
280,256,169490,1,0
200,216,169690,5,2
200,376,169990,1,0
200,376,170090,1,8
200,296,170290,1,0
120,336,170490,5,2
120,176,170790,1,0
120,176,170890,1,8
120,256,171090,1,0
40,216,171290,6,0,B|40:120|40:120|80:72,1,135
88,80,171690,2,0,B|200:48,1,90,8|0
264,56,172090,1,4
256,192,172290,12,4,173690
256,192,173790,12,4,175090
408,56,184090,6,0,B|408:240,1,180
248,320,184890,1,2
88,232,185290,1,0
160,64,185690,1,2
320,144,186090,1,0
248,320,186490,2,0,B|184:320|184:320|136:336|136:336|56:336,1,180,2|0
48,248,187090,1,0
136,240,187290,1,2
224,224,187490,2,0,B|272:216|272:216|336:216,2,90
136,240,188090,6,0,B|152:168|112:120|152:24,1,180,2|0
320,96,188890,2,0,B|304:168|344:216|304:312,1,180,2|0
144,328,189690,2,0,B|200:344|200:344|288:344,2,135,2|2|8
64,224,190590,1,4
200,224,190890,5,8
288,224,191090,1,0
360,168,191290,2,0,B|360:64,1,90,2|0
360,78,191590,1,0
360,78,191690,1,8
280,120,191890,1,0
200,80,192090,2,0,B|112:80|112:80|80:112,1,135,2|0
78,113,192490,1,8
152,160,192690,5,0
64,192,192890,2,0,B|64:280|64:280|112:320,1,135,2|0
152,240,193690,1,2
152,240,193790,1,0
240,240,193990,1,0
240,240,194090,5,8
367,112,194290,1,0
367,292,194490,1,2
192,344,194690,1,0
72,216,194890,1,0
176,72,195090,1,0
264,72,195290,6,0,B|392:72|416:104,2,135,2|0|8
256,192,196090,12,0,197690
320,224,197890,5,0
264,296,198090,1,2
208,224,198290,1,0
168,304,198490,2,0,B|72:304,1,90,8|0
40,224,198890,2,0,B|112:224|112:224|232:224,1,180,8|4
264,296,199490,5,2
320,224,199690,1,0
376,296,199890,1,2
424,216,200090,2,0,B|424:120,1,90,8|0
344,80,200490,2,0,B|344:280,1,180,8|0
344,288,200990,1,0
344,312,201090,1,2
256,344,201290,5,0
168,312,201490,1,2
144,304,201590,1,0
120,296,201690,1,0
40,256,201890,2,0,B|56:208|120:192,1,90,0|8
120,184,202190,1,0
144,176,202290,1,8
168,168,202390,1,0
192,168,202490,1,8
256,192,202690,12,0,204090
