osu file format v13

[General]
AudioFilename: a.mp3
AudioLeadIn: 0
PreviewTime: 605
Countdown: 1
SampleSet: Soft
StackLeniency: 0.7
Mode: 0
LetterboxInBreaks: 1
WidescreenStoryboard: 0

[Editor]
DistanceSpacing: 1
BeatDivisor: 4
GridSize: 8
TimelineZoom: 1

[Metadata]
Title:Bishoujo Meikyuu
TitleUnicode:美少女迷宮
Artist:Munyo, Akiyama Hirokazu
ArtistUnicode:むにょっ、秋山裕和
Creator:[Seraphin]
Version:Hard
Source:美少女万華鏡
Tags:bishojo mangekyou eroge bgm ωstar omega munyot sounds h/mix gallery
BeatmapID:569982
BeatmapSetID:247640

[Difficulty]
HPDrainRate:7
CircleSize:5
OverallDifficulty:7
ApproachRate:8
SliderMultiplier:0.8
SliderTickRate:1

[Events]
//Background and Video events
0,0,"bg.jpg",0,0
//Break Periods
2,68246,69909
//Storyboard Layer 0 (Background)
//Storyboard Layer 1 (Fail)
//Storyboard Layer 2 (Pass)
//Storyboard Layer 3 (Foreground)
//Storyboard Sound Samples

[TimingPoints]
605,322.58064516129,4,2,1,70,1,0
1895,337.078651685393,4,2,1,70,1,0
53468,-100,4,2,1,5,0,0
54479,-100,4,2,1,30,0,0
54816,-100,4,2,1,40,0,0
55153,-100,4,2,1,50,0,0
55490,-100,4,2,1,60,0,0
55827,-100,4,2,1,70,0,0
68046,-100,4,2,1,5,0,0
70659,-100,4,3,0,80,0,0
70743,-100,4,3,0,75,0,0
70827,-100,4,3,0,70,0,0
70911,-100,4,3,0,65,0,0
70996,-100,4,3,0,60,0,0
71080,-100,4,3,0,55,0,0
71164,-100,4,3,0,50,0,0
71248,-100,4,3,0,45,0,0
71333,-100,4,3,0,40,0,0
71417,-100,4,3,0,35,0,0
71501,-100,4,3,0,30,0,0
71586,-100,4,3,0,25,0,0
71670,-100,4,3,0,20,0,0
71754,-100,4,3,0,15,0,0
71838,-100,4,3,0,10,0,0
72007,-100,4,3,0,5,0,0

[HitObjects]
64,112,605,5,0,0:0:0:0:
128,160,887,1,0,0:0:0:0:
208,176,1209,1,0,0:0:0:0:
288,168,1532,1,0,0:0:0:0:
354,124,1895,5,0,0:0:0:0:
320,200,2232,1,0,0:0:0:0:
304,280,2569,1,0,0:0:0:0:
328,360,2906,1,0,0:0:0:0:
256,328,3243,5,0,0:0:0:0:
216,256,3580,1,0,0:0:0:0:
208,176,3917,1,0,0:0:0:0:
216,96,4254,1,0,0:0:0:0:
280,144,4591,5,0,0:0:0:0:
208,176,4928,1,0,0:0:0:0:
128,160,5265,1,0,0:0:0:0:
64,120,5602,1,0,0:0:0:0:
160,48,5939,5,2,0:0:0:0:
168,168,6277,1,0,0:0:0:0:
248,256,6614,1,2,0:0:0:0:
240,136,6951,1,0,0:0:0:0:
344,200,7288,5,2,0:0:0:0:
352,320,7625,1,0,0:0:0:0:
408,216,7962,1,2,0:0:0:0:
416,336,8299,1,2,0:0:0:0:
472,232,8636,5,2,0:0:0:0:
440,120,8973,1,0,0:0:0:0:
320,120,9310,1,2,0:0:0:0:
352,232,9647,1,0,0:0:0:0:
296,336,9984,5,2,0:0:0:0:
176,336,10321,1,0,0:0:0:0:
176,216,10659,1,2,0:0:0:0:
296,216,10996,1,0,0:0:0:0:
376,128,11333,5,2,0:0:0:0:
264,168,11670,1,0,0:0:0:0:
168,240,12007,1,2,0:0:0:0:
120,352,12344,1,0,0:0:0:0:
56,248,12681,5,2,0:0:0:0:
168,296,13018,1,0,0:0:0:0:
288,312,13355,1,2,0:0:0:0:
408,288,13692,1,0,0:0:0:0:
504,224,14029,6,0,P|472:176|184:216,1,320,2|2,0:0|0:0,0:0:0:0:
136,224,15715,1,0,0:0:0:0:
72,328,16052,1,2,0:0:0:0:
40,168,16389,1,0,0:0:0:0:
272,216,16726,5,2,0:0:0:0:
352,128,17063,1,0,0:0:0:0:
400,16,17400,1,2,0:0:0:0:
408,136,17737,1,0,0:0:0:0:
440,248,18074,5,2,0:0:0:0:
328,288,18411,1,0,0:0:0:0:
224,344,18748,1,2,0:0:0:0:
120,288,19086,1,2,0:0:0:0:
8,248,19423,5,2,0:0:0:0:
88,160,19760,1,0,0:0:0:0:
42,329,20097,1,2,0:0:0:0:
87,219,20434,1,0,0:0:0:0:
208,232,20771,5,2,0:0:0:0:
320,264,21108,1,0,0:0:0:0:
144,280,21445,1,2,0:0:0:0:
264,288,21782,1,0,0:0:0:0:
208,184,22119,5,2,0:0:0:0:
228,65,22456,1,0,0:0:0:0:
347,86,22793,1,2,0:0:0:0:
326,204,23130,1,0,0:0:0:0:
186,180,23468,5,2,0:0:0:0:
165,298,23805,1,0,0:0:0:0:
284,319,24142,1,2,0:0:0:0:
304,200,24479,1,0,0:0:0:0:
144,192,24816,2,0,L|240:160,1,80,2|0,0:0|0:0,0:0:0:0:
104,272,25490,2,0,L|200:240,1,80,2|0,0:0|0:0,0:0:0:0:
64,352,26164,2,0,L|160:320,1,80,2|0,0:0|0:0,0:0:0:0:
280,248,26838,1,2,0:0:0:0:
416,336,27175,1,0,0:0:0:0:
376,184,27512,5,2,0:0:0:0:
280,112,27850,1,0,0:0:0:0:
160,96,28187,1,2,0:0:0:0:
40,112,28524,1,0,0:0:0:0:
120,208,28861,5,2,0:0:0:0:
200,120,29198,1,0,0:0:0:0:
304,64,29535,1,2,0:0:0:0:
424,48,29872,1,0,0:0:0:0:
376,160,30209,5,2,0:0:0:0:
288,80,30546,1,0,0:0:0:0:
168,72,30883,1,2,0:0:0:0:
56,104,31220,1,0,0:0:0:0:
144,192,31557,5,2,0:0:0:0:
256,224,31894,1,0,0:0:0:0:
368,192,32232,1,2,0:0:0:0:
256,72,32569,1,2,0:0:0:0:
144,192,32906,5,2,0:0:0:0:
264,216,33243,1,0,0:0:0:0:
376,264,33580,1,2,0:0:0:0:
472,336,33917,1,0,0:0:0:0:
352,336,34254,5,2,0:0:0:0:
368,216,34591,1,0,0:0:0:0:
344,96,34928,1,2,0:0:0:0:
272,0,35265,1,0,0:0:0:0:
224,112,35602,5,2,0:0:0:0:
344,96,35939,1,0,0:0:0:0:
416,192,36277,1,2,0:0:0:0:
384,304,36614,1,0,0:0:0:0:
264,304,36951,5,2,0:0:0:0:
328,200,37288,1,0,0:0:0:0:
368,88,37625,1,0,0:0:0:0:
464,160,37962,1,0,0:0:0:0:
424,272,38299,5,2,0:0:0:0:
328,200,38636,1,0,0:0:0:0:
216,160,38973,1,2,0:0:0:0:
96,152,39310,1,0,0:0:0:0:
152,256,39647,5,2,0:0:0:0:
216,160,39984,1,0,0:0:0:0:
320,96,40321,1,2,0:0:0:0:
440,80,40659,1,0,0:0:0:0:
392,192,40996,5,2,0:0:0:0:
280,224,41333,1,0,0:0:0:0:
160,232,41670,1,2,0:0:0:0:
40,208,42007,1,0,0:0:0:0:
72,96,42344,5,2,0:0:0:0:
192,112,42681,1,0,0:0:0:0:
160,232,43018,1,2,0:0:0:0:
40,312,43355,1,2,0:0:0:0:
184,352,43692,5,2,0:0:0:0:
296,304,44029,1,0,0:0:0:0:
376,208,44366,1,2,0:0:0:0:
400,88,44703,1,0,0:0:0:0:
288,128,45041,5,2,0:0:0:0:
376,208,45378,1,0,0:0:0:0:
288,288,45715,1,2,0:0:0:0:
200,208,46052,1,0,0:0:0:0:
112,128,46389,5,2,0:0:0:0:
96,248,46726,1,0,0:0:0:0:
160,344,47063,1,0,0:0:0:0:
280,352,47400,1,0,0:0:0:0:
392,304,47737,5,0,0:0:0:0:
416,184,48074,1,0,0:0:0:0:
392,64,48411,1,0,0:0:0:0:
288,8,48748,1,0,0:0:0:0:
168,8,49086,5,2,0:0:0:0:
144,152,49423,1,0,0:0:0:0:
248,256,49760,1,0,0:0:0:0:
392,264,50097,1,2,0:0:0:0:
392,264,50434,1,2,0:0:0:0:
80,344,51108,1,2,0:0:0:0:
168,32,51782,5,2,0:0:0:0:
480,120,52456,1,2,0:0:0:0:
248,344,53130,2,0,B|192:360|96:344|96:344|136:320|232:336,1,240,2|0,0:0|0:0,0:0:0:0:
336,280,54479,1,0,0:0:0:0:
464,184,54816,1,0,0:0:0:0:
464,24,55153,1,0,0:0:0:0:
336,120,55490,1,2,0:0:0:0:
176,112,55827,5,2,0:0:0:0:
192,192,56501,1,2,0:0:0:0:
240,256,57175,1,2,0:0:0:0:
432,64,59198,5,2,0:0:0:0:
416,224,59872,1,0,0:0:0:0:
352,176,60209,1,0,0:0:0:0:
272,152,60546,1,0,0:0:0:0:
192,160,60883,1,2,0:0:0:0:
120,192,61220,1,2,0:0:0:0:
272,152,61894,5,2,0:0:0:0:
416,224,62569,5,2,0:0:0:0:
336,232,62906,1,0,0:0:0:0:
256,224,63243,1,0,0:0:0:0:
184,192,63580,1,0,0:0:0:0:
144,128,63917,1,2,0:0:0:0:
384,88,64591,5,2,0:0:0:0:
288,304,65265,5,2,0:0:0:0:
208,320,65602,1,0,0:0:0:0:
128,304,65939,1,0,0:0:0:0:
64,256,66277,1,0,0:0:0:0:
48,176,66614,1,2,0:0:0:0:
128,304,67288,5,2,0:0:0:0:
288,304,67962,6,0,L|312:304,1,20,2|0,0:0|0:0,0:0:0:0:
256,192,70659,12,0,72007,0:0:0:0:
