osu file format v10

[General]
AudioFilename: 1 - iv-Undetermined.mp3
AudioLeadIn: 2000
PreviewTime: 54642
Countdown: 0
SampleSet: Soft
StackLeniency: 0.7
Mode: 0
LetterboxInBreaks: 0

[Editor]
Bookmarks: 52928,87557
DistanceSpacing: 1.3
BeatDivisor: 4
GridSize: 4

[Metadata]
Title:Panorama chime (Short Ver.)
TitleUnicode:Panorama chime (Short Ver.)
Artist:Mu
ArtistUnicode:Mu
Creator:cRyo[iceeicee]
Version:Insane
Source:Shukufuku no Kane no Oto wa, Sakura-iro no Kaze to Tomo ni
Tags:Studio Ryokucha kayesara opening eroge
BeatmapID:185590
BeatmapSetID:62567

[Difficulty]
HPDrainRate:7
CircleSize:4
OverallDifficulty:7
ApproachRate:9
SliderMultiplier:1.8
SliderTickRate:1

[Events]
//Background and Video events
0,0,"BG1.jpg"
//Break Periods
2,16586,19740
//Storyboard Layer 0 (Background)
//Storyboard Layer 1 (Fail)
//Storyboard Layer 2 (Pass)
//Storyboard Layer 3 (Foreground)
//Storyboard Sound Samples
//Background Colour Transformations
3,100,163,162,255

[TimingPoints]
386,500,4,2,0,35,1,0
386,-117.647058823529,4,2,1,25,0,0
12761,-117.647058823529,4,2,1,5,0,0
13011,-117.647058823529,4,2,1,20,0,0
13761,-117.647058823529,4,2,1,5,0,0
16386,-117.647058823529,4,3,1,55,0,0
16511,-117.647058823529,4,2,1,25,0,0
20340,342.857142857143,4,2,0,35,1,0
20940,-100,4,1,2,45,0,0
26854,-100,4,3,2,50,0,0
27197,-100,4,1,2,45,0,0
32168,-100,4,2,2,25,0,0
32268,-100,4,1,2,45,0,0
32511,-100,4,2,2,25,0,0
32611,-100,4,1,2,45,0,0
32854,-100,4,2,2,40,0,0
34397,-100,4,2,2,45,0,0
34740,-100,4,2,2,55,0,0
35082,-100,4,1,2,50,0,0
35254,-100,4,2,2,20,0,0
35425,-100,4,1,2,55,0,0
35597,-100,4,1,2,50,0,0
37997,-100,4,2,2,40,0,0
38097,-100,4,1,2,50,0,0
38511,-100,4,2,2,40,0,0
40225,-100,4,2,2,45,0,0
40568,-100,4,1,2,55,0,0
41082,-100,4,1,2,50,0,0
42797,-100,4,3,2,40,0,0
42897,-100,4,1,2,50,0,0
43311,-133.333333333333,4,3,2,50,0,0
43654,-133.333333333333,4,2,1,55,0,0
43740,-133.333333333333,4,2,1,40,0,0
44168,-133.333333333333,4,3,2,55,0,0
44268,-133.333333333333,4,2,1,40,0,0
44854,-133.333333333333,4,3,2,55,0,0
45282,-133.333333333333,4,2,1,40,0,0
45882,-133.333333333333,4,3,2,55,0,0
45982,-133.333333333333,4,2,1,45,0,0
46311,-133.333333333333,4,2,1,55,0,0
46911,-133.333333333333,4,1,2,55,0,0
47011,-133.333333333333,4,2,1,55,0,0
47940,-133.333333333333,4,3,2,55,0,0
48040,-133.333333333333,4,2,1,55,0,0
48282,-133.333333333333,4,3,2,55,0,0
48454,-100,4,1,1,55,0,0
48540,-100,4,3,2,45,0,0
49140,-100,4,3,2,40,0,0
49311,-100,4,1,1,40,0,0
50854,-100,4,1,1,45,0,0
51368,-100,4,2,1,45,0,0
51540,-100,4,1,1,55,0,0
51640,-100,4,1,1,45,0,0
51882,-100,4,1,2,45,0,0
54625,-100,4,1,2,45,0,1
54882,-100,4,1,2,55,0,1
55054,-100,4,2,2,55,0,1
55225,-100,4,1,2,60,0,1
55568,-100,4,1,2,55,0,1
55740,-100,4,2,2,65,0,1
56168,-100,4,1,2,55,0,1
56425,-100,4,2,2,55,0,1
56682,-100,4,1,2,60,0,1
56940,-100,4,1,2,55,0,1
57111,-100,4,2,2,55,0,1
57368,-100,4,1,2,55,0,1
57811,-100,4,2,2,55,0,1
58054,-100,4,1,2,60,0,1
58311,-100,4,1,2,55,0,1
58482,-100,4,2,2,65,0,1
59082,-100,4,1,2,55,0,1
59340,-100,4,1,2,60,0,1
59511,-100,4,2,2,55,0,1
59768,-100,4,1,2,60,0,1
59868,-100,4,2,2,55,0,1
60111,-100,4,1,2,55,0,1
60211,-100,4,2,2,55,0,1
60454,-100,4,1,2,55,0,1
60554,-100,4,2,2,55,0,1
60797,-100,4,1,2,65,0,1
60897,-100,4,2,2,55,0,1
61140,-100,4,1,2,55,0,1
61240,-100,4,2,2,55,0,1
61482,-100,4,1,2,55,0,1
61582,-100,4,2,2,55,0,1
61997,-100,4,1,2,65,0,1
62854,-100,4,1,2,55,0,1
64397,-100,4,1,2,45,0,1
65254,-142.857142857143,4,2,2,34,0,0
65597,-100,4,1,2,55,0,1
65768,-100,4,2,2,55,0,1
65854,-100,4,1,2,55,0,1
66025,-100,4,2,2,55,0,1
66282,-100,4,1,2,60,0,1
66540,-100,4,1,2,55,0,1
66711,-100,4,2,2,55,0,1
67311,-100,4,1,2,55,0,1
67411,-100,4,2,2,55,0,1
67654,-100,4,1,2,60,0,1
67911,-100,4,1,2,55,0,1
68082,-100,4,1,2,60,0,1
68254,-100,4,1,2,55,0,1
68425,-100,4,2,2,55,0,1
68682,-100,4,1,2,55,0,1
68782,-100,4,2,2,55,0,1
68940,-100,4,1,2,60,0,1
69282,-100,4,1,2,55,0,1
69454,-100,4,2,2,60,0,1
69711,-100,4,2,2,55,0,1
70054,-100,4,2,2,60,0,1
70225,-100,4,1,2,60,0,1
70568,-100,4,3,2,50,0,1
71082,-100,4,1,2,50,0,1
72797,-100,4,1,2,50,0,0
73825,-100,4,1,2,50,0,1
76054,-100,4,3,2,50,0,1
76568,-100,4,1,2,45,0,0
81711,-100,4,3,2,50,0,0
82054,-100,4,1,2,45,0,0
87540,-100,4,3,2,50,0,0
87882,-100,4,1,2,60,0,0

[Colours]
Combo1 : 159,64,255
Combo2 : 100,255,255
Combo3 : 255,102,179

[HitObjects]
60,80,386,1,8,0:0:0
48,188,886,1,2,0:0:0
116,268,1386,2,0,B|155:307|225:288|239:234,1,153.000002918243,2|8,0:0|0:0,0:0:0
254,101,2136,6,0,B|200:87|149:138|164:192,1,153.000002918243,2|8,0:0|0:0,0:0:0
257,282,2886,2,0,B|311:296|362:245|348:192,2,153.000002918243,2|8|2,0:0|0:0|0:0,0:0:0
256,192,4386,1,8,0:0:0
256,192,4886,6,0,B|212:184|168:188,1,76.5000014591217,2|0,0:0|0:0,0:0:0
60,208,5386,1,2,0:0:0
184,340,5636,1,2,0:0:0
184,340,6136,6,0,B|256:384|328:340,1,153.000002918243,2|8,0:0|0:0,0:0:0
328,212,6886,2,0,B|256:168|184:212,1,153.000002918243,2|8,0:0|0:0,0:0:0
256,280,7636,5,2,0:0:0
348,320,7886,1,0,0:0:0
432,264,8136,2,0,B|444:228|437:187,1,76.5000014591217,2|8,0:0|0:0,0:0:0
384,104,8636,1,0,0:0:0
288,128,8886,2,0,B|247:134|211:122,1,76.5000014591217,8|0,0:0|0:0,0:0:0
120,80,9386,6,0,B|64:116|76:192,2,114.750002188683,2|8|0,0:0|0:0|0:0,0:0:0
172,164,10386,2,0,B|211:203|192:273|138:287,1,153.000002918243,2|8,0:0|0:0,0:0:0
80,208,11136,1,0,0:0:0
172,164,11386,2,0,B|224:128|208:40,2,114.750002188683,2|8|0,0:0|0:0|0:0,0:0:0
80,208,12386,2,0,B|-7:273|26:369|116:397|187:315,1,306.000005836487,10|8,0:0|0:0,0:0:0
256,192,13761,12,8,16386,0:0:0
368,80,20340,5,4,0:0:0
144,80,20682,1,4,0:0:0
60,240,21025,6,0,B|100:220|168:224,1,90
188,232,21282,1,0,0:0:0
224,248,21368,1,0,0:0:0
264,256,21454,1,0,0:0:0
304,256,21540,1,0,0:0:0
344,248,21625,1,0,0:0:0
380,228,21711,6,0,B|428:232|476:220,1,90,12|0,0:0|0:0,0:0:0
336,120,22054,2,0,B|294:130|246:126,1,90,10|0,0:0|0:0,0:0:0
72,144,22397,1,10,0:0:0
152,216,22568,1,2,0:0:0
72,144,22740,1,8,0:0:0
92,300,22911,2,2,B|137:345|222:323|238:262,1,180,6|0,0:0|0:0,0:0:0
256,156,23425,1,8,0:0:0
344,92,23597,5,2,0:0:0
344,92,23682,1,0,0:0:0
344,92,23768,2,2,B|392:96|436:84,1,90,8|2,0:0|0:0,0:0:0
392,260,24111,2,2,B|350:248|302:252,1,90,8|2,0:0|0:0,0:0:0
152,216,24454,2,0,B|152:160|144:120,1,90,2|0,0:0|0:0,0:0:0
256,292,24797,1,6,0:0:0
256,292,25140,5,2,0:0:0
360,324,25311,1,2,0:0:0
452,264,25482,1,8,0:0:0
424,92,25654,1,6,0:0:0
424,92,25997,5,0,0:0:0
364,180,26168,1,8,0:0:0
256,196,26340,1,8,0:0:0
148,180,26511,1,0,0:0:0
88,92,26682,1,8,0:0:0
256,58,26854,1,8,0:0:0
256,70,26940,1,8,0:0:0
256,82,27025,1,8,0:0:0
256,94,27111,1,8,0:0:0
256,106,27197,6,0,B|256:210,1,90,12|0,0:0|0:0,0:0:0
316,296,27540,2,0,B|364:292|408:292,1,90,10|0,0:0|0:0,0:0:0
464,204,27882,1,10,0:0:0
339,151,28054,1,2,0:0:0
436,56,28225,1,8,0:0:0
339,151,28397,2,2,B|235:175|167:119,1,180,6|0,0:0|0:0,0:0:0
168,120,28911,1,8,0:0:0
76,184,29082,5,2,0:0:0
76,184,29168,1,0,0:0:0
76,184,29254,1,10,0:0:0
152,268,29425,1,0,0:0:0
4,272,29597,1,10,0:0:0
32,84,29768,1,0,0:0:0
168,120,29940,5,2,0:0:0
256,108,30111,1,2,0:0:0
344,96,30282,1,2,0:0:0
432,80,30454,1,2,0:0:0
432,80,30797,5,2,0:0:0
344,96,31140,1,2,0:0:0
256,108,31482,1,2,0:0:0
256,108,31825,5,2,0:0:0
160,216,31997,2,0,B|164:272|160:305,1,90,6|0,0:0|0:0,0:0:0
352,168,32340,2,0,B|348:112|351:78,1,90,6|0,0:0|0:0,0:0:0
256,264,32682,1,4,0:0:0
256,264,33025,5,8,0:0:0
160,216,33197,1,0,0:0:0
52,212,33368,2,0,B|40:256|40:300,2,90,8|8|0,0:0|0:0|0:0,0:0:0
112,124,33882,2,0,B|200:128|292:104,1,180,8|0,0:0|0:0,0:0:0
448,48,34397,2,0,B|400:56|352:40,1,90,8|0,0:0|0:0,0:0:0
304,192,34740,2,0,B|348:180|392:186,1,90,8|0,0:0|0:0,0:0:0
208,144,35082,2,0,B|200:100|184:57,1,90,4|0,0:0|0:0,0:0:0
88,296,35425,6,0,B|133:341|218:319|234:258,1,180,4|8,0:0|0:0,0:0:0
208,144,35939,1,0,0:0:0
304,264,36111,1,0,0:0:0
156,244,36282,1,0,0:0:0
320,144,36454,1,8,0:0:0
128,68,36625,5,2,0:0:0
384,68,36968,1,2,0:0:0
96,164,37311,1,2,0:0:0
256,276,37654,1,2,0:0:0
340,208,37825,2,0,B|388:196|436:192,1,90,10|0,0:0|0:0,0:0:0
200,132,38168,1,4,0:0:0
200,132,38511,5,8,0:0:0
96,164,38682,1,0,0:0:0
120,60,38854,1,8,0:0:0
200,132,39025,2,0,B|205:180|208:240,1,90,8|0,0:0|0:0,0:0:0
216,328,39368,2,0,B|261:373|346:351|362:290,1,180,8|0,0:0|0:0,0:0:0
432,200,39882,2,0,B|430:158|424:110,1,90,8|0,0:0|0:0,0:0:0
296,56,40225,5,8,0:0:0
256,192,40568,1,8,0:0:0
216,328,40911,2,0,B|171:373|86:351|70:290,1,180,4|8,0:0|0:0,0:0:0
116,172,41425,5,0,0:0:0
192,248,41597,1,0,0:0:0
164,80,41768,1,0,0:0:0
32,188,41939,1,8,0:0:0
256,156,42111,5,2,0:0:0
424,264,42454,1,2,0:0:0
424,264,42625,2,0,B|428:220|436:172,1,90,2|0,0:0|0:0,0:0:0
396,56,42968,1,2,0:0:0
396,56,43139,1,2,0:0:0
272,84,43311,1,8,0:0:0
252,92,43397,1,8,0:0:0
232,100,43482,1,8,0:0:0
212,108,43568,1,8,0:0:0
192,116,43654,6,0,B|48:104,1,135.000005149842,4|8,0:0|0:0,0:0:0
20,200,44168,1,0,0:0:0
56,296,44339,2,0,B|124:324|180:272,1,135.000005149842,0|8,1:0|0:0,0:0:0
256,156,44854,1,0,0:0:0
256,156,45197,5,0,0:0:0
332,224,45368,2,0,B|336:300,1,67.5000025749208,8|0,2:0|1:0,0:0:0
164,196,45711,2,0,B|160:128,1,67.5000025749208,0|0,1:0|0:0,0:0:0
304,80,46054,1,8,0:0:0
304,80,46397,6,0,B|347:101|361:155|335:195,1,135.000005149842,4|0,2:0|0:0,0:0:0
224,300,46911,1,0,0:0:0
49,228,47082,2,0,B|70:184|124:170|164:196,1,135.000005149842,4|0,2:0|0:0,0:0:0
296,264,47597,2,0,B|360:244|432:248,1,135.000005149842,4|0,2:0|0:0,0:0:0
416,144,48111,2,0,B|384:152|332:152,1,67.5000025749208,2|0,0:0|0:0,0:0:0
232,164,48454,1,0,0:0:0
132,100,48625,5,8,0:0:0
96,108,48711,1,8,0:0:0
68,128,48797,1,8,0:0:0
52,160,48882,1,8,0:0:0
48,196,48968,1,8,0:0:0
52,232,49054,1,8,0:0:0
72,260,49139,1,12,0:0:0
216,320,49482,5,2,0:0:0
328,280,49654,1,0,0:0:0
408,196,49825,1,2,0:0:0
424,80,49997,1,2,0:0:0
424,80,50339,5,4,0:0:0
408,196,50682,1,4,0:0:0
328,280,51025,5,0,0:0:0
212,248,51197,2,0,B|168:244|122:250,1,90
300,136,51539,2,0,B|344:140|389:133,1,90,4|0,0:0|0:0,0:0:0
328,280,51882,5,12,0:0:0
328,280,52054,1,0,0:0:0
204,124,52225,1,8,0:0:0
204,124,52397,1,0,0:0:0
72,232,52568,2,0,B|56:276,1,45,2|0,0:0|0:0,0:0:0
148,340,52739,2,0,B|140:296,1,45,2|0,0:0|0:0,0:0:0
179,217,52911,2,0,B|212:248,1,45,2|0,0:0|0:0,0:0:0
284,288,53082,6,0,B|336:236|412:264,1,135,2|0,0:0|0:0,0:0:0
456,264,53425,2,0,B|440:176,1,90,10|2,0:0|0:0,0:0:0
292,49,53768,1,2,0:0:0
292,49,54111,6,0,B|248:57,1,45,0|0,0:0|0:0,0:0:0
256,128,54282,2,0,B|212:136,1,45,0|0,0:0|0:0,0:0:0
224,209,54454,2,0,B|180:217,1,45,0|0,0:0|0:0,0:0:0
104,228,54625,2,0,B|64:217|9:212,1,90,4|0,0:0|0:0,0:0:0
108,80,54968,5,8,0:0:0
212,112,55139,1,0,0:0:0
320,124,55311,2,0,B|364:116|416:108,1,90
420,272,55654,1,8,0:0:0
272,316,55825,2,0,B|188:304|88:304,1,180,4|0,0:0|0:0,0:0:0
45,188,56339,5,8,0:0:0
165,220,56511,1,0,0:0:0
117,104,56682,1,0,0:0:0
93,304,56854,1,0,0:0:0
253,294,57025,2,0,B|302:285|349:282,1,90,8|0,0:0|0:0,0:0:0
448,144,57368,1,4,0:0:0
448,144,57711,6,0,B|440:54,1,90,8|0,0:0|0:0,0:0:0
360,192,58054,1,0,0:0:0
260,204,58225,1,0,0:0:0
160,196,58397,1,8,0:0:0
72,156,58568,6,0,B|80:240|92:356,1,180,4|0,0:0|0:0,0:0:0
224,348,59082,1,8,0:0:0
224,348,59254,1,8,0:0:0
328,264,59425,2,0,B|376:260|432:252,1,90
460,104,59768,2,0,B|412:108|356:116,1,90,8|0,0:0|0:0,0:0:0
220,240,60111,5,4,0:0:0
256,136,60282,1,0,0:0:0
328,264,60454,2,0,B|372:272|424:252,1,90,8|0,0:0|0:0,0:0:0
224,348,60797,2,0,B|168:308|96:324,1,135
28,312,61139,2,0,B|32:264|33:208,1,90,8|0,0:0|0:0,0:0:0
168,124,61482,6,0,B|120:124|80:104,1,90,4|0,0:0|0:0,0:0:0
144,248,61825,1,4,0:0:0
224,348,61997,2,0,B|316:356|408:324,1,180
456,232,62511,1,0,0:0:0
456,232,62597,1,0,0:0:0
456,232,62682,1,0,0:0:0
424,96,62854,5,2,0:0:0
296,60,63025,1,0,0:0:0
256,192,63197,1,0,0:0:0
432,184,63368,5,2,0:0:0
376,24,63539,1,0,0:0:0
216,104,63711,1,0,0:0:0
300,280,63882,2,0,B|361:264|383:179|338:134,1,180,6|0,0:0|0:0,0:0:0
216,104,64397,5,2,0:0:0
164,236,64568,1,2,0:0:0
300,280,64739,1,2,0:0:0
348,148,64911,1,2,0:0:0
256,192,65082,1,0,0:0:0
300,280,65254,2,0,B|338:282|353:231|316:208,1,94.499997116089,2|0,0:0|0:0,0:0:0
256,192,65597,6,0,B|216:184|164:184,1,90,4|0,0:0|0:0,0:0:0
68,308,65939,1,8,0:0:0
20,212,66111,1,0,0:0:0
168,260,66282,1,0,0:0:0
20,212,66454,1,0,0:0:0
96,80,66625,1,8,0:0:0
224,164,66797,6,0,B|320:164|416:140,1,180,4|0,0:0|0:0,0:0:0
425,40,67311,2,0,B|388:40|336:52,1,90,8|0,0:0|0:0,0:0:0
344,256,67654,2,0,B|396:244|452:244,1,90
402,144,67997,5,8,0:0:0
344,256,68168,1,0,0:0:0
240,188,68339,2,0,B|187:152|108:180,1,135,4|0,0:0|0:0,0:0:0
64,188,68682,2,0,B|48:88,1,90,8|0,0:0|0:0,0:0:0
196,44,69025,1,0,0:0:0
240,188,69197,2,0,B|225:276,1,90,0|8,0:0|0:0,0:0:0
368,336,69539,6,0,B|429:320|451:235|406:190,1,180,4|0,0:0|0:0,0:0:0
305,114,70054,1,4,0:0:0
226,276,70225,1,0,0:0:0
360,228,70397,1,0,0:0:0
240,188,70568,2,8,B|184:196,1,45
128,256,70739,2,8,B|92:212,1,45
8,220,70911,2,8,B|15:175,1,45
32,88,71082,6,0,B|76:88|128:76,1,90,12|0,0:0|0:0,0:0:0
243,99,71425,2,0,B|256:144|240:188,1,90,8|0,0:0|0:0,0:0:0
188,344,71768,2,0,B|244:304|320:320,1,135,8|0,0:0|2:0,0:0:0
360,320,72111,1,8,0:0:0
448,220,72282,2,0,B|410:251|348:234|332:188,1,135,4|0,0:0|2:0,0:0:0
344,136,72625,2,0,B|364:40,1,90,2|2,0:0|0:0,0:0:0
292,280,73139,5,0,0:0:0
292,280,73482,5,4,0:0:0
448,220,73654,1,0,0:0:0
344,136,73825,2,0,B|344:88|344:32,1,90,2|0,0:0|0:0,0:0:0
168,248,74168,2,0,B|168:296|168:352,1,90,10|0,0:0|0:0,0:0:0
256,192,74511,1,2,0:0:0
132,128,74682,1,2,0:0:0
280,76,74854,1,10,0:0:0
232,308,75025,6,2,B|187:353|102:331|86:270,1,180,6|0,0:0|0:0,0:0:0
76,244,75454,1,0,0:0:0
68,220,75539,1,0,0:0:0
132,128,75711,1,0,0:0:0
136,100,75797,1,0,0:0:0
140,72,75882,1,0,0:0:0
280,76,76054,6,8,B|326:66,1,45
416,120,76225,2,8,B|371:128,1,45
300,212,76397,2,8,B|346:202,1,45
424,228,76568,6,0,B|436:272|428:320,1,90,12|0,0:0|0:0,0:0:0
224,256,76911,2,0,B|212:212|220:164,1,90,10|0,0:0|0:0,0:0:0
356,80,77254,1,10,0:0:0
300,212,77425,1,2,0:0:0
208,100,77597,1,8,0:0:0
78,294,77768,2,2,B|123:339|208:317|224:256,1,180,6|0,0:0|0:0,0:0:0
128,188,78282,1,8,0:0:0
208,100,78454,5,2,0:0:0
208,100,78539,1,0,0:0:0
208,100,78625,2,2,B|256:100|304:88,1,90,8|2,0:0|0:0,0:0:0
389,201,78968,2,2,B|341:201|300:212,1,90,8|2,0:0|0:0,0:0:0
272,344,79311,2,2,B|364:368|448:316,1,180,2|6,0:0|0:0,0:0:0
445,318,79997,5,2,0:0:0
496,192,80168,1,2,0:0:0
368,152,80339,1,8,0:0:0
304,272,80511,2,2,B|259:317|174:295|158:234,1,180,6|0,0:0|0:0,0:0:0
168,132,81025,5,8,0:0:0
24,224,81197,1,8,0:0:0
60,116,81368,1,0,0:0:0
104,304,81539,1,8,0:0:0
224,308,81711,1,8,0:0:0
248,304,81797,1,8,0:0:0
272,300,81882,1,8,0:0:0
296,296,81968,1,8,0:0:0
320,292,82054,6,0,B|364:284|424:284,1,90,12|0,0:0|0:0,0:0:0
464,124,82397,2,0,B|416:128|372:116,1,90,10|0,0:0|0:0,0:0:0
232,204,82739,1,10,0:0:0
336,240,82911,1,2,0:0:0
264,116,83082,1,8,0:0:0
192,288,83254,2,2,B|147:333|62:311|46:250,1,180,6|0,0:0|0:0,0:0:0
24,142,83768,1,8,0:0:0
128,96,83939,5,2,0:0:0
128,96,84025,1,0,0:0:0
128,96,84111,2,2,B|180:96|228:84,1,90,8|2,0:0|0:0,0:0:0
385,287,84454,2,2,B|333:287|285:299,1,90,8|2,0:0|0:0,0:0:0
176,224,84797,5,2,0:0:0
336,160,84968,1,2,0:0:0
128,96,85139,1,2,0:0:0
332,36,85311,5,2,0:0:0
180,348,85654,1,2,0:0:0
296,116,85997,1,2,0:0:0
216,268,86339,1,2,0:0:0
256,192,86682,5,2,0:0:0
216,88,86854,2,0,B|112:96,1,90,2|0,0:0|0:0,0:0:0
296,296,87197,2,0,B|400:288,1,90,2|0,0:0|0:0,0:0:0
333,180,87539,5,8,0:0:0
295,182,87625,1,8,0:0:0
256,192,87711,1,8,0:0:0
220,210,87797,1,8,0:0:0
191,235,87882,1,6,0:0:0
