osu file format v10

[General]
AudioFilename: 1 - iv-Undetermined.mp3
AudioLeadIn: 2000
PreviewTime: 54642
Countdown: 0
SampleSet: Normal
StackLeniency: 0.7
Mode: 0
LetterboxInBreaks: 0

[Editor]
DistanceSpacing: 1.3
BeatDivisor: 4
GridSize: 4

[Metadata]
Title:Panorama chime (Short Ver.)
TitleUnicode:Panorama chime (Short Ver.)
Artist:Mu
ArtistUnicode:Mu
Creator:cRyo[iceeicee]
Version:Hard
Source:Shukufuku no Kane no Oto wa, Sakura-iro no Kaze to Tomo ni
Tags:Studio Ryokucha kayesara opening eroge
BeatmapID:186007
BeatmapSetID:62567

[Difficulty]
HPDrainRate:6
CircleSize:4
OverallDifficulty:6
ApproachRate:7
SliderMultiplier:1.5
SliderTickRate:1

[Events]
//Background and Video events
0,0,"BG2.jpg"
//Break Periods
2,16586,19440
//Storyboard Layer 0 (Background)
//Storyboard Layer 1 (Fail)
//Storyboard Layer 2 (Pass)
//Storyboard Layer 3 (Foreground)
//Storyboard Sound Samples
//Background Colour Transformations
3,100,163,162,255

[TimingPoints]
386,500,4,2,0,35,1,0
386,-117.647058823529,4,2,1,25,0,0
12761,-117.647058823529,4,2,1,5,0,0
13011,-117.647058823529,4,2,1,20,0,0
13761,-117.647058823529,4,2,1,5,0,0
16386,-117.647058823529,4,3,1,55,0,0
16486,-117.647058823529,4,2,1,25,0,0
20340,342.857142857143,4,2,1,35,1,0
20940,-100,4,1,2,45,0,0
26854,-100,4,3,2,50,0,0
27197,-100,4,1,2,45,0,0
32168,-100,4,2,2,25,0,0
32268,-100,4,1,2,45,0,0
32511,-100,4,2,2,25,0,0
32611,-100,4,1,2,45,0,0
32854,-100,4,2,2,40,0,0
34397,-100,4,2,2,45,0,0
34740,-100,4,2,2,55,0,0
35082,-100,4,1,2,50,0,0
35254,-100,4,2,2,20,0,0
35425,-100,4,1,2,55,0,0
35597,-100,4,1,2,50,0,0
36797,-100,4,2,2,40,0,0
36897,-100,4,1,2,50,0,0
37140,-100,4,1,2,40,0,0
37240,-100,4,1,2,50,0,0
37482,-100,4,2,2,40,0,0
37582,-100,4,1,2,50,0,0
38511,-100,4,2,2,40,0,0
40225,-100,4,2,2,45,0,0
40568,-100,4,1,2,55,0,0
41082,-100,4,1,2,50,0,0
42797,-100,4,3,2,40,0,0
42897,-100,4,1,2,50,0,0
43311,-133.333333333333,4,3,2,50,0,0
43654,-133.333333333333,4,2,1,55,0,0
43740,-133.333333333333,4,2,1,40,0,0
44168,-133.333333333333,4,3,2,55,0,0
44268,-133.333333333333,4,2,1,40,0,0
44854,-133.333333333333,4,3,2,55,0,0
45282,-133.333333333333,4,2,1,40,0,0
45711,-133.333333333333,4,1,1,40,0,0
45882,-133.333333333333,4,3,2,55,0,0
45982,-133.333333333333,4,2,1,45,0,0
46311,-133.333333333333,4,2,1,55,0,0
46911,-133.333333333333,4,1,2,55,0,0
47011,-133.333333333333,4,2,1,55,0,0
47940,-133.333333333333,4,3,2,55,0,0
48040,-133.333333333333,4,2,1,55,0,0
48454,-100,4,1,1,55,0,0
48540,-100,4,3,2,45,0,0
49140,-100,4,3,2,35,0,0
49311,-100,4,1,1,40,0,0
50854,-100,4,1,1,45,0,0
51368,-100,4,2,1,45,0,0
51468,-100,4,1,1,45,0,0
51540,-100,4,1,1,55,0,0
51640,-100,4,1,1,45,0,0
51882,-100,4,1,2,45,0,0
54625,-100,4,1,2,45,0,1
54882,-100,4,1,2,55,0,1
55054,-100,4,2,2,55,0,1
55225,-100,4,1,2,60,0,1
55568,-100,4,1,2,55,0,1
55740,-100,4,2,2,65,0,1
56168,-100,4,1,2,55,0,1
56425,-100,4,2,2,55,0,1
56682,-100,4,1,2,60,0,1
56940,-100,4,1,2,55,0,1
57111,-100,4,2,2,55,0,1
57368,-100,4,1,2,55,0,1
57811,-100,4,2,2,55,0,1
58054,-100,4,1,2,60,0,1
58311,-100,4,1,2,55,0,1
58482,-100,4,2,2,65,0,1
59082,-100,4,1,2,55,0,1
59340,-100,4,1,2,60,0,1
59511,-100,4,2,2,55,0,1
59768,-100,4,1,2,70,0,1
59868,-100,4,2,2,55,0,1
60111,-100,4,1,2,55,0,1
60211,-100,4,2,2,55,0,1
60454,-100,4,1,2,55,0,1
60554,-100,4,2,2,55,0,1
60797,-100,4,1,2,65,0,1
60897,-100,4,2,2,55,0,1
61140,-100,4,1,2,55,0,1
61240,-100,4,2,2,55,0,1
61482,-100,4,1,2,45,0,1
61582,-100,4,2,2,55,0,1
61997,-100,4,1,2,65,0,1
62854,-100,4,1,2,55,0,1
64397,-100,4,1,2,45,0,1
65254,-100,4,2,2,34,0,0
65597,-100,4,1,2,55,0,1
66025,-100,4,2,2,55,0,1
66282,-100,4,1,2,60,0,1
66540,-100,4,1,2,55,0,1
66711,-100,4,2,2,55,0,1
67311,-100,4,1,2,55,0,1
67411,-100,4,2,2,55,0,1
67654,-100,4,1,2,60,0,1
67911,-100,4,1,2,55,0,1
68082,-100,4,1,2,60,0,1
68254,-100,4,1,2,55,0,1
68425,-100,4,2,2,55,0,1
68682,-100,4,1,2,55,0,1
68782,-100,4,2,2,55,0,1
68940,-100,4,1,2,60,0,1
69282,-100,4,1,2,55,0,1
69454,-100,4,2,2,60,0,1
69711,-100,4,2,2,55,0,1
70054,-100,4,2,2,60,0,1
70225,-100,4,1,2,60,0,1
70568,-100,4,3,2,50,0,1
71082,-100,4,1,2,50,0,1
72797,-100,4,1,2,50,0,0
73825,-100,4,1,2,50,0,1
76054,-100,4,3,2,50,0,1
76568,-100,4,1,2,45,0,0
81711,-100,4,3,2,50,0,0
82054,-100,4,1,2,45,0,0
87025,-100,4,2,2,45,0,0
87125,-100,4,1,2,45,0,0
87368,-100,4,2,2,45,0,0
87540,-100,4,3,2,50,0,0
87882,-100,4,1,2,60,0,0

[Colours]
Combo1 : 159,64,255
Combo2 : 100,255,255
Combo3 : 255,102,179

[HitObjects]
100,172,386,6,0,B|164:200|224:160,1,127.50000243187,8|2,0:0|0:0,0:0:0
412,212,1386,2,0,B|348:184|288:224,1,127.50000243187,2|8,0:0|0:0,0:0:0
228,276,2136,6,0,B|170:314|106:286,1,127.50000243187,2|8,0:0|0:0,0:0:0
100,204,2886,2,0,B|157:165|221:193,1,127.50000243187,2|8,0:0|0:0,0:0:0
296,228,3636,1,0,0:0:0
348,292,3886,2,0,B|348:332|328:372,2,63.7500012159348,2|0|8,0:0|0:0|0:0,0:0:0
440,152,4886,6,0,B|433:88,1,63.7500012159348,2|0,0:0|0:0,0:0:0
360,192,5386,2,0,B|353:128,1,63.7500012159348,2|2,0:0|0:0,0:0:0
204,64,6136,6,0,B|248:116|228:184,1,127.50000243187,10|8,0:0|0:0,0:0:0
152,216,6886,2,0,B|132:284|176:336,1,127.50000243187,2|8,0:0|0:0,0:0:0
256,360,7636,5,2,0:0:0
336,340,7886,1,0,0:0:0
396,284,8136,2,0,B|416:216|372:164,1,127.50000243187,10|8,0:0|0:0,0:0:0
296,132,8886,1,2,0:0:0
296,132,9386,6,0,B|284:184|316:224,2,95.6250018239022,2|8|0,0:0|0:0|0:0,0:0:0
296,132,10386,2,0,B|232:124|148:120,1,127.50000243187,10|0,0:0|0:0,0:0:0
88,140,11136,1,2,0:0:0
112,220,11386,2,0,B|156:196|216:212,2,95.6250018239022,8|2|8,0:0|0:0|0:0,0:0:0
164,284,12386,6,0,B|206:356|292:357|327:278|286:266|286:266|299:243|299:243|278:209,1,255.000004863739,2|8,0:0|0:0,0:0:0
256,192,13761,12,8,16386,0:0:0
256,68,20340,6,0,B|256:236,1,150,4|4,0:0|0:0,0:0:0
132,324,21025,2,0,B|112:316|104:300,3,37.5
100,260,21368,2,0,B|92:244|72:236,3,37.5
44,208,21711,6,0,B|40:168|52:120,1,75,12|0,0:0|0:0,0:0:0
112,80,22054,2,0,B|152:88|196:68,1,75,10|0,0:0|0:0,0:0:0
264,44,22397,1,10,0:0:0
344,60,22568,2,0,B|388:52|428:68,1,75,2|8,0:0|0:0,0:0:0
472,164,22911,6,2,B|492:244|468:316,1,150,6|0,0:0|0:0,0:0:0
400,356,23425,1,8,0:0:0
324,324,23597,1,2,0:0:0
324,324,23768,2,2,B|316:288|336:236,1,75,8|2,0:0|0:0,0:0:0
262,146,24111,2,2,B|270:182|256:220,1,75,8|2,0:0|0:0,0:0:0
204,284,24454,2,2,B|52:276,1,150,2|6,0:0|0:0,0:0:0
104,92,25140,6,0,B|60:88|32:112,2,75,2|2|8,0:0|0:0|0:0,0:0:0
184,120,25654,2,2,B|260:144|336:104,1,150,6|0,0:0|0:0,0:0:0
412,52,26168,1,8,0:0:0
412,52,26340,1,8,0:0:0
480,120,26511,1,0,0:0:0
480,120,26682,1,8,0:0:0
464,216,26854,2,0,B|516:244,2,37.5
396,288,27197,6,0,B|356:296|320:280,1,75,12|0,0:0|0:0,0:0:0
248,240,27540,2,0,B|208:232|174:246,1,75,10|0,0:0|0:0,0:0:0
148,324,27882,2,0,B|172:356|214:365,2,75,10|2|8,0:0|0:0|0:0,0:0:0
48,272,28397,6,2,B|8:204|28:128,1,150,6|0,0:0|0:0,0:0:0
92,72,28911,1,8,0:0:0
176,64,29082,1,2,0:0:0
176,64,29254,2,0,B|212:72|260:56,1,75,10|0,0:0|0:0,0:0:0
328,92,29597,2,0,B|344:128|336:176,1,75,10|0,0:0|0:0,0:0:0
324,272,29940,5,2,0:0:0
256,320,30111,1,2,0:0:0
188,272,30282,1,2,0:0:0
151,194,30454,6,0,B|151:146|191:130|191:130|175:98|175:42,1,150,2|2,0:0|0:0,0:0:0
361,194,31140,2,0,B|361:146|321:130|321:130|337:98|337:42,1,150,2|2,0:0|0:0,0:0:0
256,192,31825,5,2,0:0:0
216,264,31997,2,0,B|176:284|128:276,1,75,6|0,0:0|0:0,0:0:0
296,264,32340,2,0,B|336:284|384:276,1,75,6|0,0:0|0:0,0:0:0
472,192,32682,1,4,0:0:0
472,192,33025,6,0,B|472:152|456:112,1,75,8|0,0:0|0:0,0:0:0
396,64,33368,1,8,0:0:0
316,92,33540,2,0,B|276:100|236:84,1,75,8|0,0:0|0:0,0:0:0
188,148,33882,2,0,B|145:182|83:165|64:114,1,150,8|0,0:0|0:0,0:0:0
140,84,34397,2,0,B|96:236,2,150,8|8|4,0:0|0:0|0:0,0:0:0
372,84,35425,6,0,B|416:236,1,150,4|8,0:0|0:0,0:0:0
432,308,35939,1,0,0:0:0
356,340,36111,2,0,B|280:304|208:332,1,150,0|8,0:0|0:0,0:0:0
136,300,36625,6,0,B|40:284,1,75,2|0,0:0|0:0,0:0:0
128,216,36968,2,0,B|201:228,1,75,2|8,0:0|0:0,0:0:0
168,136,37311,2,0,B|72:120,1,75,2|0,0:0|0:0,0:0:0
148,44,37654,1,2,0:0:0
148,44,37825,2,0,B|224:28|224:28|248:44|256:92,1,150,10|4,0:0|0:0,0:0:0
428,204,38511,6,0,B|388:196|354:209,1,75,8|0,0:0|0:0,0:0:0
332,288,38854,2,0,B|354:321|388:336,2,75,8|8|0,0:0|0:0|0:0,0:0:0
248,292,39368,2,0,B|180:252|96:272,1,150,8|0,0:0|0:0,0:0:0
103,270,39882,2,0,B|87:182,1,75,8|0,0:0|0:0,0:0:0
72,84,40225,5,8,0:0:0
72,84,40568,1,8,0:0:0
72,84,40911,6,0,B|152:112|216:68,1,150,4|8,0:0|0:0,0:0:0
296,56,41425,2,0,B|336:52|379:66,1,75
408,136,41768,2,0,B|412:176|389:208,1,75,0|8,0:0|0:0,0:0:0
320,296,42111,5,2,0:0:0
164,308,42454,1,2,0:0:0
164,308,42625,2,0,B|60:316,1,75,2|0,0:0|0:0,0:0:0
184,224,42968,1,2,0:0:0
184,224,43139,2,0,B|80:232,2,75,2|0|0,0:0|0:0|0:0,0:0:0
256,188,43654,6,0,B|312:168|368:180,1,112.500004291535,4|8,0:0|0:0,0:0:0
424,224,44168,1,0,0:0:0
480,176,44339,2,0,B|504:124|486:65,1,112.500004291535,0|8,1:0|0:0,0:0:0
416,40,44854,2,0,B|356:28|304:40,1,112.500004291535
256,96,45368,2,0,B|256:220,2,112.500004291535,8|0|8,0:0|0:0|0:0,0:0:0
112,68,46397,6,0,B|88:120|104:180,1,112.500004291535,4|0,0:0|0:0,0:0:0
124,248,46911,1,0,0:0:0
180,296,47082,2,0,B|237:311|289:287,1,112.500004291535,4|0,0:0|0:0,0:0:0
308,216,47597,6,0,B|328:96,1,112.500004291535,4|0,0:0|0:0,0:0:0
185,105,48111,2,0,B|204:216,2,112.500004291535,2|0|0,0:0|0:0|0:0,0:0:0
256,44,49139,1,4,0:0:0
388,132,49482,6,0,B|464:124,1,75,2|0,0:0|0:0,0:0:0
356,228,49825,2,0,B|432:220,1,75,2|2,0:0|0:0,0:0:0
324,328,50339,5,4,0:0:0
324,328,50682,1,4,0:0:0
132,308,51025,5,0,0:0:0
132,308,51197,2,0,B|120:272|124:232,1,75
192,188,51539,2,0,B|195:149|183:113,1,75,4|0,0:0|0:0,0:0:0
112,72,51882,6,0,B|192:84|256:40,2,150,4|0|2,0:0|0:0|0:0,0:0:0
68,140,52739,1,2,0:0:0
72,224,52911,1,2,0:0:0
132,280,53082,6,0,B|174:314|236:297|255:246,1,150,6|2,0:0|0:0,0:0:0
256,164,53597,1,2,0:0:0
256,80,53768,2,0,B|275:29|344:16|384:48,2,150,2|0|0,0:0|0:0|0:0,0:0:0
256,164,54625,2,0,B|256:244,1,75,4|0,0:0|0:0,0:0:0
236,320,54968,5,8,0:0:0
156,344,55139,1,0,0:0:0
76,328,55311,2,0,B|24:311|4:250|36:206,1,150,0|8,0:0|0:0,0:0:0
110,176,55825,2,0,B|186:200|256:164,1,150,4|0,0:0|0:0,0:0:0
336,136,56339,6,0,B|366:111|405:117,1,75,8|0,0:0|0:0,0:0:0
462,175,56682,2,0,B|468:213|443:244,1,75,0|0,0:0|0:0,3:0:0
363,268,57025,2,0,B|326:253|312:217,2,75,8|0|4,0:0|0:0|0:0,0:0:0
208,328,57711,6,0,B|176:316|132:316,1,75,8|0,0:0|0:0,0:0:0
64,276,58054,1,0,0:0:0
44,196,58225,1,0,0:0:0
84,124,58397,1,8,0:0:0
152,172,58568,6,0,B|194:206|256:189|275:138,1,150,4|0,0:0|0:0,0:0:0
336,84,59082,2,0,B|376:76|416:100,1,75,8|8,0:0|0:0,0:0:0
452,168,59425,1,0,0:0:0
452,168,59597,1,0,0:0:0
408,236,59768,2,0,B|375:255|335:247,1,75,8|0,0:0|0:0,0:0:0
256,220,60111,6,0,B|216:204|184:220|184:220|192:272|136:300,1,150,4|8,0:0|0:0,0:0:0
76,312,60625,1,0,0:0:0
24,248,60797,2,0,B|4:172|32:100,1,150,0|8,0:0|0:0,0:0:0
112,76,61311,1,0,0:0:0
180,124,61482,6,0,B|222:158|284:141|303:90,1,150,4|4,0:0|0:0,0:0:0
228,52,61997,2,0,B|256:200,1,150,0|0,0:0|0:0,0:0:0
284,276,62511,2,0,B|324:280|364:260,1,75
460,220,62854,6,0,B|494:177|477:115|426:96,1,150,2|0,0:0|0:0,0:0:0
324,140,63368,2,0,B|292:184|228:184|196:140,1,150,2|0,0:0|0:0,0:0:0
85,96,63882,2,0,B|34:115|17:177|52:220,1,150,2|0,0:0|0:0,0:0:0
108,284,64397,5,2,0:0:0
184,316,64568,1,2,0:0:0
256,276,64739,2,0,B|256:112,1,150,2|0,0:0|0:0,0:0:0
312,64,65254,2,0,B|348:64|396:84,1,75,2|0,0:0|0:0,0:0:0
460,136,65597,6,0,B|492:208|472:288,1,150,4|8,0:0|0:0,0:0:0
396,316,66111,1,0,0:0:0
316,304,66282,2,0,B|280:292|240:296,1,75
160,316,66625,1,8,0:0:0
80,296,66797,6,0,B|40:228|60:152,1,150,4|0,0:0|0:0,0:0:0
108,84,67311,1,8,0:0:0
188,60,67482,1,0,0:0:0
260,104,67654,2,0,B|300:112|340:88,1,75
412,68,67997,2,0,B|463:87|480:149|445:192,1,150,8|4,0:0|0:0,0:0:0
340,320,68682,6,0,B|296:324|264:312,1,75,8|0,0:0|0:0,0:0:0
192,276,69025,2,0,B|152:276|120:296,2,75,0|0|8,0:0|0:0|0:0,0:0:0
293,228,69539,2,0,B|328:185|311:123|260:104,1,150,4|0,0:0|0:0,0:0:0
104,136,70054,2,0,B|121:188|182:208|225:175,1,150,4|0,0:0|0:0,0:0:0
148,64,70568,2,0,B|112:48|72:56,2,75
228,88,71082,6,0,B|264:88|312:80,1,75,12|0,0:0|0:0,0:0:0
292,164,71425,2,0,B|328:164|376:156,1,75,8|0,0:0|0:0,0:0:0
456,196,71768,2,0,B|491:239|474:301|423:320,1,150,8|8,0:0|0:0,0:0:0
328,336,72282,1,4,0:0:0
232,324,72454,2,0,B|192:320|156:340,2,75,8|2|2,0:0|0:0|0:0,0:0:0
256,160,73139,6,0,B|328:188|408:144,1,150
400,148,73654,1,0,0:0:0
400,148,73825,6,0,B|411:112|395:68,1,75,6|0,0:0|0:0,0:0:0
320,48,74168,2,0,B|284:48|236:60,1,75,10|0,0:0|0:0,0:0:0
164,80,74511,1,2,0:0:0
100,128,74682,1,2,0:0:0
80,208,74854,1,10,0:0:0
100,288,75025,2,2,B|143:323|205:306|224:255,1,150,6|0,0:0|0:0,0:0:0
256,180,75539,6,0,B|268:104,1,75,8|0,0:0|0:0,0:0:0
352,160,75882,2,0,B|363:85,1,75,8|0,0:0|0:0,0:0:0
448,136,76225,2,0,B|436:210,1,75
412,304,76568,6,0,B|393:355|331:372|288:337,2,150,4|10|10,0:0|0:0|0:0,0:0:0
336,268,77425,2,0,B|300:252|263:250,1,75,2|8,0:0|0:0,0:0:0
148,256,77768,6,2,B|108:188|128:112,1,150,6|0,0:0|0:0,0:0:0
196,64,78282,1,8,0:0:0
276,88,78454,1,2,0:0:0
276,88,78625,2,2,B|316:92|352:76,1,75,8|2,0:0|0:0,0:0:0
416,124,78968,2,2,B|404:162|413:200,1,75,8|2,0:0|0:0,0:0:0
416,280,79311,2,2,B|397:331|335:348|292:313,1,150,2|6,0:0|0:0,0:0:0
132,268,79997,6,0,B|108:304|112:340,2,75,2|2|8,0:0|0:0|0:0,0:0:0
200,220,80511,2,2,B|251:201|268:139|233:96,1,150,6|0,0:0|0:0,0:0:0
148,52,81025,1,8,0:0:0
148,52,81197,1,8,0:0:0
56,88,81368,2,0,B|40:124|47:161,1,75,0|8,0:0|0:0,0:0:0
44,260,81711,2,0,B|-4:272,2,37.5
116,328,82054,6,0,B|160:336|200:316,1,75,12|0,0:0|0:0,0:0:0
252,268,82397,2,0,B|267:234|259:194,1,75,10|0,0:0|0:0,0:0:0
188,152,82739,2,0,B|172:189|183:236,2,75,2|2|8,0:0|0:0|0:0,0:0:0
240,52,83254,6,2,B|284:18|345:37|362:89,1,150,6|0,0:0|0:0,0:0:0
368,172,83768,1,8,0:0:0
364,256,83939,1,2,0:0:0
364,256,84111,2,0,B|368:300|352:336,1,75,10|0,0:0|0:0,0:0:0
276,352,84454,2,0,B|240:340|200:344,1,75,10|0,0:0|0:0,0:0:0
104,292,84797,5,2,0:0:0
72,216,84968,1,2,0:0:0
84,136,85139,1,2,0:0:0
160,100,85311,6,0,B|212:80|248:100|248:100|312:52,1,150,2|2,0:0|0:0,0:0:0
352,284,85997,2,0,B|300:304|264:284|264:284|200:332,1,150,2|2,0:0|0:0,0:0:0
256,192,86682,5,2,0:0:0
256,192,86854,2,0,B|344:192,1,75,2|0,0:0|0:0,0:0:0
256,112,87197,2,0,B|181:112,1,75,2|0,0:0|0:0,0:0:0
100,112,87539,2,0,B|92:72|116:24,2,75,8|8|6,0:0|0:0|0:0,0:0:0
