osu file format v10

[General]
AudioFilename: 1 - iv-Undetermined.mp3
AudioLeadIn: 2000
PreviewTime: 54642
Countdown: 0
SampleSet: Normal
StackLeniency: 0.7
Mode: 0
LetterboxInBreaks: 0

[Editor]
DistanceSpacing: 1
BeatDivisor: 4
GridSize: 4

[Metadata]
Title:Panorama chime (Short Ver.)
TitleUnicode:Panorama chime (Short Ver.)
Artist:Mu
ArtistUnicode:Mu
Creator:cRyo[iceeicee]
Version:Easy
Source:Shukufuku no Kane no Oto wa, Sakura-iro no Kaze to Tomo ni
Tags:Studio Ryokucha kayesara opening eroge
BeatmapID:186062
BeatmapSetID:62567

[Difficulty]
HPDrainRate:2
CircleSize:3
OverallDifficulty:2
ApproachRate:3
SliderMultiplier:1
SliderTickRate:1

[Events]
//Background and Video events
0,0,"BG4.jpg"
//Break Periods
2,16586,18900
//Storyboard Layer 0 (Background)
//Storyboard Layer 1 (Fail)
//Storyboard Layer 2 (Pass)
//Storyboard Layer 3 (Foreground)
//Storyboard Sound Samples
//Background Colour Transformations
3,100,163,162,255

[TimingPoints]
386,500,4,2,0,35,1,0
386,-100,4,2,1,25,0,0
2261,-100,4,2,1,5,0,0
2511,-100,4,2,1,25,0,0
6261,-100,4,2,1,5,0,0
6511,-100,4,2,1,25,0,0
13386,-100,4,2,1,20,0,0
13761,-100,4,2,1,5,0,0
16386,-100,4,3,1,55,0,0
16486,-100,4,2,1,25,0,0
20340,342.857142857143,4,2,1,35,1,0
20940,-100,4,1,2,45,0,0
26854,-100,4,3,2,50,0,0
27197,-100,4,1,2,45,0,0
32168,-100,4,2,2,25,0,0
32268,-100,4,1,2,45,0,0
32511,-100,4,2,2,25,0,0
32611,-100,4,1,2,45,0,0
32854,-100,4,2,2,40,0,0
34397,-100,4,2,2,45,0,0
34740,-100,4,2,2,55,0,0
35082,-100,4,1,2,50,0,0
35254,-100,4,2,2,20,0,0
35425,-100,4,1,2,55,0,0
35597,-100,4,1,2,50,0,0
38511,-100,4,2,2,40,0,0
40225,-100,4,2,2,45,0,0
40568,-100,4,1,2,55,0,0
41082,-100,4,1,2,50,0,0
43311,-100,4,3,2,50,0,0
43654,-100,4,2,1,55,0,0
43740,-100,4,2,1,40,0,0
44168,-100,4,3,2,55,0,0
44268,-100,4,2,1,40,0,0
44854,-100,4,3,2,55,0,0
45282,-100,4,2,1,40,0,0
45882,-100,4,3,2,55,0,0
45982,-100,4,2,1,45,0,0
46311,-100,4,2,1,55,0,0
46911,-100,4,1,2,55,0,0
47011,-100,4,2,1,55,0,0
47940,-100,4,3,2,55,0,0
48040,-100,4,2,1,55,0,0
48282,-100,4,3,2,55,0,0
48454,-100,4,1,1,55,0,0
48540,-100,4,3,2,55,0,0
49140,-100,4,3,2,35,0,0
49311,-100,4,1,1,40,0,0
50854,-100,4,1,1,45,0,0
51540,-100,4,1,1,55,0,0
51640,-100,4,1,1,45,0,0
51882,-100,4,1,2,45,0,0
54625,-100,4,1,2,45,0,1
54882,-100,4,1,2,55,0,1
55054,-100,4,2,2,55,0,1
55225,-100,4,1,2,60,0,1
55568,-100,4,1,2,55,0,1
55740,-100,4,2,2,65,0,1
56168,-100,4,1,2,55,0,1
56425,-100,4,2,2,55,0,1
56682,-100,4,1,2,60,0,1
56940,-100,4,1,2,55,0,1
57111,-100,4,2,2,55,0,1
57368,-100,4,1,2,55,0,1
57811,-100,4,2,2,55,0,1
58054,-100,4,1,2,60,0,1
58311,-100,4,1,2,55,0,1
58482,-100,4,2,2,65,0,1
59082,-100,4,1,2,55,0,1
59340,-100,4,1,2,60,0,1
59511,-100,4,2,2,55,0,1
59768,-100,4,1,2,60,0,1
59868,-100,4,2,2,55,0,1
60111,-100,4,1,2,55,0,1
60211,-100,4,2,2,55,0,1
60454,-100,4,1,2,55,0,1
60554,-100,4,2,2,55,0,1
60797,-100,4,1,2,65,0,1
60897,-100,4,2,2,55,0,1
61140,-100,4,1,2,55,0,1
61240,-100,4,2,2,55,0,1
61482,-100,4,1,2,45,0,1
61582,-100,4,2,2,55,0,1
61997,-100,4,1,2,55,0,1
62168,-100,4,1,2,65,0,1
62854,-100,4,1,2,55,0,1
63454,-100,4,1,2,5,0,1
63625,-100,4,1,2,55,0,1
64397,-100,4,1,2,45,0,1
65254,-142.857142857143,4,2,2,34,0,0
65597,-100,4,1,2,55,0,1
65768,-100,4,2,2,55,0,1
65854,-100,4,1,2,55,0,1
66025,-100,4,2,2,55,0,1
66282,-100,4,1,2,60,0,1
66540,-100,4,1,2,55,0,1
66711,-100,4,2,2,55,0,1
67311,-100,4,1,2,55,0,1
67411,-100,4,2,2,55,0,1
67654,-100,4,1,2,60,0,1
67911,-100,4,1,2,55,0,1
68082,-100,4,1,2,60,0,1
68254,-100,4,1,2,55,0,1
68425,-100,4,2,2,55,0,1
68682,-100,4,1,2,55,0,1
68782,-100,4,2,2,55,0,1
68940,-100,4,1,2,60,0,1
69282,-100,4,1,2,55,0,1
69454,-100,4,2,2,60,0,1
69711,-100,4,2,2,55,0,1
70054,-100,4,2,2,60,0,1
70225,-100,4,1,2,60,0,1
70568,-100,4,3,2,60,0,1
71082,-100,4,1,2,50,0,1
72797,-100,4,1,2,50,0,0
73825,-100,4,1,2,50,0,1
76054,-100,4,3,2,50,0,1
76568,-100,4,1,2,45,0,0
81711,-100,4,3,2,50,0,0
82054,-100,4,1,2,45,0,0
87540,-100,4,3,2,50,0,0
87882,-100,4,1,2,60,0,0

[Colours]
Combo1 : 159,64,255
Combo2 : 100,255,255
Combo3 : 255,102,179

[HitObjects]
312,48,386,6,0,B|300:96|320:152,1,100,8|2,0:0|0:0,0:0:0
344,244,1386,2,0,B|428:264|488:216,2,150,2|8|2,0:0|0:0|0:0,0:0:0
256,192,3386,2,0,B|188:204|144:164|144:164|92:160|84:224,1,200,2|8,0:0|0:0,0:0:0
100,308,4886,5,2,0:0:0
188,360,5386,2,0,B|264:388|332:344,2,150,2|8|2,0:0|0:0|0:0,0:0:0
128,280,7386,2,0,B|104:232|112:176,1,100,8|2,0:0|0:0,0:0:0
120,128,8136,6,0,B|188:92|268:112,1,150,8|2,0:0|0:0,0:0:0
344,176,9386,2,0,B|388:140|440:152|440:152|472:108|436:52,1,200,2|8,0:0|0:0,0:0:0
344,40,10886,1,0,0:0:0
252,84,11386,2,0,B|212:56|168:52|168:52|128:96|60:80,2,200,2|8|8,0:0|0:0|0:0,0:0:0
256,192,13761,12,8,16386,0:0:0
64,176,20340,6,0,B|112:152|164:164,1,100,4|4,0:0|0:0,0:0:0
256,192,21025,2,0,B|311:243|396:220|417:150,1,200,0|12,0:0|0:0,0:0:0
324,120,22054,5,8,0:0:0
224,112,22397,2,0,B|177:132|157:193|184:240,2,150,8|4|8,0:0|0:0|0:0,0:0:0
276,196,23768,2,0,B|292:248|268:296,1,100,8|8,0:0|0:0,0:0:0
184,344,24454,6,0,B|130:331|101:287,1,100,4|4,0:0|0:0,0:0:0
64,196,25140,2,0,B|56:152|24:128|24:128|36:44,2,150,0|4|8,0:0|0:0|0:0,0:0:0
164,216,26511,2,0,B|216:228|264:208,1,100,8|0,0:0|0:0,0:0:0
348,156,27197,5,12,0:0:0
436,204,27540,1,8,0:0:0
352,256,27882,2,0,B|372:302|433:322|480:295,2,150,8|4|8,0:0|0:0|0:0,0:0:0
348,156,29254,2,0,B|300:136|244:144,1,100,8|8,0:0|0:0,0:0:0
160,184,29940,6,0,B|133:230|152:291|199:312,1,150,2|2,0:0|0:0,0:0:0
300,316,30797,2,0,B|353:295|358:238,2,100,2|2|2,0:0|0:0|0:0,0:0:0
256,224,31825,2,2,B|256:172,1,50,0|6,0:0|0:0,0:0:0
256,72,32340,1,6,0:0:0
356,80,32682,6,0,B|388:120|388:180,1,100,4|8,0:0|0:0,0:0:0
344,264,33368,2,0,B|390:290|451:271|472:224,2,150,8|8|8,0:0|0:0|0:0,0:0:0
256,220,34740,2,0,B|204:208|152:232,1,100,8|4,0:0|0:0,0:0:0
64,200,35425,6,0,B|48:148|80:100,1,100,4|8,0:0|0:0,0:0:0
176,88,36111,2,0,B|252:108|320:68,1,150,0|2,0:0|0:0,0:0:0
420,68,36968,2,0,B|448:112|444:176,1,100,2|2,0:0|0:0,0:0:0
392,248,37654,2,2,B|376:304,1,50
296,352,38168,6,0,B|244:364|196:340,1,100,4|8,0:0|0:0,0:0:0
128,272,38854,2,0,B|81:245|20:264|0:311,2,150,8|8|8,0:0|0:0|0:0,0:0:0
228,280,40225,1,8,0:0:0
300,208,40568,1,8,0:0:0
400,224,40911,6,0,B|428:180|416:128,1,100,4|8,0:0|0:0,0:0:0
328,80,41597,2,0,B|256:116|184:80,1,150,0|2,0:0|0:0,0:0:0
88,108,42454,2,0,B|64:172|64:172|100:192|108:256,1,150,2|2,0:0|0:0,0:0:0
140,332,43311,1,0,0:0:0
236,352,43654,6,0,B|284:364|336:340,1,100,4|8,0:0|0:0,0:0:0
384,256,44339,2,0,B|430:229|491:248|512:295,2,150,0|0|8,1:0|0:0|0:0,0:0:0
333,166,45711,2,0,B|284:144|236:156,1,100,0|8,1:0|0:0,0:0:0
152,208,46397,5,4,0:0:0
68,156,46739,1,0,0:0:0
152,104,47082,2,0,B|131:57|70:37|23:64,2,150,4|4|2,0:0|0:0|0:0,0:0:0
152,208,48454,2,0,B|120:256|60:256,2,100,0|0|4,0:0|0:0|0:0,0:0:0
236,152,49482,6,0,B|304:116|384:128,1,150,2|2,0:0|0:0,0:0:0
464,184,50339,2,0,B|476:240|456:288,1,100,4|4,0:0|0:0,0:0:0
376,336,51025,2,0,B|324:324,1,50
232,300,51539,1,4,0:0:0
256,192,51882,12,0,53768,0:0:0
52,232,54625,6,0,B|104:248|152:216,1,100,4|8,0:0|0:0,0:0:0
236,172,55311,2,0,B|262:218|243:279|196:300,2,150,0|4|8,0:0|0:0|0:0,0:0:0
196,80,56682,1,0,0:0:0
292,52,57025,2,0,B|344:48|393:80,1,100,8|4,0:0|0:0,0:0:0
428,168,57711,5,8,0:0:0
384,256,58054,2,0,B|430:282|491:263|512:216,2,150,0|4|8,0:0|0:0|0:0,0:0:0
308,192,59425,1,0,0:0:0
208,212,59768,1,8,0:0:0
116,172,60111,6,0,B|100:124|112:72,1,100,4|8,0:0|0:0,0:0:0
200,28,60797,2,0,B|245:50|273:96,1,100,0|8,0:0|0:0,0:0:0
308,192,61482,2,0,B|354:218|415:199|436:152,2,150,4|4|8,0:0|0:0|0:0,0:0:0
208,192,62854,6,0,B|161:165|100:184|79:231,2,150,2|2|2,0:0|0:0|0:0,0:0:0
288,320,64397,1,2,0:0:0
384,288,64739,2,0,B|436:228|400:144,1,150,2|2,0:0|0:0,0:0:0
320,88,65597,6,0,B|264:84|216:112,1,100,4|8,0:0|0:0,0:0:0
136,156,66282,2,0,B|89:182|28:163|7:116,2,150,0|4|8,0:0|0:0|0:0,0:0:0
92,68,67654,1,0,0:0:0
192,48,67997,2,0,B|244:40|292:60,1,100,8|4,0:0|0:0,0:0:0
380,100,68682,5,0,0:0:0
432,184,69025,2,0,B|478:163|498:102|471:55,2,150,0|4|4,0:0|0:0|0:0,0:0:0
332,172,70397,2,0,B|280:160|232:184,1,100
148,232,71082,6,0,B|96:244|50:221,1,100,12|8,0:0|0:0,0:0:0
48,120,71768,2,0,B|100:84|160:108|160:108|204:104|212:28,2,200,8|0|0,0:0|0:0|0:0,0:0:0
52,220,73482,1,0,0:0:0
140,272,73825,6,0,B|192:284|244:264,1,100,4|8,0:0|0:0,0:0:0
332,228,74511,2,0,B|372:252|376:288|376:288|348:320|372:376,2,150,0|4|0,0:0|0:0|0:0,0:0:0
272,148,75882,2,0,B|260:96|284:44,1,100
376,20,76568,6,0,B|423:37|451:82,1,100,12|8,0:0|0:0,0:0:0
464,180,77254,2,0,B|448:240|488:272|468:328,2,150,8|4|8,0:0|0:0|0:0,0:0:0
372,140,78625,1,8,0:0:0
280,180,78968,1,8,0:0:0
224,264,79311,6,0,B|172:280|120:252,1,100,0|4,0:0|0:0,0:0:0
36,212,79997,2,0,B|48:156|48:156|8:128|12:72,2,150,0|4|8,0:0|0:0|0:0,0:0:0
60,308,81368,2,0,B|100:332|156:324,1,100,8|0,0:0|0:0,0:0:0
256,304,82054,6,0,B|296:280|352:288,1,100,4|8,0:0|0:0,0:0:0
452,304,82739,2,0,B|498:283|518:222|491:175,2,150,0|4|8,0:0|0:0|0:0,0:0:0
400,220,84111,2,0,B|376:172|388:116,1,100,8|8,0:0|0:0,0:0:0
432,32,84797,6,0,B|385:5|324:24|303:71,1,150,2|2,0:0|0:0,0:0:0
256,160,85654,2,0,B|248:200|268:224|256:268,2,100,2|2|2,0:0|0:0|0:0,0:0:0
164,116,86682,2,2,B|120:140,1,50,2|2,0:0|0:0,0:0:0
56,216,87197,1,2,0:0:0
64,316,87539,2,0,B|116:312|152:256,1,100,0|6,0:0|0:0,0:0:0
