osu file format v14

[General]
AudioFilename: Heavenly Kiss.mp3
AudioLeadIn: 0
PreviewTime: 66078
Countdown: 0
SampleSet: Soft
StackLeniency: 0.7
Mode: 0
LetterboxInBreaks: 0
WidescreenStoryboard: 0

[Editor]
Bookmarks: 9078,12175,17207,21852,81465
DistanceSpacing: 1.1
BeatDivisor: 4
GridSize: 4
TimelineZoom: 1.7

[Metadata]
Title:Heavenly Kiss
TitleUnicode:Heavenly Kiss
Artist:Mu
ArtistUnicode:μ
Creator:NeK0Nyqn
Version:Insane
Source:Hyper Highspeed Genius
Tags:ハイパー ハイスピード ジーニアス HHG windmill visual novel opening
BeatmapID:612499
BeatmapSetID:269061

[Difficulty]
HPDrainRate:7
CircleSize:4
OverallDifficulty:8
ApproachRate:8.5
SliderMultiplier:1.6
SliderTickRate:1

[Events]
//Background and Video events
0,0,"BG.jpg",0,0
Video,0,"Heavenly Kiss .avi"
//Break Periods
//Storyboard Layer 0 (Background)
//Storyboard Layer 1 (Fail)
//Storyboard Layer 2 (Pass)
//Storyboard Layer 3 (Foreground)
//Storyboard Sound Samples

[TimingPoints]
1046,387.096774193548,4,2,2,50,1,0
2400,-100,4,2,1,50,0,0
2594,-100,4,2,2,50,0,0
3949,-100,4,2,1,50,0,0
4142,-100,4,2,2,50,0,0
5304,-100,4,2,1,50,0,0
5691,-133.333333333333,4,2,1,50,0,0
6852,-100,4,2,1,50,0,0
7239,-100,4,2,1,60,0,0
19626,-100,4,2,1,50,0,0
35110,-100,4,2,1,55,0,0
47497,-100,4,2,2,55,0,0
56787,-100,4,2,1,55,0,0
59691,-100,4,2,1,55,0,0
59884,-100,4,2,1,70,0,0
61433,-133.333333333333,4,2,1,70,0,0
62594,-100,4,2,1,70,0,0
62981,-100,4,2,2,50,0,0
64529,-100,4,2,1,70,0,0
66078,-76.9230769230769,4,2,1,80,0,1
90852,-100,4,2,1,70,0,0
100142,-100,4,2,1,50,0,0
104787,-100,4,2,2,70,0,0
107110,-100,4,2,1,40,0,0

[Colours]
Combo1 : 254,203,252
Combo2 : 230,230,255
Combo3 : 255,255,0
Combo4 : 64,0,128
Combo5 : 91,177,249

[HitObjects]
176,144,1046,5,0,0:0:0:0:
136,272,1239,1,0,0:0:0:0:
264,240,1433,1,0,0:0:0:0:
148,120,1626,1,0,0:0:0:0:
100,256,1820,1,0,0:0:0:0:
240,224,2013,1,0,0:0:0:0:
353,306,2207,5,0,0:0:0:0:
353,306,2304,1,0,0:0:0:0:
353,306,2400,2,0,L|280:256,1,80,2|2,0:0|0:0,0:0:0:0:
230,141,2787,5,0,0:0:0:0:
88,178,2981,1,0,0:0:0:0:
179,283,3175,1,0,0:0:0:0:
230,141,3368,1,0,0:0:0:0:
59,187,3561,1,0,0:0:0:0:
76,313,3755,5,0,0:0:0:0:
76,313,3852,1,0,0:0:0:0:
76,313,3949,2,0,L|177:284,1,80,2|2,0:0|0:0,0:0:0:0:
273,208,4336,5,0,0:0:0:0:
301,52,4530,1,0,0:0:0:0:
157,108,4723,1,0,0:0:0:0:
281,173,4916,1,0,0:0:0:0:
309,20,5110,1,0,0:0:0:0:
144,73,5304,5,0,0:0:0:0:
104,96,5401,1,0,0:0:0:0:
68,120,5497,1,0,0:0:0:0:
32,148,5594,1,0,0:0:0:0:
4,168,5691,2,0,P|8:224|52:280,1,120.000004577637,4|0,0:0|0:0,0:0:0:0:
281,174,6465,1,4,1:2:0:0:
276,64,6852,2,0,P|236:71|203:92,1,80
284,284,7239,6,0,P|323:276|356:255,1,80,6|0,0:0|0:0,0:0:0:0:
394,92,7626,2,0,B|358:68|318:64,1,80,2|0,0:0|0:0,0:0:0:0:
319,64,7916,1,0,0:0:0:0:
319,64,8013,1,2,0:0:0:0:
282,174,8207,2,0,B|318:198|358:202,1,80,0|2,0:0|0:0,0:0:0:0:
464,179,8594,1,0,0:0:0:0:
394,93,8787,5,2,0:0:0:0:
250,103,8981,1,0,0:0:0:0:
350,208,9175,1,2,0:0:0:0:
307,24,9368,1,0,0:0:0:0:
307,24,9562,1,2,0:0:0:0:
249,201,9755,1,0,0:0:0:0:
417,131,9949,1,4,0:0:0:0:
430,172,10045,1,0,0:0:0:0:
431,216,10142,1,0,0:0:0:0:
423,259,10239,1,0,0:0:0:0:
404,299,10336,6,0,B|364:323|308:307,1,80,2|0,0:0|0:0,0:0:0:0:
172,255,10723,2,0,B|149:224|159:179,1,80,2|0,0:0|0:0,0:0:0:0:
243,51,11110,2,0,B|266:84|254:127,1,80,2|0,0:0|0:0,0:0:0:0:
173,256,11497,1,2,0:0:0:0:
138,131,11691,1,0,0:0:0:0:
244,51,11884,5,2,0:0:0:0:
316,163,12078,1,0,0:0:0:0:
407,65,12271,1,4,0:0:0:0:
282,21,12465,2,0,L|258:125,1,80,0|2,0:0|0:0,0:0:0:0:
138,130,12852,1,0,0:0:0:0:
173,256,13045,1,4,0:0:0:0:
173,256,13142,1,0,0:0:0:0:
173,256,13239,1,0,0:0:0:0:
173,256,13336,1,0,0:0:0:0:
51,141,13433,6,0,L|86:28,1,80,2|0,0:0|0:0,0:0:0:0:
200,31,13820,2,0,B|223:110,1,80,2|0,0:0|0:0,0:0:0:0:
303,212,14207,1,2,0:0:0:0:
430,232,14400,2,0,P|450:204|458:156,1,80,0|2,0:0|0:0,0:0:0:0:
325,143,14787,1,0,0:0:0:0:
476,56,14981,6,0,L|464:164,1,80,2|0,0:0|0:0,0:0:0:0:
352,52,15368,1,2,0:0:0:0:
220,88,15562,2,0,P|216:124|212:172,1,80,0|2,0:0|0:0,0:0:0:0:
116,272,15949,1,0,0:0:0:0:
72,136,16142,1,4,0:0:0:0:
96,100,16239,1,0,0:0:0:0:
136,80,16336,1,0,0:0:0:0:
180,72,16433,1,0,0:0:0:0:
220,88,16529,5,2,0:0:0:0:
300,200,16723,1,0,0:0:0:0:
432,156,16916,2,0,L|436:68,1,80,2|0,0:0|0:0,0:0:0:0:
352,36,17304,2,0,L|344:132,1,80,2|0,0:0|0:0,0:0:0:0:
276,224,17691,1,2,0:0:0:0:
164,164,17884,1,0,0:0:0:0:
300,84,18078,6,0,P|360:96|396:160,1,120,2|0,0:0|0:0,0:0:0:0:
400,184,18465,2,0,P|376:216|372:256,1,80,4|0,0:0|0:0,0:0:0:0:
420,364,18852,1,2,0:0:0:0:
468,252,19045,1,0,0:0:0:0:
316,332,19239,2,0,B|248:332|228:260,1,120,4|0,0:0|0:0,0:0:0:0:
244,220,19626,2,0,P|243:180|221:146,1,80,2|0,0:0|0:0,0:0:0:0:
116,84,20013,6,0,P|164:32|256:36,1,160,8|2,0:0|0:0,0:0:0:0:
276,148,20594,1,0,0:0:0:0:
356,56,20787,1,8,0:0:0:0:
424,160,20981,2,0,B|436:212|492:236,1,80,0|2,0:0|0:0,0:0:0:0:
388,320,21368,5,0,0:0:0:0:
276,264,21562,2,0,B|264:213|231:201,1,80,8|0,0:0|0:0,0:0:0:0:
110,242,21949,1,2,0:0:0:0:
44,132,22142,2,0,B|56:81|89:69,1,80,0|8,0:0|0:0,0:0:0:0:
112,52,22433,1,0,0:0:0:0:
140,44,22529,1,0,0:0:0:0:
168,40,22626,1,0,0:0:0:0:
196,44,22723,1,2,0:0:0:0:
240,200,22916,5,0,0:0:0:0:
240,200,23110,2,0,P|276:212|344:200,1,80,8|0,0:0|0:0,0:0:0:0:
404,136,23497,1,2,0:0:0:0:
292,104,23691,1,0,0:0:0:0:
416,240,23884,1,8,0:0:0:0:
308,300,24078,1,0,0:0:0:0:
240,200,24271,6,0,P|212:120|152:56,1,160,4|8,0:0|0:0,0:0:0:0:
96,188,24852,1,0,0:0:0:0:
172,280,25045,2,0,L|152:360,2,80,4|0|8,0:0|0:0|0:0,0:0:0:0:
264,200,25626,1,0,0:0:0:0:
412,140,25820,6,0,P|444:164|472:208,2,80,2|0|8,0:0|0:0|0:0,0:0:0:0:
288,68,26400,1,0,0:0:0:0:
180,140,26594,2,0,P|144:160|76:164,2,80,2|0|8,0:0|0:0|0:0,0:0:0:0:
288,104,27175,1,0,0:0:0:0:
404,160,27368,5,2,0:0:0:0:
304,224,27561,1,0,0:0:0:0:
288,104,27755,1,8,0:0:0:0:
160,56,27948,1,0,0:0:0:0:
176,192,28142,1,2,0:0:0:0:
64,116,28336,2,0,P|56:160|80:220,1,80,0|8,0:0|0:0,0:0:0:0:
72,220,28626,1,0,0:0:0:0:
84,248,28723,1,0,0:0:0:0:
108,272,28820,1,0,0:0:0:0:
136,284,28916,6,0,P|196:288|296:240,1,160,4|8,0:0|0:0,0:0:0:0:
376,169,29497,1,0,0:0:0:0:
491,207,29691,1,2,0:0:0:0:
376,364,29884,1,0,0:0:0:0:
491,326,30078,1,8,0:0:0:0:
306,267,30271,1,0,0:0:0:0:
306,267,30368,1,0,0:0:0:0:
306,267,30465,6,0,L|212:124,1,160,2|8,0:0|0:0,0:0:0:0:
148,276,31239,5,2,0:0:0:0:
268,328,31433,1,0,0:0:0:0:
376,256,31626,1,8,0:0:0:0:
372,128,31820,1,0,0:0:0:0:
256,52,32013,6,0,L|240:92,1,40,4|0,0:0|0:0,0:0:0:0:
164,188,32207,2,0,L|184:148,1,40,0|0,0:0|0:0,0:0:0:0:
176,40,32400,2,0,B|148:96,1,40,8|0,0:0|0:0,0:0:0:0:
48,180,32594,2,0,L|72:140,1,40,0|0,0:0|0:0,0:0:0:0:
88,116,32787,5,2,0:0:0:0:
108,88,32884,1,0,0:0:0:0:
140,60,32981,1,0,0:0:0:0:
175,40,33078,1,0,0:0:0:0:
217,39,33175,1,8,0:0:0:0:
256,52,33271,1,0,0:0:0:0:
287,76,33368,1,0,0:0:0:0:
308,109,33465,1,0,0:0:0:0:
319,147,33562,1,2,0:0:0:0:
204,136,33949,5,8,0:0:0:0:
204,136,34045,1,0,0:0:0:0:
204,136,34142,1,0,0:0:0:0:
256,52,34336,1,2,0:0:0:0:
368,92,34529,2,0,P|390:124|391:164,2,80,2|8|0,0:0|0:0|0:0,0:0:0:0:
132,308,35110,6,0,P|111:275|109:236,1,80,4|0,0:0|0:0,0:0:0:0:
204,136,35497,1,8,0:0:0:0:
204,136,35691,2,0,P|225:169|227:208,1,80,0|2,0:0|0:0,0:0:0:0:
160,332,36078,1,0,0:0:0:0:
56,332,36271,1,8,0:0:0:0:
27,239,36465,1,0,0:0:0:0:
112,180,36658,1,2,0:0:0:0:
194,239,36852,1,0,0:0:0:0:
288,324,37045,6,0,P|312:281|319:221,1,80,8|0,0:0|0:0,0:0:0:0:
448,184,37433,2,0,P|430:129|388:85,1,80,2|0,0:0|0:0,0:0:0:0:
296,42,37820,1,8,0:0:0:0:
183,83,38013,1,0,0:0:0:0:
112,180,38207,1,2,0:0:0:0:
220,340,38400,5,0,0:0:0:0:
220,340,38594,2,0,P|232:308|256:248,1,80,8|0,0:0|0:0,0:0:0:0:
392,256,38981,1,2,0:0:0:0:
432,124,39175,1,0,0:0:0:0:
324,36,39368,2,0,L|296:128,1,80,8|0,0:0|0:0,0:0:0:0:
244,264,39755,6,0,L|216:348,2,80,4|0|8,0:0|0:0|0:0,0:0:0:0:
188,172,40336,1,0,0:0:0:0:
100,112,40529,2,0,L|76:32,2,80,4|0|8,0:0|0:0|0:0,0:0:0:0:
128,216,41110,1,0,0:0:0:0:
244,264,41304,6,0,B|340:220,1,80,4|0,0:0|0:0,0:0:0:0:
468,188,41691,1,8,0:0:0:0:
416,316,41884,1,0,0:0:0:0:
376,160,42078,2,0,L|348:76,1,80,2|0,0:0|0:0,0:0:0:0:
328,256,42465,1,8,0:0:0:0:
256,152,42658,1,0,0:0:0:0:
183,332,42852,6,0,L|103:256,1,80,2|0,0:0|0:0,0:0:0:0:
208,56,43239,2,0,L|143:103,1,80,8|0,0:0|0:0,0:0:0:0:
125,276,43626,2,0,B|185:336|185:336|261:304,1,160,2|8,0:0|0:0,0:0:0:0:
377,303,44207,1,0,0:0:0:0:
262,267,44400,6,0,B|193:297|193:297|133:237,1,160,4|8,0:0|0:0,0:0:0:0:
85,133,44981,1,0,0:0:0:0:
164,48,45175,1,2,0:0:0:0:
256,132,45368,6,0,P|296:116|336:80,1,80,0|8,0:0|0:0,0:0:0:0:
428,56,45755,1,0,0:0:0:0:
428,56,45852,1,0,0:0:0:0:
428,56,45949,2,0,L|464:152,1,80,2|0,0:0|0:0,0:0:0:0:
388,272,46336,1,8,0:0:0:0:
284,208,46529,2,0,L|260:260,1,40
248,276,46723,2,0,B|232:232|232:232|192:216|200:176|200:176|148:176,1,160,4|8,0:0|0:0,0:0:0:0:
140,64,47304,1,0,0:0:0:0:
176,52,47400,1,0,0:0:0:0:
212,44,47497,5,4,0:0:0:0:
304,116,47691,2,0,L|338:43,1,80,0|8,0:0|0:0,0:0:0:0:
448,152,48078,1,0,0:0:0:0:
380,288,48271,1,2,0:0:0:0:
260,227,48465,2,0,L|228:300,1,80,0|8,0:0|0:0,0:0:0:0:
288,96,48852,5,0,0:0:0:0:
288,96,48949,1,0,0:0:0:0:
288,96,49045,2,0,P|228:56|124:68,1,160,2|8,0:0|0:0,0:0:0:0:
100,180,49626,1,0,0:0:0:0:
200,272,49820,2,0,P|168:316|124:332,1,80,2|0,0:0|0:0,0:0:0:0:
44,232,50207,1,8,0:0:0:0:
164,120,50400,5,0,0:0:0:0:
164,120,50497,1,0,0:0:0:0:
164,120,50594,2,0,P|252:108|312:184,1,160,2|8,0:0|0:0,0:0:0:0:
428,280,51175,1,0,0:0:0:0:
208,332,51368,2,0,L|288:324,1,80,2|0,0:0|0:0,0:0:0:0:
320,320,51658,1,0,0:0:0:0:
356,316,51755,1,8,0:0:0:0:
444,176,51949,5,0,0:0:0:0:
444,176,52045,1,0,0:0:0:0:
444,176,52142,2,0,L|444:96,1,80,2|0,0:0|0:0,0:0:0:0:
320,68,52529,2,0,L|320:152,1,80,8|0,0:0|0:0,0:0:0:0:
276,328,52916,1,2,0:0:0:0:
200,228,53110,1,0,0:0:0:0:
200,228,53207,1,0,0:0:0:0:
200,228,53304,2,0,L|200:144,1,80,8|0,0:0|0:0,0:0:0:0:
284,128,53691,6,0,P|232:64|156:72,1,160,4|8,0:0|0:0,0:0:0:0:
64,136,54271,1,0,0:0:0:0:
108,240,54465,2,0,L|48:316,1,80,2|0,0:0|0:0,0:0:0:0:
196,328,54852,6,0,P|236:332|288:328,1,80,8|0,0:0|0:0,0:2:0:0:
360,152,55239,2,0,P|320:148|268:152,1,80,2|0,0:0|0:0,1:2:0:0:
84,152,55626,2,0,P|80:112|84:56,1,80,4|0,0:0|0:0,1:2:0:0:
276,52,56013,1,2,1:2:0:0:
308,64,56110,1,0,1:2:0:0:
336,84,56207,1,0,1:2:0:0:
352,116,56304,1,0,1:2:0:0:
360,152,56400,1,8,1:2:0:0:
364,276,56594,1,0,0:0:0:0:
256,248,56787,6,0,P|216:244|160:248,1,80,4|0,0:0|0:0,0:0:0:0:
132,336,57175,2,0,P|168:356|232:376,1,80,8|0,0:0|0:0,0:0:0:0:
312,312,57562,5,2,0:0:0:0:
436,320,57755,1,0,0:0:0:0:
296,280,57949,1,8,0:0:0:0:
452,280,58142,1,0,0:0:0:0:
280,248,58336,1,2,0:0:0:0:
48,232,58723,5,8,0:0:0:0:
448,132,59110,1,2,0:0:0:0:
224,44,59497,1,8,0:0:0:0:
380,104,59691,5,0,0:0:0:0:
376,124,59787,1,0,0:0:0:0:
372,144,59884,1,4,0:0:0:0:
260,240,60175,1,0,0:0:0:0:
92,300,60465,1,0,0:0:0:0:
92,152,60658,5,4,0:0:0:0:
260,240,60949,1,0,0:0:0:0:
292,36,61239,1,0,0:0:0:0:
408,120,61433,6,0,B|412:176|412:176|361:199|361:199|388:275|322:332,1,240,4|2,0:0|0:0,0:0:0:0:
260,240,62594,1,8,0:0:0:0:
379,45,62981,5,0,0:0:0:0:
184,111,63368,1,0,0:0:0:0:
343,244,63755,1,0,0:0:0:0:
143,302,64142,5,0,0:0:0:0:
184,112,64336,1,0,0:0:0:0:
184,112,64433,1,0,0:0:0:0:
184,112,64529,2,0,B|156:140|156:140|116:152|68:140|68:140|32:168,1,160,4|0,0:0|0:0,0:0:0:0:
24,271,65110,5,2,0:0:0:0:
164,284,65304,2,0,L|209:246,1,40,0|2,0:0|0:0,0:0:0:0:
244,216,65497,1,2,0:0:0:0:
296,80,65691,1,4,0:0:0:0:
240,320,66078,6,0,P|340:320|388:220,1,207.999990478516,4|8,0:0|0:0,0:0:0:0:
376,76,66658,1,0,0:0:0:0:
220,52,66852,2,0,L|112:88,1,103.999995239258,2|0,0:0|0:0,0:0:0:0:
244,216,67239,5,8,0:0:0:0:
324,120,67433,1,0,0:0:0:0:
444,112,67626,2,0,B|472:164|444:236,1,103.999995239258,2|0,0:0|0:0,0:0:0:0:
332,222,68013,2,0,P|320:170|328:106,1,103.999995239258,8|0,0:0|0:0,0:0:0:0:
444,112,68400,1,2,0:0:0:0:
453,213,68594,1,0,0:0:0:0:
364,322,68787,1,8,0:0:0:0:
332,222,68981,1,0,0:0:0:0:
179,242,69175,6,0,P|124:251|71:238,1,103.999995239258,4|0,0:0|0:0,0:0:0:0:
136,96,69562,2,0,P|164:48|208:16,1,103.999995239258,8|0,0:0|0:0,0:0:0:0:
420,24,69949,2,0,P|392:72|348:104,1,103.999995239258,2|0,0:0|0:0,0:0:0:0:
232,160,70336,5,8,0:0:0:0:
136,96,70529,1,0,0:0:0:0:
128,212,70723,1,2,0:0:0:0:
44,132,70916,2,0,L|32:76,2,51.999997619629,0|0|8,0:0|0:0|0:0,0:0:0:0:
52,248,71304,1,0,0:0:0:0:
52,248,71400,1,0,0:0:0:0:
52,248,71497,2,0,P|148:292|208:192,1,207.999990478516,2|8,0:0|0:0,0:0:0:0:
436,256,72078,6,0,L|436:172,1,51.999997619629
436,168,72271,2,0,B|432:92|396:76,1,103.999995239258,4|0,0:0|0:0,0:0:0:0:
364,60,72562,1,0,0:0:0:0:
328,48,72658,2,0,P|268:36|216:44,1,103.999995239258,8|0,0:0|0:0,0:0:0:0:
128,136,73045,1,2,0:0:0:0:
244,204,73239,1,0,0:0:0:0:
232,336,73433,6,0,L|128:272,1,103.999995239258,8|0,0:0|0:0,0:0:0:0:
36,176,73820,1,2,0:0:0:0:
208,84,74013,1,0,0:0:0:0:
208,84,74110,1,0,0:0:0:0:
208,84,74207,2,0,P|260:68|303:34,1,103.999995239258,8|0,0:0|0:0,0:0:0:0:
388,112,74594,2,0,P|336:128|293:162,1,103.999995239258,2|0,0:0|0:0,0:0:0:0:
212,268,74981,1,8,0:0:0:0:
372,316,75175,1,0,0:0:0:0:
456,152,75368,6,0,B|392:220|328:160|328:160|248:216,1,207.999990478516,4|8,0:0|0:0,0:0:0:0:
184,264,75949,1,0,0:0:0:0:
324,332,76142,2,0,B|400:260,1,103.999995239258,2|0,0:0|0:0,0:0:0:0:
399,260,76433,1,0,0:0:0:0:
399,260,76529,1,8,0:0:0:0:
352,132,76723,1,0,0:0:0:0:
192,52,76916,6,0,P|104:96|80:232,1,207.999990478516,4|8,0:0|0:0,0:0:0:0:
164,300,77497,1,0,0:0:0:0:
300,300,77691,1,4,0:0:0:0:
320,268,77788,1,2,0:0:0:0:
340,236,77884,1,0,0:0:0:0:
408,124,78078,2,0,L|464:24,1,103.999995239258,8|0,0:0|0:0,0:0:0:0:
312,56,78465,6,0,L|250:175,1,103.999995239258,4|0,0:0|0:0,0:0:0:0:
140,176,78852,1,8,0:0:0:0:
164,300,79045,1,0,0:0:0:0:
274,372,79239,2,0,P|326:372|374:304,1,103.999995239258,2|0,0:0|0:0,0:0:0:0:
456,248,79626,5,8,0:0:0:0:
408,124,79820,1,0,0:0:0:0:
312,56,80013,2,0,P|268:36|188:64,1,103.999995239258,2|0,0:0|0:0,0:0:0:0:
140,144,80400,1,8,0:0:0:0:
16,228,80594,6,0,P|63:248|114:239,1,103.999995239258,0|2,0:0|0:0,0:0:0:0:
140,144,80981,1,0,0:0:0:0:
204,72,81174,1,8,0:0:0:0:
328,56,81368,1,0,0:0:0:0:
328,56,81562,6,0,L|440:104,1,103.999995239258,4|0,0:0|0:0,0:0:0:0:
360,276,81949,2,0,L|263:236,1,103.999995239258,8|0,0:0|0:0,0:0:0:0:
172,308,82336,1,2,0:0:0:0:
244,144,82529,1,0,0:0:0:0:
380,132,82723,5,10,0:0:0:0:
244,120,82916,1,0,0:0:0:0:
128,192,83110,1,4,0:0:0:0:
160,88,83303,2,0,L|180:40,2,51.999997619629,0|0|8,0:0|0:0|0:0,0:0:0:0:
128,192,83691,1,0,0:0:0:0:
128,192,83787,1,0,0:0:0:0:
128,192,83884,2,0,P|193:278|228:280,1,103.999995239258,2|0,0:0|0:0,0:0:0:0:
264,168,84271,1,8,0:0:0:0:
407,193,84465,5,0,0:0:0:0:
389,215,84562,1,0,0:0:0:0:
371,230,84658,2,0,P|315:276|265:296,1,103.999995239258,4|0,0:0|0:0,0:0:0:0:
260,294,84949,1,0,0:0:0:0:
234,293,85045,2,0,P|172:264|138:220,1,103.999995239258,8|0,0:0|0:0,0:0:0:0:
148,72,85433,5,2,0:0:0:0:
320,108,85626,2,0,L|416:36,1,103.999995239258,0|8,0:0|0:0,0:0:0:0:
284,268,86013,1,0,0:0:0:0:
408,192,86207,5,2,0:0:0:0:
220,188,86400,1,0,0:0:0:0:
220,188,86497,1,0,0:0:0:0:
220,188,86594,2,0,L|304:292,1,103.999995239258,8|0,0:0|0:0,0:0:0:0:
467,107,86981,2,0,L|399:203,1,103.999995239258
248,168,87368,1,8,0:0:0:0:
224,328,87562,1,0,0:0:0:0:
225,328,87755,6,0,B|280:376|345:326|345:326|381:313|445:346,1,207.999990478516,4|8,0:0|0:0,0:0:0:0:
368,160,88336,1,0,0:0:0:0:
248,144,88529,2,0,P|212:92|220:24,1,103.999995239258,2|0,0:0|0:0,0:0:0:0:
210,52,88820,1,0,0:0:0:0:
210,52,88916,1,8,0:0:0:0:
340,56,89110,1,0,0:0:0:0:
412,156,89304,2,0,B|364:251|262:298|262:298,1,207.999990478516,4|8,0:0|0:0,0:0:0:0:
416,264,89884,5,0,0:0:0:0:
412,156,90078,1,2,0:0:0:0:
400,116,90175,1,8,0:0:0:0:
376,80,90271,1,0,0:0:0:0:
340,56,90368,1,2,0:0:0:0:
300,40,90465,2,0,B|244:36|244:36|184:44|156:88,1,155.999992858887,8|2,0:0|0:0,0:0:0:0:
148,108,90852,6,0,P|128:156|128:212,1,80,4|0,0:0|0:0,0:0:0:0:
124,216,91142,1,0,0:0:0:0:
136,248,91239,2,0,B|156:288|216:320,1,80,8|0,0:0|0:0,0:0:0:0:
224,308,91529,1,0,0:0:0:0:
256,308,91626,2,0,P|300:304|352:264,1,80,2|0,0:0|0:0,0:0:0:0:
360,272,91916,1,0,0:0:0:0:
384,252,92013,2,0,B|400:216|400:160,1,80,8|0,0:0|0:0,0:0:0:0:
396,140,92304,1,0,0:0:0:0:
384,112,92400,1,2,0:0:0:0:
128,152,92594,5,0,0:0:0:0:
100,292,92787,1,8,0:0:0:0:
212,340,92981,1,0,0:0:0:0:
344,308,93175,2,0,B|352:248|304:192,1,120,4|0,0:0|0:0,0:0:0:0:
268,200,93562,2,0,B|244:168|236:108|236:108,1,80,4|0,0:0|0:0,0:0:0:0:
104,168,93949,6,0,P|104:216|128:248,1,80,2|0,0:0|0:0,0:0:0:0:
136,272,94239,1,0,0:0:0:0:
160,296,94336,2,0,B|192:320|252:312,1,80,8|0,0:0|0:0,0:0:0:0:
272,312,94626,1,0,0:0:0:0:
308,304,94723,2,0,P|348:272|356:216,1,80,2|0,0:0|0:0,0:0:0:0:
356,212,95013,1,0,0:0:0:0:
356,176,95110,2,0,P|344:136|300:108,1,80,8|0,0:0|0:0,0:0:0:0:
280,100,95401,1,0,0:0:0:0:
244,100,95497,1,2,0:0:0:0:
304,312,95691,5,0,0:0:0:0:
188,256,95884,1,8,0:0:0:0:
296,188,96078,1,0,0:0:0:0:
420,220,96271,2,0,L|400:280|352:316,1,120,4|0,0:0|0:0,0:0:0:0:
316,284,96659,2,0,L|352:188,1,80,4|0,0:0|0:0,0:0:0:0:
408,60,97045,5,2,0:0:0:0:
444,184,97239,1,0,0:0:0:0:
420,220,97336,1,0,0:0:0:0:
396,252,97433,1,8,0:0:0:0:
264,172,97626,1,0,0:0:0:0:
264,344,97820,2,0,B|264:264,1,80,2|0,0:0|0:0,0:0:0:0:
172,296,98207,1,8,0:0:0:0:
160,148,98400,1,0,0:0:0:0:
396,88,98594,6,0,L|492:72|492:72,2,80,2|0|8,0:0|0:0|0:0,0:0:0:0:
268,104,99175,1,0,0:0:0:0:
160,168,99368,1,4,0:0:0:0:
433,278,99755,6,0,L|425:189,1,80,4|0,0:0|0:0,0:0:0:0:
293,239,100142,1,2,0:0:0:0:
268,104,100336,2,0,B|208:84|120:100,1,120,4|0,0:0|0:0,0:0:0:0:
120,104,100723,1,0,0:0:0:0:
8,156,100916,1,0,0:0:0:0:
96,244,101110,5,0,0:0:0:0:
164,136,101304,1,0,0:0:0:0:
240,237,101497,2,0,B|262:299|262:299|314:194|412:225,1,240
96,243,102465,1,4,0:0:0:0:
144,92,103626,5,4,0:2:0:0:
347,281,104400,1,4,0:2:0:0:
84,300,104787,5,4,0:0:0:0:
120,192,104981,1,0,0:0:0:0:
208,264,105175,1,8,0:0:0:0:
84,300,105368,1,0,0:0:0:0:
120,192,105562,5,2,0:0:0:0:
232,144,105755,1,0,0:0:0:0:
132,80,105949,1,8,0:0:0:0:
120,192,106142,1,0,0:0:0:0:
232,144,106336,5,4,1:1:0:0:
344,217,106529,1,0,1:1:0:0:
352,88,106723,1,8,1:1:0:0:
232,144,106916,1,0,1:1:0:0:
104,260,107110,6,0,L|120:204,1,40,2|0,0:0|0:0,0:0:0:0:
188,112,107304,2,0,L|176:164,1,40,2|0,0:0|0:0,0:0:0:0:
212,272,107497,2,0,L|224:224,1,40,2|0,0:0|0:0,0:0:0:0:
304,132,107691,2,0,L|288:200,1,40,2|0,0:0|0:0,0:0:0:0:
