osu file format v9

[General]
AudioFilename: Mt eden - Hide and Seek.mp3
AudioLeadIn: 0
PreviewTime: -1
Countdown: 0
SampleSet: Soft
StackLeniency: 0.7
Mode: 0
LetterboxInBreaks: 1

[Editor]
DistanceSpacing: 0.8
BeatDivisor: 8
GridSize: 16

[Metadata]
Title:Hide And Seek
Artist:Mt Eden
Creator:XenoWarrior
Version:Hard
Source:
Tags:

[Difficulty]
HPDrainRate:6
CircleSize:4
OverallDifficulty:7
ApproachRate:4
SliderMultiplier:1.4
SliderTickRate:1

[Events]
//Background and Video events
0,0,"Osu.jpg"
//Break Periods
2,45949,46911
2,68966,74378
//Storyboard Layer 0 (Background)
//Storyboard Layer 1 (Fail)
//Storyboard Layer 2 (Pass)
//Storyboard Layer 3 (Foreground)
//Storyboard Sound Samples
//Background Colour Transformations
3,100,163,162,255

[TimingPoints]
27698.2413793103,413.793103448276,4,2,0,100,1,0

[Colours]
Combo1 : 0,255,255
Combo2 : 80,255,70
Combo3 : 64,64,251
Combo4 : 240,5,5
Combo5 : 255,150,0

[HitObjects]
176,112,27660,5,0
256,112,28088,5,0
336,112,28517,5,0
336,192,28945,5,0
336,272,29374,5,0
256,272,29803,5,0
176,272,30231,5,0
176,192,30660,5,0
48,192,31249,5,0
48,272,31892,1,0
128,272,32535,1,0
208,272,33178,1,0
208,192,33821,1,0
176,64,34517,5,0
256,64,34946,5,0
336,64,35374,5,0
336,144,35803,5,0
336,224,36231,5,0
256,224,36660,5,0
176,224,37088,5,0
176,144,37517,5,0
240,192,37946,5,0
288,224,38267,1,0
288,272,38588,1,0
288,320,38910,1,0
240,320,39231,1,0
224,320,39446,5,0
144,320,39646,2,0,B|144:288,10,17.5
144,224,40525,6,8,B|80:144|80:64|80:64|32:64,1,210
32,112,41374,5,8
384,80,43008,5,0
384,192,43680,5,0
256,192,44405,6,0,B|256:240,4,35
256,272,44922,2,8,B|208:320|160:272|160:272|112:320|112:320|32:240,1,280
160,288,48231,5,0
256,288,48660,5,0
352,288,49088,5,0
352,192,49517,5,0
352,96,49945,5,0
256,96,50374,5,0
160,96,50802,5,0
160,192,51231,5,0
240,192,51660,5,0
160,192,51981,1,0
160,272,52302,1,0
240,272,52624,1,0
272,272,52939,1,0
336,272,53249,2,8,B|352:272|352:272|336:272|336:272|352:256|352:256|336:256|336:256|352:240|352:240|336:240|336:240|352:224|352:224|336:224|336:224|352:208|352:208|336:208|336:208|352:192|352:192|336:192|336:192|352:176|352:176|336:176|336:176,1,262.5
144,160,55035,5,0
192,160,55470,1,8
192,160,55577,1,8
192,160,55691,1,8
192,160,55794,1,0
240,208,56146,1,8
240,256,56353,1,8
320,256,56818,1,8
384,256,57232,1,8
384,256,57439,1,8
384,256,57853,1,8
384,256,58060,1,8
80,288,58731,5,0
192,288,59374,5,0
320,288,60025,5,0
432,288,60646,5,0
352,96,61939,5,0
256,96,62353,5,0
160,96,62767,5,0
160,192,63181,5,0
160,288,63646,5,0
256,288,64060,5,0
352,288,64474,5,0
352,192,64887,5,0
256,192,65353,6,0,B|256:288,3,105
256,336,66594,6,0,B|352:336,1,87.5
416,320,67112,6,0,B|416:352,10,17.5
192,272,67939,6,8,B|480:272,1,280
64,32,75698,6,2,B|64:344,1,297.5
144,336,77405,6,8,B|464:32|464:32,1,437.5
464,128,79112,2,0,B|464:272,2,140
256,192,80560,12,0,81646
96,96,82517,5,0
176,96,82892,5,0
240,96,83106,5,0
304,96,83353,6,4,B|392:96|424:160|424:224|392:288|256:288,1,350
96,288,85008,5,0
192,272,85474,5,0
240,272,85681,1,0
288,272,85939,2,0,B|288:352,1,70
336,272,86353,1,0
400,288,86818,6,0,B|400:128|208:512|208:240,1,315
144,256,88474,5,0
208,320,88887,2,0,B|208:224,1,87.5
208,208,89353,2,0,B|208:128,1,70
208,272,90284,2,0,B|16:288|176:176|144:144|112:112|80:80|48:80|16:80|-16:80|160:80,1,420
96,96,91991,6,0,B|96:240|96:240,1,140
256,192,92767,12,0,93749
272,336,94163,6,0,B|464:336|464:144,1,297.5
256,192,95353,6,8,B|256:272,2,70
112,112,96181,6,0,B|224:112,1,105
112,176,97008,2,0,B|112:240|112:240|208:240|208:240|368:112|368:112|368:160|368:160,1,420
480,176,98560,6,0,B|480:400|32:400|32:160,1,630
112,192,100887,2,8,B|400:192,1,280
256,192,102232,5,8
256,192,102439,1,8
256,192,102646,1,8
144,208,103525,6,0,B|64:208,1,70
64,208,103939,2,0,B|256:400|464:192,1,437.5
384,64,106525,5,8
256,64,106939,5,8
128,64,107353,5,8
96,144,107767,6,8,B|256:352|480:128,1,437.5
256,272,109939,5,0
256,176,110353,1,8
256,112,110560,1,8
256,176,110767,1,8
448,144,111646,5,8
256,272,112525,5,0
256,176,112887,1,8
256,128,113094,1,8
256,176,113353,1,8
320,176,113560,1,8
384,176,113767,1,8
384,272,114232,1,8
304,144,115422,5,0
224,144,115887,1,8
224,80,116094,1,8
224,144,116301,1,8
160,144,116715,1,0
288,208,117181,1,8
224,208,117387,1,8
288,208,117646,1,8
144,192,120232,5,8
256,192,120646,1,8
304,128,121060,1,8
352,192,121474,1,8
96,176,122767,5,8
96,240,122974,1,8
96,176,123181,1,8
256,256,123594,1,0
304,192,124060,5,8
208,192,124267,1,8
256,128,124474,1,8
144,112,125715,5,0
176,176,125974,5,0
224,224,126232,5,0
288,224,126491,5,0
336,176,126749,5,0
368,112,127008,5,0
192,96,129232,5,8
256,176,129439,1,8
272,128,129646,1,8
224,128,129852,1,8
176,128,130059,1,8
80,272,130887,5,8
144,272,131094,1,8
80,272,131301,1,8
352,272,132181,5,8
304,64,133112,5,0
304,224,133525,1,0
224,224,133939,1,8
224,144,134353,1,8
128,192,134767,1,8
128,112,135181,1,8
416,128,136422,5,8
96,112,137301,5,0
96,256,137715,1,0
192,160,138181,1,0
192,224,138336,1,0
288,160,138801,1,0
288,224,139008,1,0
416,192,139474,5,0
416,112,139939,1,0
336,112,140301,5,0
256,112,140767,1,0
208,192,141181,5,0
208,144,141387,1,0
160,160,141594,1,0
144,128,141801,1,0
64,192,142267,5,0
48,224,142422,1,0
144,240,142887,5,0
240,240,143405,5,0
304,240,143715,1,0
256,192,144181,5,0
352,192,144594,5,0
352,96,145008,5,0
256,96,145422,5,0
160,96,145836,5,0
160,192,146249,5,0
160,288,146663,5,0
256,288,147077,5,0
352,288,147594,5,0
384,240,147905,1,0
416,192,148215,1,0
448,144,148525,1,0
464,96,148887,1,0
464,96,149094,1,0
256,192,150181,5,0
96,96,152043,5,0
96,144,152249,1,0
160,128,152612,1,0
160,176,152819,1,0
240,176,153181,1,0
240,128,153387,1,0
304,144,153853,1,0
304,96,154060,1,0
352,240,154525,5,0
304,272,154681,1,0
256,272,154887,1,0
208,272,155094,1,0
176,240,155353,1,0
176,192,155560,1,0
176,144,155767,1,0
208,112,155974,1,0
256,112,156181,1,0
304,112,156387,1,0
336,176,156594,1,0
272,176,156801,1,0
224,176,157008,1,0
192,128,157267,1,0
192,80,157474,1,0
304,80,157887,5,0
304,192,159594,5,0
416,288,161353,5,0
256,288,161767,5,0
96,288,162181,5,0
256,288,163060,5,0
256,208,163474,1,0
256,128,163887,1,0
256,48,164301,1,0
464,192,164715,5,0
352,160,165181,5,0
352,224,165387,1,0
288,192,165853,1,0
288,256,166008,1,0
176,224,166474,5,0
96,224,166887,5,0
96,160,167094,1,0
48,192,167508,1,0
48,128,167715,1,0
208,208,168181,5,0
256,144,168646,1,0
256,208,168853,1,0
304,176,169267,1,0
304,240,169474,1,0
368,288,169887,5,0
448,240,170353,1,0
448,176,170560,1,0
400,208,170922,1,0
400,144,171129,1,0
256,192,171646,5,0
432,304,173353,1,0
256,304,173767,5,0
80,304,174181,5,0
304,128,175060,5,0
256,192,175474,1,0
304,128,175887,1,0
256,192,176767,5,0
208,128,177232,1,0
256,224,177646,1,0
448,208,178474,5,0
336,240,178887,1,0
336,176,179094,1,0
288,208,179508,1,0
288,144,179715,1,0
192,176,180232,5,0
96,208,180646,1,0
304,240,180853,1,0
48,176,181318,1,0
48,112,181525,1,0
64,272,181939,5,0
160,304,182405,1,0
160,240,182560,1,0
208,272,183025,1,0
208,208,183181,1,0
304,240,183646,5,0
400,272,184008,1,0
400,208,184215,1,0
448,240,184681,1,0
448,176,184836,1,0
448,64,185301,5,2
64,64,187060,5,0
80,64,188767,5,0
256,64,189232,1,0
432,64,189646,1,0
256,192,190525,1,0
256,336,191353,1,0
192,192,192129,5,0
304,144,192646,1,0
304,224,192853,1,0
304,144,193060,1,0
80,192,194870,5,0
160,160,195232,1,0
208,192,195439,1,0
160,208,195646,1,0
208,240,195853,1,0
256,224,196112,1,0
352,224,196525,1,0
400,192,198129,5,0
352,224,198336,1,0
352,160,198543,1,0
304,192,198749,1,0
304,128,199008,1,0
224,144,199474,1,0
224,240,199887,1,0
384,256,201646,5,0
304,208,202060,1,0
304,288,202267,1,0
304,208,202474,1,0
256,192,202887,5,0
80,192,203353,5,0
80,336,203818,5,0
176,112,205008,1,0
240,112,205215,1,0
144,160,205422,1,0
272,160,205629,1,0
208,176,205836,1,0
208,240,206353,5,0
208,304,206560,1,0
208,240,206767,1,0
48,48,208163,1,0
336,304,208991,5,0
336,208,209405,1,8
336,160,209612,1,8
336,128,209818,1,8
336,80,210181,1,0
272,80,210646,1,0
304,192,211577,5,0
224,192,211991,1,8
224,128,212198,1,8
224,192,212405,1,8
400,160,213232,5,8
416,224,213439,1,8
432,160,213646,1,8
144,192,214577,5,0
256,192,215353,5,0
224,192,215818,5,0
224,320,216025,1,0
224,192,216232,1,0
192,256,216646,1,0
256,256,217060,1,0
288,192,217525,2,0,B|480:192|480:32|272:32|272:32|272:128|272:128|96:256,1,665
