osu file format v9

[General]
AudioFilename: Mt eden - Hide and Seek.mp3
AudioLeadIn: 0
PreviewTime: -1
Countdown: 0
SampleSet: Soft
StackLeniency: 0.7
Mode: 0
LetterboxInBreaks: 1

[Editor]
DistanceSpacing: 0.8
BeatDivisor: 8
GridSize: 16

[Metadata]
Title:Hide And Seek (WORK IN PROGRESS)
Artist:Mt Eden
Creator:XenoWarrior
Version:Hard
Source:
Tags:

[Difficulty]
HPDrainRate:6
CircleSize:4
OverallDifficulty:7
ApproachRate:4
SliderMultiplier:1.4
SliderTickRate:1

[Events]
//Background and Video events
0,0,"Osu.jpg"
//Break Periods
2,45949,46911
2,56553,57411
2,68966,74378
//Storyboard Layer 0 (Background)
//Storyboard Layer 1 (Fail)
//Storyboard Layer 2 (Pass)
//Storyboard Layer 3 (Foreground)
//Storyboard Sound Samples
//Background Colour Transformations
3,100,163,162,255

[TimingPoints]
27698.2413793103,413.793103448276,4,2,0,100,1,0

[Colours]
Combo1 : 0,255,255
Combo2 : 80,255,70
Combo3 : 64,64,251
Combo4 : 240,5,5
Combo5 : 255,150,0

[HitObjects]
176,64,27660,5,0
256,64,28088,5,0
336,64,28517,5,0
336,144,28945,5,0
336,224,29374,5,0
256,224,29803,5,0
176,224,30231,5,0
176,144,30660,5,0
32,176,31249,5,0
32,272,31892,1,0
128,272,32535,1,0
224,272,33178,1,0
224,176,33821,1,0
176,64,34517,5,0
256,64,34946,5,0
336,64,35374,5,0
336,144,35803,5,0
336,224,36231,5,0
256,224,36660,5,0
176,224,37088,5,0
176,144,37517,5,0
240,192,37946,5,0
288,224,38267,1,0
288,272,38588,1,0
288,320,38910,1,0
240,320,39231,1,0
224,320,39446,5,0
144,320,39646,2,0,B|144:288,10,17.5
144,224,40525,6,8,B|80:144|80:64|80:64|32:64,1,210
32,112,41374,5,8
384,80,43008,5,0
384,192,43680,5,0
256,192,44405,6,0,B|256:240,4,35
256,272,44922,2,8,B|208:320|160:272|160:272|112:320|112:320|32:240,1,280
160,288,48231,5,0
256,288,48660,5,0
352,288,49088,5,0
352,192,49517,5,0
352,96,49945,5,0
256,96,50374,5,0
160,96,50802,5,0
160,192,51231,5,0
240,192,51660,5,0
160,192,51981,1,0
160,272,52302,1,0
240,272,52624,1,0
272,272,52939,1,0
336,272,53249,2,8,B|352:272|352:272|336:272|336:272|352:256|352:256|336:256|336:256|352:240|352:240|336:240|336:240|352:224|352:224|336:224|336:224|352:208|352:208|336:208|336:208|352:192|352:192|336:192|336:192|352:176|352:176|336:176|336:176,1,262.5
144,160,55035,5,0
192,160,55356,1,8
192,160,55463,1,8
192,160,55577,1,8
240,160,55680,1,8
240,208,56146,1,8
240,256,56353,1,8
80,288,58731,5,0
192,288,59374,5,0
320,288,60025,5,0
432,288,60646,5,0
352,96,61939,5,0
256,96,62353,5,0
160,96,62767,5,0
160,192,63181,5,0
160,288,63646,5,0
256,288,64060,5,0
352,288,64474,5,0
352,192,64887,5,0
256,192,65353,6,0,B|256:288,3,105
256,336,66594,6,0,B|352:336,1,87.5
416,320,67112,6,0,B|416:352,10,17.5
144,272,67939,6,8,B|432:272,1,280
64,32,75698,6,2,B|64:344,1,297.5
144,336,77405,6,8,B|464:32|464:32,1,437.5
464,128,79112,2,0,B|464:272,2,140
256,192,80560,12,0,81646
96,96,82517,5,0
176,96,82892,5,0
240,96,83106,5,0
304,96,83353,6,4,B|392:96|424:160|424:224|392:288|256:288,1,350
96,288,85008,5,0
176,288,85474,5,0
224,288,85681,1,0
272,288,85939,2,0,B|272:352,1,52.5
320,288,86353,1,0
400,288,86818,6,0,B|400:128|208:512|208:240,1,315
144,256,88474,5,0
208,320,88887,2,0,B|208:224,1,87.5
208,208,89353,2,0,B|208:128,1,70
208,272,90284,2,0,B|16:288|176:176|144:144|112:112|80:80|48:80|16:80|-16:80|160:80,1,420
96,96,91991,6,0,B|96:240|96:240,1,140
272,336,94163,6,0,B|464:336|464:144,1,297.5
256,192,95353,6,8,B|256:272,2,70
112,112,96181,6,0,B|224:112,1,105
112,176,97008,2,0,B|112:240|112:240|208:240|208:240|368:112|368:112|368:160|368:160,1,420
480,176,98560,6,0,B|480:400|32:400|32:160,1,630
112,192,100887,2,8,B|400:192,1,280
256,192,102232,5,8
256,192,102439,1,8
256,192,102646,1,8
144,208,103525,6,0,B|64:208,1,70
64,208,103939,2,0,B|256:400|464:192,1,437.5
384,64,106525,5,8
256,64,106939,5,8
128,64,107353,5,8
96,144,107767,6,8,B|256:352|480:128,1,437.5
