osu file format v14

[General]
AudioFilename: Ms. Valentine.mp3
AudioLeadIn: 0
PreviewTime: 58241
Countdown: 0
SampleSet: Soft
StackLeniency: 0.7
Mode: 0
LetterboxInBreaks: 0
WidescreenStoryboard: 0

[Editor]
Bookmarks: 18840,44731,59525,89114
DistanceSpacing: 0.8
BeatDivisor: 4
GridSize: 32
TimelineZoom: 1

[Metadata]
Title:Jeungpyo
TitleUnicode:증표
Artist:Ms. Valentine
ArtistUnicode:Ms. Valentine
Creator:Sonnyc
Version:Insane
Source:ソードアート・オンラインⅡ
Tags:シルシ shirushi 팀달캬 소아온 team dalca sao sword art online 마더즈로자리오 mother's rosario 더빙 ending
BeatmapID:985248
BeatmapSetID:459969

[Difficulty]
HPDrainRate:6
CircleSize:4.5
OverallDifficulty:7
ApproachRate:8
SliderMultiplier:3.59999990463257
SliderTickRate:2

[Events]
//Background and Video events
0,0,"bg.jpg",0,0
//Break Periods
//Storyboard Layer 0 (Background)
//Storyboard Layer 1 (Fail)
//Storyboard Layer 2 (Pass)
//Storyboard Layer 3 (Foreground)
//Storyboard Sound Samples

[TimingPoints]
18430,821.917808219178,4,2,1,50,1,0
18840,-90.9090909090909,4,2,1,50,0,0
49662,-90.9090909090909,4,2,1,60,0,0
54594,-181.818181818182,4,2,1,40,0,0
57882,-181.818181818182,4,2,1,60,0,0
58293,-100,4,2,1,50,0,0
59525,821.917808219178,4,2,1,60,1,1
59525,-90.9090909090909,4,2,1,60,0,1
69388,-90.9090909090909,4,2,1,60,0,0
72675,-90.9090909090909,4,2,1,60,0,1
82538,-100,4,2,1,40,0,0
89114,-90.9090909090909,4,2,1,20,0,0

[Colours]
Combo1 : 255,255,0
Combo2 : 128,255,128
Combo3 : 170,170,255
Combo4 : 255,64,159

[HitObjects]
171,252,18840,5,0,0:0:0:0:
125,163,19046,1,0,0:0:0:0:
93,313,19251,2,0,P|158:350|266:278,2,198.000000797272,2|0|0,0:0|0:0|0:0,0:0:0:0:
203,102,20484,1,0,0:0:0:0:
203,102,20690,2,0,P|281:155|368:118,1,198.000000797272
412,28,21306,1,0,0:0:0:0:
478,260,21717,6,0,B|380:247|380:247|292:291|292:291|193:277,1,297.000001195908
116,213,22539,2,0,P|95:257|98:306,1,99.0000003986359,2|0,0:0|0:0,0:0:0:0:
211,182,22950,2,0,P|213:133|192:88,1,99.0000003986359
268,262,23361,2,0,P|355:299|433:245,1,198.000000797272
456,149,23977,1,0,0:0:0:0:
293,89,24183,1,2,0:0:0:0:
392,72,24388,2,0,P|436:50|485:53,2,99.0000003986359,2|0|0,0:0|0:0|0:0,0:0:0:0:
359,166,25005,2,0,B|350:231|350:231|379:289|379:289|370:355,1,198.000000797272
107,68,25827,6,0,P|60:84|12:75,1,99.0000003986359
199,104,26238,2,0,P|247:94|293:110,1,99.0000003986359,2|0,0:0|0:0,0:0:0:0:
510,177,26649,2,0,P|422:140|345:195,1,198.000000797272,2|0,0:0|0:0,0:0:0:0:
325,292,27265,1,0,0:0:0:0:
433,238,27471,1,2,0:0:0:0:
402,353,27676,2,0,P|314:389|236:335,1,198.000000797272
27,262,28293,6,0,P|115:299|193:245,1,198.000000797272
212,147,28909,1,0,0:0:0:0:
106,60,29114,1,2,0:0:0:0:
21,168,29320,2,0,P|69:160|115:176,1,99.0000003986359,2|0,0:0|0:0,0:0:0:0:
295,42,29731,2,0,P|249:58|201:50,1,99.0000003986359
281,263,30347,5,2,0:0:0:0:
379,274,30553,1,0,0:0:0:0:
193,303,30758,2,0,P|185:255|201:209,2,99.0000003986359
273,362,31375,1,0,0:0:0:0:
289,164,31580,6,0,P|216:111|111:170,1,198.000000797272
78,237,32197,1,0,0:0:0:0:
221,276,32402,1,2,0:0:0:0:
132,320,32608,1,0,0:0:0:0:
132,320,32813,1,0,0:0:0:0:
432,91,33224,6,0,P|386:184|400:275,1,198.000000797272,2|2,0:0|0:0,0:0:0:0:
447,360,33840,1,0,0:0:0:0:
306,308,34046,2,0,P|258:316|212:300,2,99.0000003986359,2|0|0,0:0|0:0|0:0,0:0:0:0:
399,274,34662,1,0,0:0:0:0:
167,212,34868,6,0,P|114:285|173:390,1,198.000000797272,2|0,0:0|0:0,0:0:0:0:
259,252,35484,2,0,P|267:204|251:158,1,99.0000003986359,0|2,0:0|0:0,0:0:0:0:
181,85,35895,1,0,0:0:0:0:
348,21,36101,2,0,P|332:67|340:116,1,99.0000003986359,2|0,0:0|0:0,0:0:0:0:
393,199,36512,1,2,0:0:0:0:
93,266,36923,6,0,P|180:304|259:251,2,198.000000797272,2|2|0,0:0|0:0|0:0,0:0:0:0:
46,182,37950,1,0,0:0:0:0:
96,100,38156,2,0,B|161:109|161:109|224:86|224:86|288:93,1,198.000000797272,2|0,0:0|0:0,0:0:0:0:
511,189,38772,2,0,P|433:136|346:174,1,198.000000797272
295,260,39388,1,0,0:0:0:0:
433,315,39594,1,0,0:0:0:0:
511,189,39799,1,2,0:0:0:0:
213,204,40210,6,0,P|196:251|205:299,1,99.0000003986359
173,113,40621,2,0,P|181:64|165:18,1,99.0000003986359,2|0,0:0|0:0,0:0:0:0:
271,126,41032,1,0,0:0:0:0:
124,326,41443,6,0,P|204:379|378:312,1,297.000001195908,2|0,0:0|0:0,0:0:0:0:
410,218,42265,1,0,0:0:0:0:
142,51,42676,2,0,P|163:95|160:144,1,99.0000003986359,2|0,0:0|0:0,0:0:0:0:
72,189,43087,2,0,P|150:241|237:203,1,198.000000797272,0|2,0:0|0:0,0:0:0:0:
279,113,43703,1,0,0:0:0:0:
428,175,43909,2,0,P|379:172|335:194,1,99.0000003986359,2|0,0:0|0:0,0:0:0:0:
274,272,44320,1,2,0:0:0:0:
434,25,44731,6,0,P|341:71|250:57,1,198.000000797272,2|0,0:0|0:0,0:0:0:0:
164,8,45347,1,0,0:0:0:0:
46,59,45553,2,0,L|57:158,1,99.0000003986359,2|0,0:0|0:0,0:0:0:0:
18,248,45964,2,0,P|114:235|201:280,1,198.000000797272,2|2,0:0|0:0,0:0:0:0:
262,358,46580,1,0,0:0:0:0:
441,310,46786,2,0,L|342:299,2,99.0000003986359,2|0|2,0:0|0:0|0:0,0:0:0:0:
512,379,47402,1,0,0:0:0:0:
449,215,47608,2,0,P|432:261|441:310,1,99.0000003986359
349,347,48019,6,0,P|332:250|365:158,2,198.000000797272,2|0|2,0:0|0:0|0:0,0:0:0:0:
441,310,49046,1,0,0:0:0:0:
419,81,49251,2,0,P|373:64|324:72,1,99.0000003986359,8|0,0:3|0:0,0:0:0:0:
47,99,49662,6,0,P|144:82|236:116,1,198.000000797272,4|8,0:0|0:0,0:0:0:0:
303,189,50279,1,8,0:0:0:0:
157,224,50484,1,8,0:0:0:0:
246,269,50690,1,4,0:3:0:0:
246,269,50895,2,0,L|256:369,1,99.0000003986359,8|0,0:3|0:0,0:0:0:0:
370,186,51306,6,0,L|350:383,1,198.000000797272,4|8,3:2|0:0,0:0:0:0:
457,139,51923,2,0,P|379:86|292:124,1,198.000000797272,4|0,0:0|3:0,0:0:0:0:
252,215,52539,2,0,L|261:313,1,99.0000003986359,8|0,0:0|0:0,0:0:0:0:
370,186,52950,5,0,3:0:0:0:
196,133,53156,1,8,0:0:0:0:
452,132,53361,2,0,P|469:178|460:227,1,99.0000003986359,2|0,0:0|0:0,0:0:0:0:
364,87,53772,5,8,0:0:0:0:
376,285,53977,1,8,0:0:0:0:
193,99,54183,1,8,0:0:0:0:
446,33,54388,1,8,0:0:0:0:
370,186,54594,5,2,0:0:0:0:
364,87,55210,1,0,0:0:0:0:
282,142,55827,2,0,P|92:95|171:284,1,495.00000199318,2|10,0:0|0:0,0:0:0:0:
259,238,58087,1,8,0:0:0:0:
392,306,58293,6,0,P|382:211|417:135,1,179.999995231629,2|8,0:0|0:3,0:0:0:0:
486,66,58909,1,2,0:0:0:0:
337,74,59114,1,2,0:0:0:0:
298,96,59217,1,0,0:0:0:0:
254,99,59320,1,0,0:0:0:0:
213,82,59423,1,2,0:0:0:0:
184,49,59525,5,4,3:2:0:0:
144,246,59730,1,0,0:0:0:0:
66,185,59935,2,0,P|131:148|239:220,1,198.000000797272,2|8,0:3|0:0,0:0:0:0:
264,295,60552,1,0,0:0:0:0:
444,255,60757,2,0,P|398:238|350:247,1,99.0000003986359,2|0,0:3|3:0,0:0:0:0:
264,295,61168,5,2,0:0:0:0:
318,373,61374,2,0,P|272:389|223:381,2,99.0000003986359,0|2|0,0:0|0:3|0:0,0:0:0:0:
498,175,61990,2,0,P|406:141|310:159,1,198.000000797272,8|2,0:0|0:3,0:0:0:0:
228,216,62607,1,0,0:0:0:0:
0,154,62812,6,0,P|87:191|166:138,2,198.000000797272,2|2|8,3:2|0:3|0:0,0:0:0:0:
79,93,63840,1,0,0:0:0:0:
48,296,64045,2,0,P|94:279|142:288,1,99.0000003986359,2|0,0:0|0:0,0:0:0:0:
324,339,64456,2,0,P|279:322|231:331,2,99.0000003986359,2|0|2,0:0|0:0|0:3,0:0:0:0:
146,382,65072,1,0,0:0:0:0:
226,235,65278,5,8,0:0:0:0:
176,150,65483,1,0,0:0:0:0:
90,201,65689,1,2,0:3:0:0:
141,287,65894,1,0,0:0:0:0:
354,312,66100,6,0,P|362:263|345:218,1,99.0000003986359,2|0,3:2|0:0,0:0:0:0:
274,149,66511,1,2,0:3:0:0:
93,137,66716,2,0,P|130:168|178:177,1,99.0000003986359,2|8,0:0|0:0,0:0:0:0:
274,149,67127,1,0,0:0:0:0:
375,0,67333,1,2,0:3:0:0:
375,0,67538,2,0,P|328:15|297:52,2,99.0000003986359,0|0|0,3:0|0:0|0:0,0:0:0:0:
495,216,68155,6,0,P|416:269|328:232,1,198.000000797272,0|8,3:0|0:0,0:0:0:0:
274,149,68771,1,0,0:0:0:0:
413,71,68977,2,0,P|400:119|407:168,1,99.0000003986359,2|0,0:0|0:0,0:0:0:0:
274,149,69388,6,0,P|296:210|286:274,1,132.000000531515,4|2,3:2|0:0,0:0:0:0:
174,356,69935,2,0,P|110:344|59:303,1,132.000000531515,0|8,0:0|0:0,0:0:0:0:
45,165,70483,2,0,P|86:115|147:92,1,132.000000531515,2|0,0:0|0:0,0:0:0:0:
274,149,71031,5,0,3:0:0:0:
221,233,71237,1,8,0:0:0:0:
284,309,71442,1,0,3:0:0:0:
375,272,71648,1,8,0:0:0:0:
368,173,71853,1,8,0:0:0:0:
274,149,72059,1,8,0:0:0:0:
268,52,72264,1,8,0:0:0:0:
358,16,72470,1,8,0:0:0:0:
421,92,72675,5,4,3:2:0:0:
187,106,72881,2,0,P|178:162|199:212,2,99.0000003986359,0|2|0,0:0|0:3|0:0,0:0:0:0:
269,261,73497,2,0,P|182:298|103:245,1,198.000000797272,8|2,0:0|0:3,0:0:0:0:
68,151,74114,1,0,3:0:0:0:
214,122,74319,6,0,P|301:159|380:106,1,198.000000797272,2|2,0:0|0:3,0:0:0:0:
415,12,74935,1,0,0:0:0:0:
467,151,75141,2,0,L|458:250,2,99.0000003986359,8|0|2,0:0|0:0|0:3,0:0:0:0:
504,58,75757,1,0,0:0:0:0:
292,58,75963,6,0,L|310:256,1,198.000000797272,2|2,3:2|0:3,0:0:0:0:
254,337,76579,2,0,P|300:355|349:347,1,99.0000003986359,0|8,0:0|0:0,0:0:0:0:
471,228,76990,1,2,0:0:0:0:
209,249,77196,1,2,0:3:0:0:
349,347,77401,1,2,0:0:0:0:
400,159,77607,6,0,P|375:201|374:250,2,99.0000003986359,0|8|2,3:0|0:0|0:0,0:0:0:0:
471,228,78223,1,2,0:0:0:0:
431,62,78429,1,8,0:0:0:0:
260,48,78634,1,2,0:0:0:0:
195,207,78840,1,8,0:0:0:0:
324,317,79045,1,8,0:0:0:0:
272,146,79251,6,0,P|185:109|106:162,1,198.000000797272,4|8,3:2|0:0,0:0:0:0:
286,243,79867,2,0,L|279:342,2,99.0000003986359,4|0|0,0:0|0:0|3:0,0:0:0:0:
426,101,80483,2,0,L|440:299,1,198.000000797272,8|0,0:0|3:0,0:0:0:0:
373,372,81100,1,8,0:0:0:0:
195,207,81305,2,0,L|184:355,1,148.500000597954,2|8,0:0|0:0,0:0:0:0:
183,382,81716,5,8,0:0:0:0:
287,236,81922,1,8,0:0:0:0:
140,130,82127,1,8,0:0:0:0:
183,382,82333,1,8,0:0:0:0:
195,207,82538,6,0,P|304:140|378:262,2,269.999992847443,2|2|0,0:0|0:0|0:0,0:0:0:0:
287,235,84593,6,0,L|312:39,1,179.999995231629,2|0,0:0|0:0,0:0:0:0:
390,0,85209,1,0,0:0:0:0:
478,175,85620,1,0,0:0:0:0:
256,192,85826,12,2,89114,0:0:0:0:
