osu file format v14

[General]
AudioFilename: aotonatsu.mp3
AudioLeadIn: 0
PreviewTime: 47427
Countdown: 0
SampleSet: Soft
StackLeniency: 0.7
Mode: 2
LetterboxInBreaks: 0
WidescreenStoryboard: 1

[Editor]
Bookmarks: 2751,13292,23670,34049,71670,73616
DistanceSpacing: 1.5
BeatDivisor: 4
GridSize: 4
TimelineZoom: 2.1

[Metadata]
Title:Ao to Natsu
TitleUnicode:青と夏
Artist:Mrs. GREEN APPLE
ArtistUnicode:Mrs. GREEN APPLE
Creator:Sakary
Version:AJamez's Salad
Source:青夏 きみに恋した30日
Tags:blue and summer short ost ao-natsu: kimi ni koi shita nichi attitude j-pop jpop japanese popミセスグリーンアップル motoki omori 大森元貴 hiroto wakai 若井滉斗 ayaka yamanaka 山中綾華 ryoka fujisawa 藤澤涼架 kiyokatsu takano 髙野清宗 hi_hello alienflybot autofanboy ajamez -hex- afb jemzuu
BeatmapID:1793735
BeatmapSetID:813452

[Difficulty]
HPDrainRate:4
CircleSize:3
OverallDifficulty:7
ApproachRate:7
SliderMultiplier:1.3
SliderTickRate:1

[Events]
//Background and Video events
0,0,"aotonatsubg2.jpg",0,0
//Break Periods
//Storyboard Layer 0 (Background)
//Storyboard Layer 1 (Fail)
//Storyboard Layer 2 (Pass)
//Storyboard Layer 3 (Foreground)
//Storyboard Sound Samples

[TimingPoints]
2995,324.324324324324,4,2,2,50,1,0
12724,-100,4,2,1,50,0,0
13049,-100,4,2,1,50,0,0
13373,-100,4,2,1,60,0,0
23751,-100,4,2,2,50,0,0
28292,-100,4,2,2,60,0,0
28940,-100,4,2,2,50,0,0
33157,-100,4,2,1,70,0,0
34130,-100,4,2,1,60,0,0
41913,-100,4,2,1,60,0,0
47103,-100,4,3,1,60,0,0
47751,324.324324324324,4,2,9,70,1,1
47832,-100,4,2,1,70,0,1
47994,-100,4,2,1,70,0,1
48076,-100,4,2,1,70,0,1
48319,-100,4,2,1,70,0,1
48400,-100,4,2,1,70,0,1
48643,-100,4,2,1,70,0,1
48724,-100,4,2,1,70,0,1
48967,-100,4,2,1,70,0,1
49049,-100,4,2,1,70,0,1
50589,-100,4,2,1,70,0,1
50670,-100,4,2,1,70,0,1
50913,-100,4,2,1,70,0,1
50994,-100,4,2,1,70,0,1
51562,-100,4,2,1,5,0,1
51643,-100,4,2,1,70,0,1
53184,-100,4,2,1,70,0,1
53265,-100,4,2,1,70,0,1
53508,-100,4,2,1,70,0,1
53589,-100,4,2,1,70,0,1
53832,-100,4,2,1,70,0,1
53913,-100,4,2,1,70,0,1
54157,-100,4,2,1,70,0,1
54238,-100,4,2,1,70,0,1
55778,-100,4,2,1,70,0,1
55859,-100,4,2,1,70,0,1
56103,-100,4,2,1,70,0,1
56184,-100,4,2,1,70,0,1
56751,-100,4,2,1,70,0,1
56832,-100,4,2,1,70,0,1
57480,-100,4,2,1,70,0,0
58129,-100,4,2,9,90,0,1
58211,-100,4,2,1,70,0,1
58373,-100,4,2,1,70,0,1
58454,-100,4,2,1,70,0,1
58697,-100,4,2,1,70,0,1
58778,-100,4,2,1,70,0,1
59022,-100,4,2,1,70,0,1
59103,-100,4,2,1,70,0,1
59346,-100,4,2,1,70,0,1
59427,-100,4,2,1,70,0,1
60967,-100,4,2,1,70,0,1
61049,-100,4,2,1,70,0,1
61292,-100,4,2,1,70,0,1
61373,-100,4,2,1,70,0,1
61616,-100,4,2,1,70,0,1
61697,-100,4,2,1,70,0,1
61940,-100,4,2,1,70,0,1
62022,-100,4,2,1,70,0,1
68507,-100,4,2,0,70,0,0
70453,-100,4,2,9,70,0,0
70778,-100,4,2,0,70,0,0
73049,-100,4,2,0,30,0,0
73696,-100,4,2,9,90,0,1
73859,-100,4,2,1,70,0,0
83426,-100,4,2,1,20,0,0
83588,-100,4,2,1,35,0,0
83750,-100,4,2,1,55,0,0
83913,-100,4,2,1,75,0,0
84075,-100,4,2,9,100,0,1
84399,-100,4,2,1,90,0,1
88940,-100,4,2,1,90,0,0
89264,-100,4,2,9,90,0,1
89588,-100,4,2,1,90,0,1
92994,-100,4,2,1,90,0,0
93156,-100,4,2,9,70,0,1
93318,-100,4,2,9,40,0,0

[Colours]
Combo1 : 192,192,192
Combo2 : 0,128,255
Combo3 : 255,0,0

[HitObjects]
148,329,2831,6,0,L|154:273,1,32.5,0|0,0:0|0:0,0:0:0:0:
181,247,2994,6,0,L|309:212,1,130,12|8,0:0|0:0,0:0:0:0:
450,139,3642,2,0,L|318:99,1,130,8|8,0:0|0:0,0:0:0:0:
175,102,4291,2,0,P|236:128|280:206,1,130,10|8,0:0|0:0,0:0:0:0:
125,225,4939,1,8,0:0:0:0:
117,288,5103,1,0,0:0:0:0:
151,342,5265,1,8,0:0:0:0:
425,364,5589,6,0,P|418:313|386:229,1,130,12|8,0:0|0:0,0:0:0:0:
243,159,6238,2,0,P|274:128|372:102,1,130,10|8,0:0|0:0,0:0:0:0:
204,284,6886,2,0,P|173:253|75:227,1,130,8|8,0:0|0:0,0:0:0:0:
90,167,7373,1,2,0:0:0:0:
263,65,7697,1,0,0:0:0:0:
271,128,7859,1,2,0:0:0:0:
237,182,8022,1,10,0:0:0:0:
68,229,8184,6,0,P|46:261|66:357,1,130,14|8,0:0|0:0,0:0:0:0:
202,216,8832,2,0,P|192:162|130:115,1,130,10|8,0:0|0:0,0:0:0:0:
268,60,9481,1,10,0:0:0:0:
396,124,9805,1,8,0:0:0:0:
338,151,9967,1,0,0:0:0:0:
316,211,10130,1,10,0:0:0:0:
343,268,10292,1,0,0:0:0:0:
401,291,10453,1,8,0:0:0:0:
139,358,10778,6,0,L|117:203,1,130,14|8,0:0|0:0,0:0:0:0:
301,155,11427,2,0,L|324:13,1,130,8|4,0:0|0:0,0:0:0:0:
165,38,12076,5,8,0:0:0:0:
220,68,12238,1,8,0:0:0:0:
238,128,12400,1,8,0:0:0:0:
207,184,12562,1,8,0:0:0:0:
146,201,12724,1,8,0:0:0:0:
16,226,13049,1,0,0:0:0:0:
289,346,13373,6,0,P|290:297|252:213,1,130,6|10,0:0|0:0,0:0:0:0:
375,157,14022,1,2,0:0:0:0:
255,98,14346,1,10,0:0:0:0:
125,81,14670,2,0,L|275:33,1,130,0|10,0:0|0:0,0:0:0:0:
386,218,15319,2,0,L|236:170,1,130,2|10,0:0|0:0,0:0:0:0:
330,231,15805,1,0,0:0:0:0:
495,322,15967,6,0,P|490:255|470:173,1,130,2|10,0:0|0:0,0:0:0:0:
346,127,16616,1,2,0:0:0:0:
475,64,16940,1,10,0:0:0:0:
333,24,17265,2,0,L|190:-4,2,130,2|8|2,0:0|0:0|0:0,0:0:0:0:
346,85,18075,1,0,0:0:0:0:
297,112,18237,1,10,0:0:0:0:
23,263,18562,6,0,P|42:303|123:340,1,130,6|8,0:0|0:0,0:0:0:0:
262,324,19211,1,2,0:0:0:0:
131,226,19535,1,10,0:0:0:0:
287,182,19859,2,0,L|294:37,1,130,2|8,0:0|0:0,0:0:0:0:
449,219,20508,2,0,L|456:364,1,130,0|10,0:0|0:0,0:0:0:0:
181,346,21157,5,10,0:0:0:0:
323,314,21481,2,0,P|370:254|321:207,1,130,8|8,0:0|0:0,0:0:0:0:
272,168,21967,1,2,0:0:0:0:
348,129,22130,1,8,0:0:0:0:
68,182,22454,6,0,L|86:33,1,130,14|14,0:0|0:0,0:0:0:0:
235,252,23103,1,8,0:0:0:0:
185,292,23265,1,2,0:0:0:0:
122,308,23427,1,10,0:0:0:0:
397,359,23751,6,0,L|406:209,1,130,12|8,0:0|0:0,0:0:0:0:
271,158,24400,1,8,0:0:0:0:
391,91,24724,2,0,L|374:8,1,65,8|0,0:0|0:0,0:0:0:0:
319,1,25049,2,0,L|176:-19,1,130,8|8,0:0|0:0,0:0:0:0:
55,136,25697,2,0,L|198:116,1,130,8|10,0:0|0:0,0:0:0:0:
30,260,26346,6,0,P|30:298|81:380,1,130,8|8,0:0|0:0,0:0:0:0:
204,365,26994,2,0,L|49:377,1,130,8|8,0:0|0:0,0:0:0:0:
139,291,27481,1,0,0:0:0:0:
209,225,27643,2,0,L|342:181,1,130,8|10,0:0|0:0,0:0:0:0:
192,123,28292,2,0,L|74:87,2,97.5,8|8|8,0:0|0:0|0:0,0:0:0:0:
370,194,28940,6,0,P|398:238|377:337,1,130,12|8,0:0|0:0,0:0:0:0:
252,371,29589,1,8,0:0:0:0:
110,324,29913,2,0,L|31:299,1,65,8|0,0:0|0:0,0:0:0:0:
107,232,30238,2,0,L|239:197,1,130,8|8,0:0|0:0,0:0:0:0:
96,116,30886,2,0,L|237:75,1,130,8|10,0:0|0:0,0:0:0:0:
155,53,31373,1,0,0:0:0:0:
81,57,31535,6,0,P|66:102|65:203,1,130,8|8,0:0|0:0,0:0:0:0:
217,205,32184,2,0,L|223:344,1,130,8|8,0:0|0:0,0:0:0:0:
377,382,32832,1,8,0:0:0:0:
205,233,33157,2,0,P|270:174|318:161,1,130,8|8,0:0|0:0,0:0:0:0:
257,123,33643,1,8,0:0:0:0:
195,106,33805,1,8,0:0:0:0:
477,60,34131,6,0,P|473:112|446:195,1,130,6|8,0:0|0:0,0:0:0:0:
305,269,34778,1,0,0:0:0:0:
143,354,35103,2,0,L|138:278,1,65,8|0,0:0|0:0,0:0:0:0:
201,222,35427,2,0,P|274:171|335:170,1,130,2|8,0:0|0:0,0:0:0:0:
154,103,36076,2,0,P|103:77|12:65,1,130,0|8,0:0|0:0,0:0:0:0:
318,292,36724,6,0,L|459:318,2,130,6|8|0,0:0|0:0|0:0,0:0:0:0:
166,271,37697,1,8,0:0:0:0:
198,215,37859,1,0,0:0:0:0:
257,190,38022,2,0,L|398:166,1,130,2|8,0:0|0:0,0:0:0:0:
244,94,38670,2,0,L|384:69,1,130,0|8,0:0|0:0,0:0:0:0:
211,350,39319,6,0,L|77:375,1,130,2|8,0:0|0:0,0:0:0:0:
226,246,39967,2,0,P|214:162|182:95,1,130,0|8,0:0|0:0,0:0:0:0:
125,90,40454,1,0,0:0:0:0:
54,74,40616,2,0,P|28:31|67:-57,1,130,2|8,0:0|0:0,0:0:0:0:
205,242,41265,2,0,L|66:275,1,130,0|0,0:0|0:0,0:0:0:0:
362,343,41913,6,0,L|347:199,1,130,4|8,0:0|0:0,0:0:0:0:
485,180,42562,1,0,0:0:0:0:
448,124,42724,1,0,0:0:0:0:
382,100,42886,1,8,0:0:0:0:
214,105,43211,2,0,L|344:69,1,130,0|8,0:0|0:0,0:0:0:0:
210,259,43859,1,0,0:0:0:0:
349,286,44184,1,8,0:0:0:0:
59,374,44508,6,0,L|33:220,1,130,14|10,0:0|0:0,0:0:0:0:
297,210,45157,2,0,L|312:70,1,130,10|10,0:0|0:0,0:0:0:0:
21,71,45805,6,0,L|154:36,1,130,14|10,0:0|0:0,0:0:0:0:
221,4,46292,1,0,0:0:0:0:
143,128,46454,1,10,0:0:0:0:
97,171,46616,1,0,0:0:0:0:
101,234,46778,1,10,0:0:0:0:
151,271,46940,1,0,0:0:0:0:
215,274,47102,1,8,0:0:0:0:
85,348,47427,1,8,0:0:0:0:
379,367,47751,6,0,L|357:229,1,130,14|8,0:0|0:0,0:0:0:0:
182,173,48399,2,0,L|196:32,1,130,2|10,0:0|0:0,0:0:0:0:
461,71,49048,2,0,L|328:121,1,130,2|10,0:0|0:0,0:0:0:0:
181,198,49696,1,2,0:0:0:0:
340,306,50021,1,10,0:0:0:0:
73,367,50345,6,0,L|56:230,1,130,2|10,0:0|0:0,0:0:0:0:
212,155,50993,2,0,L|66:111,1,130,2|10,0:0|0:0,0:0:0:0:
352,38,51642,2,0,P|376:96|352:173,1,130,2|10,0:0|0:0,0:0:0:0:
282,212,52129,1,2,0:0:0:0:
194,252,52291,2,0,P|165:287|193:376,1,130,2|10,0:0|0:0,0:0:0:0:
461,355,52939,6,0,L|323:312,1,130,6|10,0:0|0:0,0:0:0:0:
201,267,53587,1,2,0:0:0:0:
142,245,53749,1,0,0:0:0:0:
128,184,53913,1,10,0:0:0:0:
405,113,54237,6,0,P|433:152|447:235,1,130,2|10,0:0|0:0,0:0:0:0:
280,251,54885,2,0,P|252:290|238:373,1,130,2|10,0:0|0:0,0:0:0:0:
491,160,55534,2,0,L|344:135,2,130,2|10|0,0:0|0:0|0:0,0:0:0:0:
342,75,56507,1,8,0:0:0:0:
498,45,56831,5,10,0:0:0:0:
356,45,57156,2,0,L|284:60,1,65,10|2,0:0|0:0,0:0:0:0:
225,140,57480,2,0,L|362:162,1,130,2|2,0:0|1:0,0:0:0:0:
81,349,58129,6,0,P|41:293|67:214,1,130,6|8,0:0|0:0,0:0:0:0:
203,182,58777,2,0,P|294:156|314:106,1,130,2|10,0:0|0:0,0:0:0:0:
30,64,59426,2,0,L|168:22,1,130,2|8,0:0|0:0,0:0:0:0:
287,149,60075,1,2,0:0:0:0:
153,277,60399,1,10,0:0:0:0:
421,379,60723,6,0,P|365:333|296:311,1,130,2|10,0:0|0:0,0:0:0:0:
467,244,61371,2,0,L|478:175,2,65,2|0|10,0:0|0:0|0:0,0:0:0:0:
205,191,62020,2,0,P|195:94|227:60,1,130,2|8,0:0|0:0,0:0:0:0:
364,52,62668,1,2,0:0:0:0:
426,67,62832,1,0,0:0:0:0:
361,101,62994,1,10,0:0:0:0:
59,347,63318,6,0,L|193:380,1,130,8|8,0:0|0:0,0:0:0:0:
333,236,63966,2,0,L|198:273,1,130,8|8,0:0|0:0,0:0:0:0:
356,140,64615,1,10,0:0:0:0:
208,117,64939,1,8,0:0:0:0:
50,171,65264,2,0,L|74:318,1,130,10|8,0:0|0:0,0:0:0:0:
365,358,65912,6,0,L|223:386,1,130,10|8,0:0|0:0,0:0:0:0:
393,276,66561,2,0,P|476:222|481:171,1,130,10|8,0:0|0:0,0:0:0:0:
212,121,67210,2,0,P|144:80|154:16,1,130,10|8,0:0|0:0,0:0:0:0:
301,301,67858,1,10,0:0:0:0:
250,259,68020,1,8,0:0:0:0:
188,245,68182,1,8,0:0:0:0:
470,124,68507,6,0,L|325:106,2,130,4|0|4,0:0|0:0|3:0,0:0:0:0:
365,289,69480,1,0,0:0:0:0:
68,337,69804,6,0,P|155:338|248:253,1,195,4|0,0:0|0:0,0:0:0:0:
172,200,70453,2,0,L|24:178,1,130,2|0,0:0|0:0,0:0:0:0:
330,157,71102,6,0,L|332:0,1,130,4|0,0:0|0:0,0:0:0:0:
46,282,71750,2,0,L|144:191,1,130,4|0,0:0|0:0,0:0:0:0:
294,118,72399,5,2,0:0:0:0:
233,138,72561,1,0,0:0:0:0:
207,196,72723,1,2,0:0:0:0:
231,254,72885,1,0,0:0:0:0:
290,276,73048,2,0,L|439:274,1,130,2|0,0:0|0:0,0:0:0:0:
152,373,73696,6,0,L|132:237,1,130,6|10,0:0|0:0,0:0:0:0:
281,185,74345,1,2,0:0:0:0:
230,145,74507,1,0,0:0:0:0:
166,138,74669,1,10,0:0:0:0:
15,42,74994,6,0,L|151:17,1,130,0|10,0:0|0:0,0:0:0:0:
301,62,75642,1,2,0:0:0:0:
136,50,75967,1,10,0:0:0:0:
420,159,76291,6,0,P|432:213|375:253,1,130,6|10,0:0|0:0,0:0:0:0:
221,348,76940,2,0,L|370:362,1,130,2|10,0:0|0:0,0:0:0:0:
186,253,77588,2,0,L|55:273,2,130,2|8|2,0:0|0:0|0:0,0:0:0:0:
245,237,78399,1,0,0:0:0:0:
256,176,78561,1,10,0:0:0:0:
205,141,78723,1,0,0:0:0:0:
47,116,78886,6,0,P|38:160|92:224,1,130,4|10,0:0|0:0,0:0:0:0:
237,284,79534,2,0,L|314:293,2,65,2|0|10,0:0|0:0|0:0,0:0:0:0:
389,375,80183,2,0,L|413:239,1,130,0|10,0:0|0:0,0:0:0:0:
250,206,80832,2,0,L|117:211,1,130,2|10,0:0|0:0,0:0:0:0:
400,71,81480,6,0,P|468:105|477:171,1,130,14|14,0:0|0:0,0:0:0:0:
325,196,82129,1,12,0:0:0:0:
262,205,82291,1,0,0:0:0:0:
228,258,82453,1,14,0:0:0:0:
246,318,82615,1,0,0:0:0:0:
409,349,82778,6,0,L|430:212,1,130,14|4,0:0|0:0,0:0:0:0:
274,158,83426,2,0,L|191:149,1,65,2|8,0:0|0:0,0:0:0:0:
289,113,83750,2,0,L|363:100,1,65,8|8,0:0|0:0,0:0:0:0:
194,59,84075,6,0,L|46:46,2,130,6|10|2,0:0|0:0|0:0,0:0:0:0:
32,142,85048,1,10,0:0:0:0:
195,171,85372,2,0,L|229:328,1,130,0|10,0:0|0:0,0:0:0:0:
373,348,86021,1,2,0:0:0:0:
391,287,86183,1,2,0:0:0:0:
356,235,86345,1,10,0:0:0:0:
293,230,86507,1,2,0:0:0:0:
130,265,86669,6,0,L|114:106,1,130,2|10,0:0|0:0,0:0:0:0:
283,103,87318,2,0,L|306:250,1,130,2|10,0:0|0:0,0:0:0:0:
153,273,87967,2,0,L|15:294,1,130,2|10,0:0|0:0,0:0:0:0:
92,324,88453,1,2,0:0:0:0:
172,329,88615,2,0,L|199:184,1,130,2|10,0:0|0:0,0:0:0:0:
480,69,89264,5,6,0:0:0:0:
399,167,89588,1,10,0:0:0:0:
274,194,89912,1,10,0:0:0:0:
433,272,90237,1,10,0:0:0:0:
150,353,90561,6,0,P|101:324|99:238,1,130,10|10,0:0|0:0,0:0:0:0:
250,237,91210,2,0,P|299:208|301:122,1,130,10|10,0:0|0:0,0:0:0:0:
42,50,91859,5,10,0:0:0:0:
20,108,92021,1,2,0:0:0:0:
53,162,92183,1,0,0:0:0:0:
115,169,92345,1,10,0:0:0:0:
201,184,92507,2,0,L|127:197,1,65,2|0,0:0|0:0,0:0:0:0:
54,272,92832,2,0,L|141:284,1,65,10|2,0:0|0:0,0:0:0:0:
279,308,93156,5,14,0:0:0:0:
256,192,93480,12,0,98345,0:0:0:0:
