osu file format v14

[General]
AudioFilename: aotonatsu.mp3
AudioLeadIn: 0
PreviewTime: 47427
Countdown: 0
SampleSet: Soft
StackLeniency: 0.7
Mode: 2
LetterboxInBreaks: 0
WidescreenStoryboard: 1

[Editor]
DistanceSpacing: 1.3
BeatDivisor: 4
GridSize: 4
TimelineZoom: 2.1

[Metadata]
Title:Ao to Natsu
TitleUnicode:青と夏
Artist:Mrs. GREEN APPLE
ArtistUnicode:Mrs. GREEN APPLE
Creator:Sakary
Version:AFB's Platter
Source:青夏 きみに恋した30日
Tags:blue and summer short ost ao-natsu: kimi ni koi shita nichi attitude j-pop jpop japanese popミセスグリーンアップル motoki omori 大森元貴 hiroto wakai 若井滉斗 ayaka yamanaka 山中綾華 ryoka fujisawa 藤澤涼架 kiyokatsu takano 髙野清宗 hi_hello alienflybot autofanboy ajamez -hex- afb jemzuu
BeatmapID:1793234
BeatmapSetID:813452

[Difficulty]
HPDrainRate:5
CircleSize:3.5
OverallDifficulty:8
ApproachRate:8
SliderMultiplier:1.45
SliderTickRate:1

[Events]
//Background and Video events
0,0,"aotonatsubg2.jpg",0,0
//Break Periods
//Storyboard Layer 0 (Background)
//Storyboard Layer 1 (Fail)
//Storyboard Layer 2 (Pass)
//Storyboard Layer 3 (Foreground)
//Storyboard Sound Samples

[TimingPoints]
2995,324.324324324324,4,2,2,50,1,0
12724,-100,4,2,1,50,0,0
13373,-100,4,2,1,60,0,0
23751,-100,4,2,2,50,0,0
28292,-100,4,2,2,60,0,0
28940,-100,4,2,2,50,0,0
33157,-100,4,2,1,70,0,0
34130,-100,4,2,1,60,0,0
41913,-100,4,2,1,60,0,0
47103,-100,4,3,1,60,0,0
47751,324.324324324324,4,2,9,70,1,1
47832,-100,4,2,1,70,0,1
48076,-100,4,2,1,70,0,1
51562,-100,4,2,1,5,0,1
51643,-100,4,2,1,70,0,1
57480,-100,4,2,1,70,0,0
58129,-100,4,2,9,90,0,1
58211,-100,4,2,1,70,0,1
68507,-100,4,2,0,70,0,0
70453,-100,4,2,9,70,0,0
70778,-100,4,2,0,70,0,0
73049,-100,4,2,0,30,0,0
73696,-100,4,2,9,90,0,1
73859,-100,4,2,1,70,0,0
83426,-100,4,2,1,20,0,0
83588,-100,4,2,1,35,0,0
83750,-100,4,2,1,55,0,0
83913,-100,4,2,1,75,0,0
84075,-100,4,2,9,100,0,1
84399,-100,4,2,1,90,0,1
88940,-100,4,2,1,90,0,0
89264,-100,4,2,9,90,0,1
89588,-100,4,2,1,90,0,1
92994,-100,4,2,1,90,0,0
93156,-100,4,2,9,70,0,1
93318,-100,4,2,9,40,0,0

[Colours]
Combo1 : 192,192,192
Combo2 : 0,128,255
Combo3 : 255,0,0

[HitObjects]
144,316,2832,5,0,0:0:0:0:
395,316,2995,2,0,P|394:246|337:204,1,145,12|8,0:0|0:0,0:0:0:0:
184,204,3643,2,0,P|184:134|241:92,1,145,8|8,0:0|0:0,0:0:0:0:
496,92,4292,5,10,0:0:0:0:
368,92,4616,2,0,L|352:162,1,72.5,8|0,0:0|0:0,0:0:0:0:
436,192,4940,1,8,0:0:0:0:
472,260,5103,1,0,0:0:0:0:
436,328,5265,1,8,0:0:0:0:
360,328,5427,1,0,0:0:0:0:
132,192,5589,6,0,P|75:233|74:303,1,145,12|8,0:0|0:0,0:0:0:0:
228,304,6238,2,0,P|284:262|284:192,1,145,10|8,0:0|0:0,0:0:0:0:
28,192,6886,5,8,0:0:0:0:
156,192,7211,2,0,L|172:122,1,72.5,8|2,0:0|0:0,0:0:0:0:
96,88,7535,1,0,0:0:0:0:
256,88,7697,2,0,L|328:88,2,72.5,0|2|10,0:0|0:0|0:0,0:0:0:0:
32,88,8184,6,0,P|32:157|88:199,1,145,14|8,0:0|0:0,0:0:0:0:
240,236,8832,2,0,L|95:236,1,145,10|8,0:0|0:0,0:0:0:0:
352,272,9481,1,10,0:0:0:0:
224,272,9805,6,0,L|208:202,1,72.5,8|0,0:0|0:0,0:0:0:0:
296,168,10130,2,0,L|312:98,1,72.5,10|0,0:0|0:0,0:0:0:0:
224,64,10454,2,0,L|296:64,1,72.5,8|0,0:0|0:0,0:0:0:0:
32,64,10778,6,0,P|32:133|88:175,1,145,14|8,0:0|0:0,0:0:0:0:
164,176,11265,2,0,L|236:176,2,72.5,0|8|0,0:0|0:0|0:0,0:0:0:0:
396,176,11751,6,0,P|452:217|452:287,1,145,4|8,0:0|0:0,0:0:0:0:
364,320,12238,1,8,0:0:0:0:
452,356,12400,2,0,L|488:356,2,36.25,8|8|8,0:0|0:0|0:0,0:0:0:0:
204,356,12724,1,8,0:0:0:0:
379,356,13373,6,0,P|420:301|379:247,1,145,6|10,0:0|0:0,0:0:0:0:
304,216,13859,1,0,0:0:0:0:
228,180,14022,2,0,P|187:125|228:71,1,145,2|10,0:0|0:0,0:0:0:0:
484,72,14670,6,0,L|500:142,1,72.5,0|0,0:0|0:0,0:0:0:0:
412,176,14994,2,0,L|396:246,1,72.5,10|0,0:0|0:0,0:0:0:0:
484,280,15319,2,0,L|339:280,1,145,2|10,0:0|0:0,0:0:0:0:
84,280,15967,6,0,P|84:211|140:169,1,145,2|10,0:0|0:0,0:0:0:0:
216,136,16454,1,0,0:0:0:0:
292,100,16616,2,0,L|147:100,1,145,2|10,0:0|0:0,0:0:0:0:
404,100,17265,6,0,L|420:170,1,72.5,2|0,0:0|0:0,0:0:0:0:
332,204,17589,2,0,L|316:274,1,72.5,8|0,0:0|0:0,0:0:0:0:
404,308,17913,1,2,0:0:0:0:
444,308,17994,1,0,0:0:0:0:
484,308,18076,1,0,0:0:0:0:
400,228,18238,1,10,0:0:0:0:
488,228,18400,1,0,0:0:0:0:
240,228,18562,6,0,L|167:228,2,72.5,6|0|8,0:0|0:0|0:0,0:0:0:0:
400,228,19211,2,0,P|400:159|344:117,1,145,2|10,0:0|0:0,0:0:0:0:
268,116,19697,1,0,0:0:0:0:
108,116,19859,5,2,0:0:0:0:
72,184,20022,1,0,0:0:0:0:
108,252,20184,1,8,0:0:0:0:
184,252,20346,1,0,0:0:0:0:
344,252,20508,2,0,L|416:252,2,72.5,0|0|10,0:0|0:0|0:0,0:0:0:0:
84,252,21157,6,0,L|68:182,1,72.5,10|0,0:0|0:0,0:0:0:0:
144,148,21481,1,8,0:0:0:0:
304,116,21643,1,2,0:0:0:0:
232,96,21805,1,8,0:0:0:0:
160,76,21967,1,2,0:0:0:0:
312,76,22292,2,0,L|348:76,2,36.25,2|2|14,0:0|0:0|0:0,0:0:0:0:
232,76,22616,1,0,0:0:0:0:
456,76,22778,5,14,0:0:0:0:
328,112,23103,2,0,L|312:182,1,72.5,8|2,0:0|0:0,0:0:0:0:
400,216,23427,2,0,L|415:286,1,72.5,10|10,0:0|0:0,0:0:0:0:
152,292,23751,6,0,P|82:279|43:220,1,145,12|8,0:0|0:0,0:0:0:0:
204,220,24400,2,0,P|273:206|312:147,1,145,8|8,0:0|0:0,0:0:0:0:
232,112,24886,1,0,0:0:0:0:
72,148,25049,6,0,L|56:78,1,72.5,8|0,0:0|0:0,0:0:0:0:
144,112,25373,2,0,L|160:42,1,72.5,8|0,0:0|0:0,0:0:0:0:
72,4,25697,2,0,L|217:4,1,145,8|10,0:0|0:0,0:0:0:0:
476,4,26346,6,0,P|476:73|420:115,1,145,8|8,0:0|0:0,0:0:0:0:
260,116,26994,2,0,P|260:185|316:227,1,145,8|8,0:0|0:0,0:0:0:0:
396,264,27481,1,0,0:0:0:0:
236,264,27643,6,0,L|163:264,1,72.5,8|0,0:0|0:0,0:0:0:0:
248,340,27967,2,0,L|175:340,1,72.5,10|0,0:0|0:0,0:0:0:0:
16,340,28292,2,0,L|124:340,2,108.75,8|8|8,0:0|0:0|0:0,0:0:0:0:
264,340,28940,6,0,P|334:327|373:268,1,145,12|8,0:0|0:0,0:0:0:0:
212,268,29589,2,0,P|142:255|103:196,1,145,8|8,0:0|0:0,0:0:0:0:
184,160,30075,1,0,0:0:0:0:
344,196,30238,6,0,L|360:126,1,72.5,8|0,0:0|0:0,0:0:0:0:
272,160,30562,2,0,L|256:90,1,72.5,8|0,0:0|0:0,0:0:0:0:
344,60,30886,2,0,L|489:60,1,145,8|10,0:0|0:0,0:0:0:0:
232,60,31535,6,0,P|175:101|175:171,1,145,8|8,0:0|0:0,0:0:0:0:
336,172,32184,2,0,P|392:213|392:283,1,145,8|8,0:0|0:0,0:0:0:0:
312,320,32670,1,0,0:0:0:0:
152,284,32832,2,0,L|136:214,1,72.5,8|0,0:0|0:0,0:0:0:0:
376,216,33157,6,0,P|417:161|376:107,1,145,8|8,0:0|0:0,0:0:0:0:
296,108,33643,1,8,0:0:0:0:
216,108,33805,1,8,0:0:0:0:
136,108,33967,1,8,0:0:0:0:
384,72,34130,6,0,P|441:113|441:183,1,145,6|8,0:0|0:0,0:0:0:0:
280,216,34778,2,0,L|425:216,1,145,0|8,0:0|0:0,0:0:0:0:
344,252,35265,1,0,0:0:0:0:
184,216,35427,6,0,L|168:146,1,72.5,2|0,0:0|0:0,0:0:0:0:
256,144,35751,2,0,L|272:74,1,72.5,8|0,0:0|0:0,0:0:0:0:
112,40,36076,2,0,L|39:40,2,72.5,0|0|8,0:0|0:0|0:0,0:0:0:0:
368,40,36724,6,0,P|328:98|259:111,1,145,6|8,0:0|0:0,0:0:0:0:
100,112,37373,2,0,P|139:170|208:183,1,145,0|8,0:0|0:0,0:0:0:0:
288,184,37859,1,0,0:0:0:0:
448,184,38022,5,2,0:0:0:0:
484,252,38185,1,0,0:0:0:0:
448,320,38347,1,8,0:0:0:0:
372,320,38509,1,0,0:0:0:0:
212,320,38670,2,0,L|196:250,1,72.5,0|0,0:0|0:0,0:0:0:0:
284,216,38994,1,8,0:0:0:0:
52,216,39319,6,0,P|52:146|109:105,1,145,2|8,0:0|0:0,0:0:0:0:
268,72,39967,2,0,L|123:72,1,145,0|8,0:0|0:0,0:0:0:0:
204,40,40454,1,0,0:0:0:0:
364,40,40616,2,0,L|436:40,2,72.5,2|0|8,0:0|0:0|0:0,0:0:0:0:
204,40,41265,5,0,0:0:0:0:
364,40,41589,2,0,L|436:40,1,72.5,0|0,0:0|0:0,0:0:0:0:
176,112,41913,6,0,P|135:167|176:221,1,145,4|8,0:0|0:0,0:0:0:0:
336,252,42562,1,0,0:0:0:0:
256,252,42724,1,0,0:0:0:0:
176,252,42886,1,8,0:0:0:0:
336,288,43211,6,0,L|352:218,1,72.5,0|0,0:0|0:0,0:0:0:0:
264,184,43535,2,0,L|248:114,1,72.5,8|0,0:0|0:0,0:0:0:0:
408,148,43859,1,0,0:0:0:0:
444,80,44022,1,0,0:0:0:0:
408,12,44184,1,8,0:0:0:0:
328,12,44346,1,0,0:0:0:0:
56,12,44508,6,0,P|56:82|113:123,1,145,14|10,0:0|0:0,0:0:0:0:
256,156,45157,2,0,L|111:156,1,145,10|10,0:0|0:0,0:0:0:0:
200,192,45643,1,0,0:0:0:0:
456,192,45805,5,14,0:0:0:0:
492,260,45968,1,0,0:0:0:0:
456,328,46130,1,10,0:0:0:0:
380,328,46292,1,0,0:0:0:0:
220,328,46454,1,10,0:0:0:0:
212,292,46535,1,0,0:0:0:0:
204,256,46616,1,0,0:0:0:0:
292,256,46778,1,10,0:0:0:0:
300,220,46859,1,0,0:0:0:0:
308,184,46940,1,0,0:0:0:0:
76,184,47103,5,8,0:0:0:0:
220,184,47427,2,0,L|292:184,1,72.5,8|4,0:0|0:0,0:0:0:0:
44,184,47751,6,0,P|3:129|44:75,1,145,14|8,0:0|0:0,0:0:0:0:
204,76,48400,2,0,P|245:131|204:185,1,145,2|8,0:0|0:0,0:0:0:0:
124,188,48886,1,0,0:0:0:0:
284,188,49049,6,0,L|300:258,1,72.5,2|0,0:0|0:0,0:0:0:0:
212,292,49373,2,0,L|139:292,2,72.5,10|0|2,0:0|0:0|0:0,0:0:0:0:
468,292,50022,1,8,0:0:0:0:
340,292,50346,6,0,L|324:222,1,72.5,2|0,0:0|0:0,0:0:0:0:
412,188,50669,1,10,0:0:0:0:
324,188,50832,1,0,0:0:0:0:
412,152,50994,2,0,L|484:152,2,72.5,2|0|10,0:0|0:0|0:0,0:0:0:0:
156,152,51643,1,2,0:0:0:0:
284,152,51967,6,0,L|356:152,2,72.5,10|2|2,0:0|0:0|0:0,0:0:0:0:
28,152,52616,2,0,L|12:82,1,72.5,10|0,0:0|0:0,0:0:0:0:
256,80,52940,6,0,P|297:135|256:189,1,145,6|10,0:0|0:0,0:0:0:0:
96,188,53589,2,0,P|55:243|96:297,1,145,2|8,0:0|0:0,0:0:0:0:
176,296,54076,1,0,0:0:0:0:
328,296,54238,5,2,0:0:0:0:
364,228,54399,1,0,0:0:0:0:
328,160,54561,1,10,0:0:0:0:
252,160,54723,1,0,0:0:0:0:
328,160,54886,1,2,0:0:0:0:
168,160,55211,2,0,L|152:90,1,72.5,10|0,0:0|0:0,0:0:0:0:
376,92,55535,6,0,P|446:105|485:164,1,145,2|8,0:0|0:0,0:0:0:0:
324,164,56183,2,0,P|254:177|215:236,1,145,2|8,0:0|0:0,0:0:0:0:
296,268,56670,1,0,0:0:0:0:
72,304,56832,5,10,0:0:0:0:
20,244,56994,1,0,0:0:0:0:
0,168,57157,1,10,0:0:0:0:
20,92,57319,1,2,0:0:0:0:
72,32,57480,2,0,L|217:32,1,145,10|2,0:0|1:0,0:0:0:0:
136,64,57967,1,0,0:0:0:0:
384,64,58129,6,0,P|384:133|328:175,1,145,6|8,0:0|0:0,0:0:0:0:
168,204,58778,2,0,L|313:204,1,145,2|10,0:0|0:0,0:0:0:0:
392,204,59265,1,0,0:0:0:0:
232,240,59427,6,0,L|216:310,1,72.5,2|0,0:0|0:0,0:0:0:0:
304,340,59751,2,0,L|376:340,2,72.5,8|0|2,0:0|0:0|0:0,0:0:0:0:
52,340,60400,1,10,0:0:0:0:
180,340,60724,6,0,L|252:340,2,72.5,2|0|10,0:0|0:0|0:0,0:0:0:0:
340,340,61373,2,0,L|356:270,1,72.5,2|0,0:0|0:0,0:0:0:0:
268,240,61697,2,0,L|252:170,1,72.5,10|0,0:0|0:0,0:0:0:0:
412,140,62022,6,0,P|453:195|412:249,1,145,2|8,0:0|0:0,0:0:0:0:
332,248,62508,1,2,0:0:0:0:
108,248,62669,2,0,L|92:318,1,72.5,2|0,0:0|0:0,0:0:0:0:
180,352,62994,2,0,L|108:352,1,72.5,10|0,0:0|0:0,0:0:0:0:
348,376,63319,6,0,P|418:363|457:304,1,145,12|8,0:0|0:0,0:0:0:0:
368,272,63805,1,0,0:0:0:0:
280,240,63967,2,8,P|320:181|389:168,1,145
132,272,64615,6,8,P|74:230|62:161,1,145,10|8,0:0|0:0,0:0:0:0:
152,128,65102,2,0,L|168:58,1,72.5,2|8,0:0|0:0,0:0:0:0:
8,20,65588,1,8,0:0:0:0:
264,20,65913,6,8,P|321:61|333:130,1,145,10|8,0:0|0:0,0:0:0:0:
244,168,66400,1,0,0:0:0:0:
164,200,66562,2,8,L|19:200,1,145,10|8,0:0|0:0,0:0:0:0:
276,280,67211,5,10,0:0:0:0:
132,280,67535,1,8,0:0:0:0:
400,280,67859,1,10,0:0:0:0:
436,212,68022,1,8,0:0:0:0:
400,144,68184,1,8,0:0:0:0:
324,144,68346,1,8,0:0:0:0:
100,144,68508,5,4,0:0:0:0:
288,144,69157,1,4,3:0:0:0:
160,144,69481,2,0,L|144:214,1,72.5,0|0,0:0|0:0,0:0:0:0:
412,216,69805,5,4,0:0:0:0:
224,216,70454,1,2,0:0:0:0:
352,216,70778,2,0,L|367:145,1,72.5,0|0,0:0|0:0,0:0:0:0:
120,216,71103,6,0,P|50:203|11:144,1,145,4|0,0:0|0:0,0:0:0:0:
268,148,71751,2,0,P|338:135|377:76,1,145,4|0,0:0|0:0,0:0:0:0:
216,76,72400,5,2,0:0:0:0:
472,76,72723,2,0,L|399:76,1,72.5,2|0,0:0|0:0,0:0:0:0:
124,4,73049,1,2,0:0:0:0:
388,4,73696,6,0,P|386:74|330:115,1,145,6|10,0:0|0:0,0:0:0:0:
256,152,74183,1,0,0:0:0:0:
180,188,74345,2,0,L|325:188,1,145,2|10,0:0|0:0,0:0:0:0:
68,156,74994,6,0,L|52:226,1,72.5,0|0,0:0|0:0,0:0:0:0:
140,260,75318,2,0,L|156:330,1,72.5,10|0,0:0|0:0,0:0:0:0:
68,368,75642,2,0,P|11:326|10:256,1,145,2|10,0:0|0:0,0:0:0:0:
268,220,76291,6,0,L|413:220,1,145,6|10,0:0|0:0,0:0:0:0:
336,184,76778,1,0,0:0:0:0:
260,152,76940,2,0,L|115:152,1,145,2|10,0:0|0:0,0:0:0:0:
372,224,77588,6,0,L|388:154,1,72.5,2|0,0:0|0:0,0:0:0:0:
300,116,77913,2,0,L|284:46,1,72.5,8|2,0:0|0:0,0:0:0:0:
372,8,78237,2,0,L|299:8,1,72.5,2|0,0:0|0:0,0:0:0:0:
140,8,78561,2,0,L|67:8,1,72.5,10|0,0:0|0:0,0:0:0:0:
300,44,78886,6,0,L|445:44,1,145,4|10,0:0|0:0,0:0:0:0:
368,76,79372,1,0,0:0:0:0:
292,112,79534,2,0,P|293:182|350:223,1,145,2|10,0:0|0:0,0:0:0:0:
96,188,80183,6,0,L|168:188,1,72.5,0|0,0:0|0:0,0:0:0:0:
256,224,80507,2,0,L|183:224,1,72.5,10|0,0:0|0:0,0:0:0:0:
96,224,80832,2,0,P|56:278|97:332,1,145,2|10,0:0|0:0,0:0:0:0:
352,368,81480,6,0,L|368:298,1,72.5,14|0,0:0|0:0,0:0:0:0:
208,264,81805,2,0,L|192:194,1,72.5,14|0,0:0|0:0,0:0:0:0:
352,228,82129,1,12,0:0:0:0:
396,216,82210,1,0,0:0:0:0:
428,184,82291,1,0,0:0:0:0:
440,140,82372,1,0,0:0:0:0:
428,96,82453,1,14,0:0:0:0:
396,64,82534,1,0,0:0:0:0:
352,52,82615,1,0,0:0:0:0:
128,52,82778,6,0,L|55:52,1,72.5,14|2,0:0|0:0,0:0:0:0:
216,88,83102,2,0,L|288:88,1,72.5,4|2,0:0|0:0,0:0:0:0:
128,124,83426,1,2,0:0:0:0:
216,124,83588,1,8,0:0:0:0:
128,160,83750,1,8,0:0:0:0:
92,160,83832,1,8,0:0:0:0:
56,160,83913,1,8,0:0:0:0:
348,160,84075,6,0,P|404:201|406:271,1,145,6|10,0:0|0:0,0:0:0:0:
332,304,84561,1,0,0:0:0:0:
256,336,84723,2,0,P|199:294|197:224,1,145,2|10,0:0|0:0,0:0:0:0:
452,192,85372,6,0,L|468:122,1,72.5,0|0,0:0|0:0,0:0:0:0:
392,88,85696,2,0,L|247:88,1,145,10|2,0:0|0:0,0:0:0:0:
324,56,86183,1,2,0:0:0:0:
400,24,86345,2,0,L|328:24,1,72.5,10|2,0:0|0:0,0:0:0:0:
104,24,86669,6,0,P|105:94|161:135,1,145,2|10,0:0|0:0,0:0:0:0:
240,168,87156,1,0,0:0:0:0:
316,200,87318,2,0,P|372:241|373:311,1,145,2|10,0:0|0:0,0:0:0:0:
116,348,87967,6,0,L|100:278,1,72.5,2|0,0:0|0:0,0:0:0:0:
188,244,88291,2,0,L|204:174,1,72.5,10|2,0:0|0:0,0:0:0:0:
44,140,88615,1,2,0:0:0:0:
8,72,88778,1,0,0:0:0:0:
44,4,88940,1,10,0:0:0:0:
120,4,89102,1,0,0:0:0:0:
348,4,89264,6,0,P|346:74|290:115,1,145,6|10,0:0|0:0,0:0:0:0:
216,152,89750,1,0,0:0:0:0:
292,188,89913,2,0,L|437:188,1,145,10|10,0:0|0:0,0:0:0:0:
180,224,90561,6,0,L|196:294,1,72.5,10|0,0:0|0:0,0:0:0:0:
284,260,90886,2,0,L|300:330,1,72.5,10|0,0:0|0:0,0:0:0:0:
212,364,91210,2,0,L|67:364,1,145,10|10,0:0|0:0,0:0:0:0:
324,364,91859,6,0,L|340:294,1,72.5,10|2,0:0|0:0,0:0:0:0:
256,260,92183,1,0,0:0:0:0:
416,224,92345,2,0,L|432:154,1,72.5,10|2,0:0|0:0,0:0:0:0:
344,120,92669,2,0,L|489:120,1,145,0|2,0:0|0:0,0:0:0:0:
200,88,93156,1,14,0:0:0:0:
256,192,93318,12,0,98345,0:0:0:0:
