osu file format v9

[General]
AudioFilename: EXE.mp3
AudioLeadIn: 0
PreviewTime: 24627
Countdown: 0
SampleSet: Normal
StackLeniency: 0.7
Mode: 0
LetterboxInBreaks: 0
EpilepsyWarning: 1

[Editor]
Bookmarks: 324,12475,24627,48931,61083,73235,97539,109691
DistanceSpacing: 1
BeatDivisor: 4
GridSize: 8

[Metadata]
Title:EXE
Artist:Mr.T
Creator:Samah
Version:Normal
Source:beatmania IIDX
Tags:bemani konami ddr iidx10

[Difficulty]
HPDrainRate:4
CircleSize:4
OverallDifficulty:4
ApproachRate:4
SliderMultiplier:1
SliderTickRate:1

[Events]
//Background and Video events
0,0,"bg.jpg"
//Break Periods
2,49131,53687
//Storyboard Layer 0 (Background)
//Storyboard Layer 1 (Fail)
//Storyboard Layer 2 (Pass)
//Storyboard Layer 3 (Foreground)
//Storyboard Sound Samples
//Background Colour Transformations
3,100,0,0,0

[TimingPoints]
324,379.746835443038,4,1,0,50,1,0
24627,-100,4,1,0,50,0,1
34880,-100,4,1,0,50,0,0
36779,-100,4,1,0,50,0,1
48931,-133.333333333333,4,1,0,50,0,0
55007,-133.333333333333,4,2,0,50,0,0
61083,-100,4,1,0,50,0,0
65498,-100,4,1,0,35,0,0
65592,-100,4,1,0,50,0,0
65687,-100,4,1,0,35,0,0
65972,-100,4,1,0,50,0,0
66067,-100,4,1,0,35,0,0
66352,-100,4,1,0,50,0,0
73235,-100,4,2,0,50,0,0
76273,-100,4,1,0,50,0,0
85387,-100,4,1,0,50,0,1
97159,-100,4,1,0,50,0,0
109691,-100,4,1,0,0,0,0

[Colours]
Combo1 : 255,150,0
Combo2 : 5,240,5
Combo3 : 5,5,240
Combo4 : 240,5,5

[HitObjects]
64,112,12475,2,0,B|80:56|136:48,1,100,0|8
152,144,13235,1,0
64,192,13615,1,8
152,240,13994,2,0,B|168:288|224:304,3,100,0|8|0|8
240,208,15513,6,0,B|224:152|272:120,1,100,0|8
336,192,16273,2,0,B|352:248|304:280,1,100,0|8
208,304,17032,1,0
112,304,17412,1,8
160,216,17792,2,0,B|160:264,2,50,0|0|8
64,192,18551,6,0,B|64:136|120:120,1,100,4|8
216,136,19311,2,0,B|224:96|200:80,2,50,0|0|8
312,160,20070,2,0,B|312:216|256:232,1,100,0|8
160,216,20830,2,0,B|152:256|176:272,2,50,0|0|8
216,136,21589,6,0,B|184:104|144:112,2,75,0|0|0
256,168,22349,2,0,B|288:200|328:192,2,75,0|0|0
256,192,23108,12,4,24627
160,168,25007,2,0,B|168:112|224:96,4,100,8|0|8|0|8
168,272,26906,1,0
208,304,27096,1,0
256,296,27285,1,8
256,192,27665,5,0
352,168,28045,2,0,B|344:112|288:96,4,100,8|0|8|0|8
344,272,29944,1,0
304,304,30134,1,0
256,296,30323,1,8
256,192,30703,5,0
168,144,31083,1,8
256,192,31463,1,0
344,144,31842,1,8
256,192,32222,2,0,B|232:144|256:96,3,100,0|8|0|8
344,48,33741,6,0,B|392:48,2,50,0|0|8
376,144,34501,2,0,B|304:144,2,50,0|0|8
256,192,35260,12,4,36779
256,328,37159,1,8
208,240,37539,1,0
256,224,37729,1,0
304,240,37918,1,8
256,56,38298,5,0
256,56,38678,1,8
208,144,39058,1,0
256,160,39248,1,0
304,144,39437,1,8
120,192,39817,5,0
120,192,40197,1,8
208,144,40577,1,0
224,192,40767,1,0
208,240,40956,1,8
392,192,41336,5,0
392,192,41716,1,8
304,144,42096,1,0
288,192,42286,1,0
304,240,42475,1,8
256,328,42855,5,0
216,240,43235,2,0,B|136:160|160:56,1,200,8|8
256,56,44374,1,0
296,144,44754,2,0,B|376:224|352:328,1,200,8|8
256,320,45893,5,0
208,232,46273,1,8
256,144,46653,1,0
304,232,47032,1,8
256,192,47412,12,4,48931
408,192,55007,6,0,B|408:256|352:288,2,112.499996647239,0|2|0
336,192,56526,2,0,B|336:128|280:96,2,112.499996647239,0|2|0
280,248,58045,5,0
232,192,58425,1,2
184,248,58805,1,0
136,192,59184,1,2
184,136,59564,2,0,B|192:88|232:80,1,74.9999977648259,0|2
264,152,60324,1,4
72,112,61083,6,0,B|72:168|128:184,1,100,0|8
176,168,61653,2,0,B|232:184|232:240,1,100,0|0
256,280,62222,1,8
352,296,62602,6,0,B|400:280,1,50
440,248,62982,2,0,B|456:200,1,50,8|0
456,152,63361,2,0,B|440:104,1,50
400,72,63741,2,0,B|352:56,1,50,8|0
256,64,64311,5,8
208,152,64691,1,0
304,152,65070,1,0
256,240,65450,2,0,B|256:272,10,25,0|0|8|0|0|0|8|0|0|0|4
208,152,66779,5,0
256,136,66969,1,0
304,152,67159,2,0,B|392:184|392:264,2,150,0|8|0
208,152,68678,2,0,B|120:184|120:264,2,150,0|8|0
256,192,70197,12,4,72855
120,232,73235,6,0,B|80:232,2,25,0|0|2
176,152,73805,1,2
232,232,74184,1,2
288,152,74564,1,2
344,232,74944,1,2
400,152,75324,2,0,B|432:152,2,25,2|0|0
312,96,75893,1,8
256,192,76273,5,0
208,280,76653,1,8
304,280,77032,1,0
208,280,77412,1,8
256,192,77792,1,0
304,104,78172,1,8
208,104,78551,1,0
304,104,78931,1,8
256,192,79311,6,0,B|184:192,1,50
152,192,79691,1,8
208,272,80070,2,0,B|264:272,1,50
312,272,80450,1,8
256,192,80830,6,0,B|328:192,1,50
360,192,81210,1,8
304,112,81589,2,0,B|248:112,1,50
200,112,81969,1,8
168,208,82349,5,0
256,256,82729,1,8
344,208,83108,1,0
256,160,83488,1,8
256,192,83868,12,0,85007
256,192,85387,5,4
352,216,85767,2,0,B|344:272|288:288,4,100,8|0|8|0|8
344,112,87666,1,0
304,80,87856,1,0
256,88,88045,1,8
256,192,88425,5,0
160,216,88805,2,0,B|168:272|224:288,4,100,8|0|8|0|8
168,112,90704,1,0
208,80,90894,1,0
256,88,91083,1,8
256,192,91463,5,0
344,240,91843,1,8
256,192,92223,1,0
168,240,92602,1,8
256,192,92982,2,0,B|280:240|256:288,3,100,0|8|0|8
168,336,94501,6,0,B|120:336,2,50,0|0|8
136,240,95261,2,0,B|208:240,2,50,0|0|8
256,192,96020,12,4,97159
448,272,97539,2,0,B|432:328|376:336,1,100,0|8
360,240,98299,1,0
448,192,98679,1,8
360,144,99058,2,0,B|344:96|288:80,3,100,0|8|0|8
272,176,100577,6,0,B|288:232|240:264,1,100,0|8
176,192,101337,2,0,B|160:136|208:104,1,100,0|8
304,80,102096,1,0
400,80,102476,1,8
352,168,102856,2,0,B|352:120,2,50,0|0|8
448,192,103615,6,0,B|448:248|392:264,1,100,4|8
296,248,104375,2,0,B|288:288|312:304,2,50,0|0|8
200,224,105134,2,0,B|200:168|256:152,1,100,0|8
352,168,105894,2,0,B|360:128|336:112,2,50,0|0|8
256,192,106653,12,0,109691
