osu file format v9

[General]
AudioFilename: EXE.mp3
AudioLeadIn: 0
PreviewTime: 24627
Countdown: 0
SampleSet: Normal
StackLeniency: 0.7
Mode: 0
LetterboxInBreaks: 0
EpilepsyWarning: 1

[Editor]
Bookmarks: 324,12475,24627,48931,61083,73235,97539,109691
DistanceSpacing: 1.2
BeatDivisor: 4
GridSize: 8

[Metadata]
Title:EXE
Artist:Mr.T
Creator:Samah
Version:Hyper
Source:beatmania IIDX
Tags:bemani konami ddr iidx10

[Difficulty]
HPDrainRate:5
CircleSize:4
OverallDifficulty:5
ApproachRate:6
SliderMultiplier:1.2
SliderTickRate:1

[Events]
//Background and Video events
0,0,"bg.jpg"
//Break Periods
2,49131,53957
//Storyboard Layer 0 (Background)
//Storyboard Layer 1 (Fail)
//Storyboard Layer 2 (Pass)
//Storyboard Layer 3 (Foreground)
//Storyboard Sound Samples
//Background Colour Transformations
3,100,0,0,0

[TimingPoints]
324,379.746835443038,4,1,0,50,1,0
24627,-100,4,1,0,50,0,1
36399,-100,4,1,0,50,0,0
36779,-100,4,1,0,50,0,1
48931,-200,4,2,0,50,0,0
61083,-100,4,1,0,50,0,0
73235,-100,4,2,0,50,0,0
76273,-100,4,1,0,50,0,0
85387,-100,4,1,0,50,0,1
97159,-100,4,1,0,50,0,0
109691,-100,4,1,0,0,0,0

[Colours]
Combo1 : 255,150,0
Combo2 : 5,240,5
Combo3 : 5,5,240
Combo4 : 240,5,5

[HitObjects]
408,64,12475,2,0,B|424:112|384:160|360:160,3,120,0|8|0|8
336,88,13805,1,0
264,80,13994,2,0,B|239:80|199:128|215:176,3,120,0|8|0|8
287,152,15324,1,0
272,224,15513,6,0,B|288:272|248:320|224:320,3,120,0|8|0|8
200,248,16842,1,0
128,240,17032,2,0,B|103:240|63:288|79:336,3,120,0|8|0|8
151,312,18361,1,0
224,312,18551,6,0,B|272:312|304:280|304:240,1,120,0|8
304,72,19311,2,0,B|256:72|224:104|224:144,1,120,0|8
376,224,20070,2,0,B|376:176|344:144|304:144,1,120,0|8
136,144,20830,2,0,B|136:192|168:224|208:224,1,120,0|8
208,152,21399,1,0
272,184,21589,6,0,B|311:184|343:216|343:264,3,120,0|8|0|8
272,256,22918,1,0
272,328,23108,2,0,B|232:327|200:295|200:247,3,120,0|8|0|8
144,200,24437,1,0
200,152,24627,6,0,B|200:120,2,30,4|0|0
256,200,25007,2,0,B|272:176|272:128,2,60,8|0|0
232,272,25577,1,0
304,256,25767,2,0,B|328:232|344:176|344:144,1,120,8|0
256,32,26526,5,8
216,96,26716,2,0,B|200:88|192:64,2,30
256,160,27096,1,0
296,96,27286,2,0,B|328:64|328:32,1,60,8|0
384,88,27665,6,0,B|400:64|392:40,2,30
352,152,28045,1,8
256,256,28425,1,0
160,152,28805,1,8
256,48,29184,1,0
256,192,29564,1,8
328,192,29754,2,0,B|352:240,2,30
296,128,30134,1,0
224,128,30323,2,0,B|200:144|184:176,1,60,8|0
216,240,30703,6,0,B|168:256|120:224|120:192,3,120,0|8|0|8
184,168,32032,1,0
248,143,32222,2,0,B|248:114|200:82|152:97,3,120,0|8|0|8
256,288,33741,6,0,B|256:318|304:350|352:334,1,120,0|8
256,96,34501,2,0,B|256:66|208:34|160:50,1,120,0|8
352,192,35260,2,0,B|382:192|414:144|398:96,1,120,0|8
160,192,36020,2,0,B|130:192|98:240|114:288,1,120,0|8
256,320,36779,6,0,B|256:352,2,30,4|0|0
200,272,37159,2,0,B|224:248|256:248|288:248|312:272,2,120,8|0|8
256,136,38298,1,0
256,136,38678,5,8
192,176,38868,2,0,B|160:160,2,30
192,248,39248,1,0
256,288,39437,1,8
320,248,39627,1,0
320,176,39817,2,0,B|352:160,2,30
256,48,40387,5,0
256,120,40577,2,0,B|200:112|184:64,2,90,0|0|0
256,192,41336,2,0,B|312:184|328:136,2,90,0|0|0
256,264,42096,1,0
192,296,42286,1,0
128,264,42475,1,8
192,224,42665,1,0
128,192,42855,6,0,B|72:184|56:136,2,90,0|0|0
128,120,43615,1,0
256,56,43994,1,8
384,120,44374,2,0,B|440:128|456:176,2,90,0|0|0
384,192,45134,1,0
256,256,45513,1,8
200,120,45893,6,0,B|224:96|256:96|288:96|312:120,3,120,0|8|0|8
256,192,47412,12,4,48931
112,192,55007,6,0,B|119:138|167:130,1,90
256,192,56146,1,8
240,264,56526,2,0,B|192:256|184:200,1,90
248,112,57665,1,8
312,144,58045,6,0,B|360:152|368:208,1,90
304,288,59184,1,8
256,344,59564,1,0
208,288,59944,1,0
256,232,60324,1,4
40,48,61083,6,0,B|120:56|136:120,1,120,0|8
64,128,61653,2,0,B|77:183|157:191,1,120,0|8
200,136,62222,1,0
192,64,62412,1,8
258,92,62602,6,0,B|274:68|266:44,2,30
272,160,62982,1,8
328,112,63172,2,0,B|344:80,2,30
336,184,63551,1,8
392,144,63741,1,0
400,216,63931,1,8
48,328,64311,6,0,B|88:336|120:304,1,60,0|8
64,256,64691,2,0,B|77:201|157:193,1,120,0|8
200,248,65260,1,0
192,320,65450,1,8
258,292,65640,6,0,B|274:316|266:340,4,30,0|0|0|0|8
272,224,66210,1,0
288,152,66399,1,4
288,152,66779,1,8
344,200,66969,1,0
336,272,67159,6,0,B|384:280|416:240|416:200,1,120,0|8
176,272,67918,2,0,B|168:320|208:352|248:352,1,120,0|8
176,112,68678,2,0,B|128:104|96:144|96:184,1,120,0|8
336,112,69437,2,0,B|344:64|304:32|264:32,1,120,0|8
256,192,70197,12,0,72855
56,192,73235,5,0
88,128,73425,1,8
136,256,73805,1,0
184,128,74184,1,8
232,256,74564,1,0
280,128,74944,1,8
328,256,75323,1,0
376,128,75703,1,8
424,256,76083,1,0
456,192,76273,5,0
424,128,76463,1,8
376,256,76842,1,0
328,128,77222,1,8
280,256,77602,1,0
232,128,77982,1,8
184,256,78361,1,0
136,128,78741,1,8
88,256,79121,1,0
56,192,79311,6,0,B|40:168|40:136,1,60
39,135,79691,1,8
168,192,80070,2,0,B|167:224|151:248,1,60
150,248,80450,1,8
280,192,80830,2,0,B|264:168|264:136,1,60
263,135,81210,1,8
392,192,81589,2,0,B|391:224|375:248,1,60
374,248,81969,1,8
360,104,82349,6,0,B|328:64,2,30
304,144,82729,1,8
360,280,83108,2,0,B|328:320,2,30
304,240,83488,1,8
256,192,83868,12,4,85007
312,232,85387,6,0,B|312:264,2,30,4|0|0
256,184,85767,2,0,B|240:208|240:256,2,60,8|0|0
280,112,86336,1,0
208,128,86526,2,0,B|184:152|168:208|168:240,1,120,8|0
256,352,87286,5,8
296,288,87475,2,0,B|312:296|320:320,2,30
256,224,87855,1,0
216,288,88045,2,0,B|184:320|184:352,1,60,8|0
128,296,88425,6,0,B|112:320|120:344,2,30
160,232,88805,1,8
256,128,89184,1,0
352,232,89564,1,8
256,336,89944,1,0
256,192,90323,1,8
184,192,90513,2,0,B|160:144,2,30
216,256,90893,1,0
288,256,91083,2,0,B|312:240|328:208,1,60,8|0
296,144,91463,6,0,B|344:128|392:160|392:192,3,120,0|8|0|8
328,216,92792,1,0
264,241,92982,2,0,B|264:270|312:302|360:287,3,120,0|8|0|8
256,96,94501,6,0,B|256:66|208:34|160:50,1,120,0|8
256,288,95260,2,0,B|256:318|304:350|352:334,1,120,0|8
160,192,96020,2,0,B|130:192|98:240|114:288,1,120,0|8
352,192,96779,2,0,B|382:192|414:144|398:96,1,120,0|8
256,80,97539,5,4
256,224,97918,2,0,B|272:272|240:320|208:320,1,120,8|0
184,248,98488,1,0
112,272,98678,2,0,B|96:224|128:176|160:176,1,120,8|0
256,80,99437,5,8
256,224,99817,2,0,B|240:272|272:320|304:320,1,120,0|8
328,248,100387,1,0
400,272,100577,2,0,B|416:224|384:176|352:176,1,120,0|8
256,304,101336,5,0
256,160,101716,2,0,B|272:112|240:64|208:64,1,120,8|0
184,136,102286,1,0
112,112,102475,2,0,B|96:160|128:208|160:208,1,120,8|0
256,304,103235,5,8
256,160,103615,2,0,B|240:112|272:64|304:64,1,120,0|8
328,136,104184,1,0
400,112,104374,2,0,B|416:160|384:208|352:208,1,120,0|8
256,304,105134,5,0
184,176,105513,1,8
328,176,105893,1,0
256,48,106273,1,8
256,192,106653,12,0,109691
