osu file format v9

[General]
AudioFilename: EXE.mp3
AudioLeadIn: 0
PreviewTime: 24627
Countdown: 0
SampleSet: Normal
StackLeniency: 0.7
Mode: 0
LetterboxInBreaks: 0
EpilepsyWarning: 1

[Editor]
Bookmarks: 324,12475,24627,48931,61083,73235,97539,109691
DistanceSpacing: 1
BeatDivisor: 2
GridSize: 8

[Metadata]
Title:EXE
Artist:Mr.T
Creator:Samah
Version:Beginner
Source:beatmania IIDX
Tags:bemani konami ddr iidx10

[Difficulty]
HPDrainRate:2
CircleSize:3
OverallDifficulty:2
ApproachRate:2
SliderMultiplier:0.8
SliderTickRate:1

[Events]
//Background and Video events
0,0,"bg.jpg"
//Break Periods
2,49131,59523
//Storyboard Layer 0 (Background)
//Storyboard Layer 1 (Fail)
//Storyboard Layer 2 (Pass)
//Storyboard Layer 3 (Foreground)
//Storyboard Sound Samples
//Background Colour Transformations
3,100,0,0,0

[TimingPoints]
324,379.746835443038,4,1,0,50,1,0
24627,-100,4,1,0,50,0,1
36020,-100,4,1,0,50,0,0
36779,-100,4,1,0,50,0,1
48931,-133.333333333333,4,1,0,50,0,0
61083,-100,4,1,0,50,0,0
72475,-100,4,1,0,0,0,0
73235,-100,4,2,0,50,0,0
76273,-100,4,1,0,50,0,0
85387,-100,4,1,0,50,0,1
97539,-100,4,1,0,50,0,0
109691,-100,4,1,0,0,0,0

[Colours]
Combo1 : 255,150,0
Combo2 : 5,240,5
Combo3 : 5,5,240
Combo4 : 240,5,5

[HitObjects]
64,112,12475,2,0,B|80:64|120:56,1,80,0|8
144,136,13235,1,0
88,192,13615,1,8
168,216,13994,2,0,B|184:264|224:272,1,80,0|8
248,192,14754,1,0
192,136,15134,1,8
272,112,15513,6,0,B|308:119|324:167,1,80,0|8
304,248,16273,1,4
144,248,17032,2,0,B|107:240|91:192,1,80,0|8
112,112,17792,1,4
264,56,18551,6,0,B|216:72|208:112,1,80,0|8
288,136,19311,1,0
344,80,19691,1,8
368,160,20070,2,0,B|416:176|424:216,1,80,0|8
344,240,20830,1,0
288,184,21210,1,8
264,256,21589,6,0,B|216:240|208:200,1,80,0|8
224,128,22349,1,4
384,128,23108,2,0,B|432:144|440:184,1,80,0|8
424,256,23868,1,4
272,304,24627,6,0,B|248:344|208:344,3,80,0|8|0|8
200,264,26146,2,0,B|160:264|136:224,3,80,0|8|0|8
208,184,27665,5,0
272,232,28045,1,8
280,152,28425,1,0
344,200,28805,1,8
352,120,29184,2,0,B|328:80|288:72,1,80,0|8
208,72,29944,2,0,B|168:80|144:120,1,80,0|8
216,160,30703,6,0,B|192:200|152:208,1,80,0|8
80,176,31463,1,0
88,256,31842,1,8
160,288,32222,2,0,B|200:288|232:256,3,80,0|8|0|8
296,208,33741,2,0,B|328:192|344:144,3,80,0|8|0|8
264,128,35260,1,0
264,288,36020,1,4
136,192,36779,6,0,B|120:152|136:112,1,80,0|8
208,152,37539,1,0
208,232,37918,1,8
280,272,38298,2,0,B|296:232|280:192,3,80,0|8|0|8
280,112,39817,5,0
352,152,40197,1,8
368,232,40577,1,0
352,312,40956,1,8
432,288,41336,2,0,B|464:256|448:216,3,80,0|8|0|8
440,136,42855,6,0,B|440:88|400:72,1,80,0|8
360,144,43615,1,4
208,200,44374,2,0,B|208:248|248:264,1,80,0|8
288,192,45134,1,4
128,192,45893,2,0,B|80:192|64:152,1,80,0|8
136,112,46653,1,4
256,192,47412,12,4,48931
80,192,61083,6,0,B|80:240|120:256,1,80,0|8
160,184,61842,1,0
240,176,62222,1,8
320,168,62602,2,0,B|368:168|384:208,1,80,0|8
320,248,63361,2,0,B|288:288,3,40,0|0|8|0
176,272,64501,6,0,B|176:320|216:336,2,80,8|0|8
176,192,65640,2,0,B|128:192,4,40,0|0|8|0|4
256,48,67159,5,0
296,120,67539,1,8
216,120,67918,1,0
256,192,68298,1,8
176,192,68678,2,0,B|176:232|224:264,1,80,0|8
296,258,69437,2,0,B|336:232|336:192,1,80,0|8
256,192,70197,12,4,72475
176,128,73235,6,0,B|136:104,2,40,0|0|2
176,208,73994,2,0,B|136:232,2,40,0|0|8
248,168,74754,2,0,B|296:168,2,40,0|0|2
248,248,75513,2,0,B|224:288|248:328,1,80,0|8
320,288,76273,5,0
368,224,76653,1,8
368,144,77032,1,0
320,80,77412,1,8
288,152,77792,2,0,B|320:192|288:224,3,80,0|8|0|8
216,192,79311,5,0
144,232,79691,1,8
144,152,80070,1,4
216,296,80830,5,0
288,256,81210,1,8
288,336,81589,1,4
288,176,82349,5,0
360,136,82729,1,8
360,216,83108,1,4
288,72,83868,5,0
216,112,84248,1,8
216,32,84627,1,4
368,80,85387,6,0,B|408:104|408:144,1,80,0|8
328,152,86146,1,0
376,216,86526,1,8
296,224,86906,2,0,B|272:264|232:264,1,80,0|8
224,184,87665,1,0
160,232,88045,1,8
152,152,88425,6,0,B|168:104|216:104,3,80,0|8|0|8
288,104,89944,2,0,B|328:104|344:152,3,80,0|8|0|8
264,176,91463,5,0
192,216,91842,1,8
264,256,92222,1,0
192,296,92602,1,8
120,256,92982,5,0
120,176,93361,1,8
192,136,93741,1,0
120,96,94121,1,8
192,56,94501,2,0,B|240:56|256:96,3,80,0|8|0|8
256,192,96020,12,4,97539
176,120,98298,5,8
336,120,99058,1,0
256,256,99817,1,8
336,120,100577,2,0,B|256:96|176:120,4,160,0|8|0|8|4
256,256,104374,5,8
176,120,105134,1,0
336,120,105893,1,8
256,192,106653,12,0,109691
