osu file format v9

[General]
AudioFilename: EXE.mp3
AudioLeadIn: 0
PreviewTime: 24627
Countdown: 0
SampleSet: Normal
StackLeniency: 0.7
Mode: 0
LetterboxInBreaks: 0
EpilepsyWarning: 1

[Editor]
Bookmarks: 324,12475,24627,48931,61083,73235,97539,109691
DistanceSpacing: 1
BeatDivisor: 4
GridSize: 8

[Metadata]
Title:EXE
Artist:Mr.T
Creator:Samah
Version:Another
Source:beatmania IIDX
Tags:bemani konami ddr iidx10

[Difficulty]
HPDrainRate:7
CircleSize:4
OverallDifficulty:7
ApproachRate:8
SliderMultiplier:1.4
SliderTickRate:1

[Events]
//Background and Video events
0,0,"bg.jpg"
//Break Periods
2,49131,54257
//Storyboard Layer 0 (Background)
//Storyboard Layer 1 (Fail)
//Storyboard Layer 2 (Pass)
//Storyboard Layer 3 (Foreground)
//Storyboard Sound Samples
//Background Colour Transformations
3,100,0,0,0

[TimingPoints]
324,379.746835443038,4,1,0,50,1,0
24627,-100,4,1,0,50,0,1
36399,-100,4,1,0,50,0,0
36779,-80,4,1,0,50,0,1
48931,-133.333333333333,4,2,0,50,0,0
61083,-100,4,1,0,50,0,0
61183,-100,4,2,0,50,0,0
76273,-100,4,1,0,50,0,0
85387,-100,4,1,0,50,0,1
97159,-100,4,1,0,50,0,0
109691,-100,4,1,0,0,0,0

[Colours]
Combo1 : 255,150,0
Combo2 : 5,240,5
Combo3 : 5,5,240
Combo4 : 240,5,5

[HitObjects]
176,312,12475,2,0,B|136:328|72:304|64:256,2,140,0|8|0
152,208,13520,1,0
152,208,13615,1,8
192,152,13805,1,0
256,120,13994,2,0,B|296:104|360:128|368:176,2,140,0|8|0
256,120,14849,1,0
192,152,15039,1,8
256,232,15324,1,0
256,304,15513,6,0,B|312:304|336:248|328:200,2,140,0|8|0
160,256,16558,1,0
160,256,16653,1,8
128,192,16842,1,0
160,128,17032,2,0,B|160:72|216:48|264:56,2,140,0|8|0
160,128,17887,1,8
192,192,18077,1,8
296,192,18361,1,0
296,264,18551,6,0,B|352:264|376:208|368:160,2,140,0|8|0
192,264,19596,1,0
192,264,19691,1,8
128,288,19880,1,0
136,216,20070,2,0,B|128:172|152:116|208:116,2,140,0|8|0
136,216,20925,1,0
208,192,21115,1,8
312,192,21399,1,0
384,192,21589,6,0,B|384:136|328:112|280:120,2,140,0|8|0
320,280,22634,1,0
320,280,22729,1,8
256,248,22918,1,0
256,320,23108,2,0,B|200:320|176:264|184:216,1,140,0|8
200,152,23678,1,0
192,120,23773,1,0
168,96,23868,1,0
96,96,24058,1,0
64,160,24248,1,8
200,184,24627,5,4
200,184,24722,1,0
200,184,24817,2,0,B|248:176|288:128|304:96,1,140,0|8
303,96,25387,1,0
352,184,25672,1,0
352,184,25767,2,0,B|376:160|400:104,2,70,8|0|0
408,232,26336,2,0,B|392:264|360:288,1,70,0|8
304,320,26716,1,0
272,328,26811,1,0
240,328,26906,2,0,B|208:336|168:320,1,70
112,288,27286,2,0,B|80:272|56:240,1,70,8|0
56,176,27665,6,0,B|56:128,2,35
120,208,28045,1,8
120,136,28235,2,0,B|120:80,2,35
184,176,28615,1,0
184,248,28805,1,8
248,208,28994,1,0
248,136,29184,5,0
280,120,29279,1,0
312,112,29373,1,0
376,136,29564,1,8
424,184,29754,1,0
432,216,29849,1,0
424,248,29944,2,0,B|408:288|376:296,1,70
312,320,30324,2,0,B|280:328|240:328,1,70,8|0
176,320,30703,5,0
176,320,30798,1,0
176,320,30893,2,0,B|96:296|72:232,1,140,0|8
72,233,31463,1,0
80,128,31748,5,0
96,96,31842,2,0,B|104:56|144:40,2,70,8|0|0
136,192,32507,1,0
160,168,32601,2,0,B|184:136|224:136,2,70,8|0|0
176,272,33267,1,0
208,264,33361,2,0,B|248:248|280:264,2,70,8|0|0
248,328,33931,5,0
280,336,34026,1,0
312,328,34121,1,8
360,280,34311,2,0,B|408:296,2,35
384,216,34691,2,0,B|336:200,2,35,0|0|8
392,144,35070,1,0
256,192,35260,12,4,36399
192,48,36779,6,0,B|192:136|128:152,1,131.249998044223,0|0
256,104,37349,1,0
320,48,37539,2,0,B|320:136|384:152,1,131.249998044223,0|0
256,192,38108,1,0
208,264,38298,6,0,B|160:264|128:232,1,87.4999986961484
304,264,38678,2,0,B|352:264|384:232,1,87.4999986961484,8|0
256,336,39058,1,0
256,192,39248,1,0
256,152,39342,1,0
256,112,39437,1,8
256,24,39627,1,0
176,64,39817,6,0,B|112:64|56:112,1,131.249998044223,0|0
184,152,40387,1,0
176,240,40577,2,0,B|112:240|56:192,1,131.249998044223,0|0
184,152,41147,1,0
240,88,41336,6,0,B|272:128|264:168,1,87.4999986961484
304,296,41716,2,0,B|336:256|328:216,1,87.4999986961484,8|0
368,88,42096,2,0,B|400:128|392:168,1,87.4999986961484
432,296,42476,2,0,B|464:256|456:216,1,87.4999986961484,8|0
464,128,42855,6,0,B|464:72|400:8,2,131.249998044223,0|0|0
408,192,43615,2,0,B|408:248|344:312,2,131.249998044223,0|0|0
320,192,44374,6,0,B|280:224|240:192,1,87.4999986961484
280,128,44754,2,0,B|320:96|360:128,1,87.4999986961484,8|0
168,192,45134,2,0,B|128:224|88:192,1,87.4999986961484
128,128,45514,2,0,B|168:96|208:128,1,87.4999986961484,8|0
208,264,45893,6,0,B|184:280|152:272,2,43.7499993480742
256,192,46273,1,8
304,264,46463,2,0,B|328:280|360:272,2,43.7499993480742
256,192,46842,1,0
256,104,47032,2,0,B|256:48,2,43.7499993480742,8|0|0
256,192,47412,12,4,48931
64,144,55007,6,0,B|128:128|144:80,1,104.999996870756,0|2
64,240,55577,2,0,B|128:256|144:304,1,104.999996870756,0|2
136,192,56146,2,0,B|200:192,1,52.4999984353781,8|0
448,144,56526,6,0,B|384:128|368:80,1,104.999996870756,0|2
448,240,57096,2,0,B|384:256|368:304,1,104.999996870756,0|2
376,192,57665,2,0,B|312:192,1,52.4999984353781,8|0
168,88,58045,6,0,B|128:48,1,52.4999984353781
120,152,58425,2,0,B|72:136,1,52.4999984353781,2|0
120,232,58805,2,0,B|72:248,1,52.4999984353781
168,296,59184,2,0,B|128:336,1,52.4999984353781,8|0
344,88,59564,6,0,B|384:48,1,52.4999984353781
392,152,59944,2,0,B|440:136,1,52.4999984353781,2|0
392,232,60324,2,0,B|440:248,1,52.4999984353781
344,296,60703,2,0,B|384:336,1,52.4999984353781,8|0
136,192,61273,6,0,B|80:192,2,35,0|0|8
256,72,61653,2,0,B|256:16,2,35
376,192,62032,2,0,B|432:192,2,35,0|0|8
256,312,62412,2,0,B|256:368,2,35
220,252,62792,5,0
292,252,62982,1,8
256,192,63172,1,0
220,132,63361,1,0
292,132,63551,1,0
256,72,63741,2,0,B|256:32,3,35,8|0|0|0
32,128,64311,6,0,B|64:176,1,35
51,157,64501,1,8
120,256,64691,2,0,B|152:208,1,35
139,227,64881,1,0
208,128,65070,2,0,B|240:176,1,35
227,157,65260,1,8
315,227,65450,1,0
360,176,65640,5,0
368,144,65735,1,0
360,112,65830,1,0
336,80,65925,1,0
304,64,66020,1,8
272,64,66115,1,0
240,72,66210,1,0
216,96,66305,1,0
208,128,66399,1,4
256,248,66779,5,8
216,312,66969,1,0
296,312,67159,2,0,B|336:280|336:216|296:192,1,140,0|8
256,248,67729,1,0
216,192,67918,2,0,B|176:160|176:96|216:72,1,140,0|8
256,128,68488,1,0
296,192,68678,6,0,B|352:192,2,35
256,328,69248,2,0,B|256:376,2,35
220,264,69627,1,0
292,264,69817,1,8
256,200,70007,1,0
256,128,70197,1,4
256,192,70577,12,4,72855
256,64,73235,5,0
256,64,73330,1,0
256,64,73425,1,2
344,320,73805,1,2
120,168,74184,1,2
392,168,74564,1,2
168,320,74944,1,2
256,64,75324,5,2
256,64,75418,1,0
256,64,75513,1,0
184,184,75703,1,2
328,184,75893,1,0
256,304,76083,1,2
400,304,76273,6,0,B|432:280|440:248,1,70
448,176,76653,1,8
336,264,77032,2,0,B|368:240|376:208,1,70
384,136,77412,1,8
272,224,77792,2,0,B|304:200|312:168,1,70
320,96,78172,1,8
264,48,78361,5,0
232,40,78456,1,0
200,48,78551,1,0
144,88,78741,1,0
112,152,78931,2,0,B|96:192|104:224,1,70,8|0
144,280,79311,6,0,B|112:312,2,35
192,232,79691,1,8
232,288,79880,2,0,B|200:320,2,35
272,232,80260,1,0
312,288,80450,2,0,B|280:320,2,35,8|0|0
352,232,80830,5,0
312,176,81020,2,0,B|344:144,2,35,0|0|8
272,232,81399,1,0
232,176,81589,2,0,B|264:144,2,35
192,232,81969,1,8
152,176,82159,1,0
192,120,82349,6,0,B|136:64,1,70
320,120,82729,2,0,B|376:64,1,70,8|0
320,264,83108,2,0,B|376:320,1,70
192,264,83488,2,0,B|136:320,1,70,8|0
256,192,83868,12,4,85007
312,200,85387,5,4
312,200,85482,1,0
312,200,85577,2,0,B|264:208|224:256|208:288,1,140,0|8
209,288,86147,1,0
160,200,86432,1,0
160,200,86527,2,0,B|136:224|112:280,2,70,8|0|0
104,152,87096,2,0,B|120:120|152:96,1,70,0|8
208,64,87476,1,0
240,56,87571,1,0
272,56,87666,2,0,B|304:48|344:64,1,70
400,96,88046,2,0,B|432:112|456:144,1,70,8|0
456,208,88425,6,0,B|456:256,2,35
392,176,88805,1,8
392,248,88995,2,0,B|392:304,2,35
328,208,89375,1,0
328,136,89565,1,8
264,176,89754,1,0
264,248,89944,5,0
232,264,90039,1,0
200,272,90133,1,0
136,248,90324,1,8
88,200,90514,1,0
80,168,90609,1,0
88,136,90704,2,0,B|104:96|136:88,1,70
200,64,91084,2,0,B|232:56|272:56,1,70,8|0
336,64,91463,5,0
336,64,91558,1,0
336,64,91653,2,0,B|416:88|440:152,1,140,0|8
440,151,92223,1,0
432,256,92508,5,0
416,288,92602,2,0,B|408:328|368:344,2,70,8|0|0
376,192,93267,1,0
352,216,93361,2,0,B|328:248|288:248,2,70,8|0|0
336,112,94027,1,0
304,120,94121,2,0,B|264:136|232:120,2,70,8|0|0
264,56,94691,5,0
232,48,94786,1,0
200,56,94881,1,8
152,104,95071,2,0,B|104:88,2,35
128,168,95451,2,0,B|176:184,2,35,0|0|8
120,240,95830,1,0
256,192,96020,12,4,97159
336,72,97539,2,0,B|376:56|440:80|448:128,2,140,0|8|0
360,176,98584,1,0
360,176,98679,1,8
320,232,98869,1,0
256,264,99058,2,0,B|216:280|152:256|144:208,2,140,0|8|0
256,264,99913,1,0
320,232,100103,1,8
256,152,100388,1,0
256,80,100577,6,0,B|200:80|176:136|184:184,2,140,0|8|0
352,128,101622,1,0
352,128,101717,1,8
384,192,101906,1,0
352,256,102096,2,0,B|352:312|296:336|248:328,2,140,0|8|0
352,256,102951,1,8
320,192,103141,1,8
216,192,103425,1,0
216,120,103615,6,0,B|160:120|136:176|144:224,2,140,0|8|0
320,120,104660,1,0
320,120,104755,1,8
384,96,104944,1,0
376,168,105134,2,0,B|384:212|360:268|304:268,2,140,0|8|0
376,168,105989,1,8
304,192,106179,1,8
200,192,106463,1,8
256,192,106653,12,0,109691
