osu file format v14

[General]
AudioFilename: terror.mp3
AudioLeadIn: 0
PreviewTime: 32691
Countdown: 0
SampleSet: Soft
StackLeniency: 0.7
Mode: 0
LetterboxInBreaks: 0
WidescreenStoryboard: 0

[Editor]
DistanceSpacing: 1.4
BeatDivisor: 4
GridSize: 4
TimelineZoom: 1.4

[Metadata]
Title:Night Terror
TitleUnicode:Night Terror
Artist:Mr.Kitty
ArtistUnicode:Mr.Kitty
Creator:YellowManul
Version:Heavy
Source:
Tags:eternity synthpop gothic new wave
BeatmapID:668988
BeatmapSetID:298071

[Difficulty]
HPDrainRate:6
CircleSize:3.6
OverallDifficulty:6
ApproachRate:7
SliderMultiplier:1.6
SliderTickRate:2

[Events]
//Background and Video events
0,0,"bg.jpg",0,0
//Break Periods
2,58391,63791
//Storyboard Layer 0 (Background)
//Storyboard Layer 1 (Fail)
//Storyboard Layer 2 (Pass)
//Storyboard Layer 3 (Foreground)
//Storyboard Sound Samples

[TimingPoints]
7091,400,4,2,0,50,1,0
7091,-133.333333333333,4,2,0,50,0,0
13491,-133.333333333333,4,2,0,60,0,0
19891,-133.333333333333,4,2,0,50,0,0
26291,-133.333333333333,4,2,0,70,0,0
32691,-100,4,2,0,80,0,1
32741,-100,4,2,0,80,0,0
45491,-100,4,2,0,80,0,1
58291,-100,4,2,0,50,0,0
64691,-133.333333333333,4,2,0,50,0,0
71091,-133.333333333333,4,2,0,60,0,0
77491,-133.333333333333,4,2,0,50,0,0
90291,-100,4,2,0,80,0,1
90341,-100,4,2,0,80,0,0
103091,-100,4,2,0,80,0,1
115891,-133.333333333333,4,2,0,50,0,0
122291,-133.333333333333,4,2,0,10,0,0

[Colours]
Combo1 : 0,89,179
Combo2 : 0,89,89
Combo3 : 255,255,223
Combo4 : 0,128,192

[HitObjects]
128,108,7091,6,0,P|120:144|128:192,1,60.0000022888184,0|0,1:0|0:0,0:0:0:0:
176,228,7491,2,0,P|232:200|312:228,2,120.000004577637
92,224,8491,1,0,0:0:0:0:
124,300,8691,6,0,P|124:332|112:360,1,60.0000022888184,0|0,1:0|0:0,0:0:0:0:
196,372,9091,2,0,P|252:348|320:364,1,120.000004577637
384,208,9891,1,0,0:0:0:0:
384,60,10291,6,0,L|316:68,1,60.0000022888184,0|0,1:0|0:0,0:0:0:0:
244,92,10691,2,0,L|176:88,1,60.0000022888184
116,136,11091,2,0,P|136:192|124:256,1,120.000004577637
192,304,11691,1,0,0:0:0:0:
263,243,11891,6,0,L|336:255,2,60.0000022888184,0|0|0,1:0|0:0|0:0,0:0:0:0:
216,168,12491,1,0,0:0:0:0:
268,100,12691,1,0,0:0:0:0:
428,52,13091,1,0,0:0:0:0:
472,216,13491,6,0,P|484:256|468:300,1,60.0000022888184,0|0,1:0|0:0,0:0:0:0:
404,240,13891,2,0,P|392:200|408:156,1,60.0000022888184,2|0,0:0|0:0,0:0:0:0:
324,136,14291,1,0,0:0:0:0:
248,316,14691,1,2,0:0:0:0:
148,180,15091,6,0,L|84:200,1,60.0000022888184,0|0,1:0|0:0,0:0:0:0:
40,128,15491,2,0,P|52:104|56:72,1,60.0000022888184,2|0,0:0|0:0,0:0:0:0:
140,80,15891,2,0,P|200:64|272:100,1,120.000004577637,0|2,0:0|0:0,0:0:0:0:
324,128,16491,1,0,0:0:0:0:
304,212,16691,6,0,L|288:276,1,60.0000022888184,0|0,1:0|0:0,0:0:0:0:
344,336,17091,2,0,P|384:328|408:332,1,60.0000022888184,2|0,0:0|0:0,0:0:0:0:
468,276,17491,2,0,P|480:208|456:152,1,120.000004577637,0|2,0:0|0:0,0:0:0:0:
484,80,18091,1,0,0:0:0:0:
404,100,18291,5,0,1:0:0:0:
328,64,18491,1,0,0:0:0:0:
256,108,18691,2,0,P|256:144|268:180,1,60.0000022888184,2|0,0:0|0:0,0:0:0:0:
232,244,19091,2,0,P|172:240|112:288,1,120.000004577637
123,271,19891,6,0,L|118:204,1,60.0000022888184,0|0,1:0|0:0,0:0:0:0:
40,176,20291,1,0,0:0:0:0:
112,24,20691,1,0,0:0:0:0:
40,176,21091,1,0,0:0:0:0:
116,140,21291,1,0,0:0:0:0:
188,184,21491,6,0,P|220:188|260:172,1,60.0000022888184,0|0,1:0|0:0,0:0:0:0:
272,100,21891,2,0,L|288:236,1,120.000004577637
360,260,22491,2,0,L|368:324,2,60.0000022888184
444,252,23091,6,0,L|432:172,1,60.0000022888184,0|0,1:0|0:0,0:0:0:0:
488,128,23491,2,0,P|432:108|368:136,1,120.000004577637
292,128,24091,2,0,L|228:108,2,60.0000022888184
256,204,24691,6,0,L|264:280,1,60.0000022888184,0|0,1:0|0:0,0:0:0:0:
204,324,25091,1,2,0:0:0:0:
132,280,25291,1,2,0:0:0:0:
168,204,25491,2,0,P|172:168|160:136,1,60.0000022888184,2|2,0:0|0:0,0:0:0:0:
84,124,25891,2,0,P|76:95|81:65,1,60.0000022888184,2|2,0:0|0:0,0:0:0:0:
164,48,26291,6,0,P|224:36|280:64,1,120.000004577637,0|2,1:0|0:0,0:0:0:0:
360,44,26891,1,0,0:0:0:0:
336,124,27091,2,0,P|368:136|404:140,1,60.0000022888184
440,208,27491,2,0,P|408:220|372:224,1,60.0000022888184,2|0,0:0|0:0,0:0:0:0:
300,208,27891,6,0,P|300:272|316:332,1,120.000004577637,0|2,1:0|0:0,0:0:0:0:
236,344,28491,1,0,0:0:0:0:
188,276,28691,2,0,P|104:300|36:236,1,180.000006866455
84,172,29491,5,0,1:0:0:0:
48,95,29691,1,0,0:0:0:0:
136,104,29891,2,0,P|176:100|196:104,1,60.0000022888184,2|0,0:0|0:0,0:0:0:0:
228,180,30291,2,0,P|264:200|292:200,1,60.0000022888184
264,284,30691,1,2,0:0:0:0:
332,332,30891,1,0,0:0:0:0:
408,300,31091,6,0,P|456:292|476:300,1,60.0000022888184,0|0,1:0|0:0,0:0:0:0:
488,216,31491,2,0,P|468:192|456:164,1,60.0000022888184,2|0,0:0|0:0,0:0:0:0:
396,108,31891,2,0,L|366:115,3,30.0000011444092,0|0|0|0,1:0|1:0|1:0|1:0,1:0:0:0:
352,44,32291,2,0,L|320:40,3,30.0000011444092,0|0|0|0,1:0|1:0|1:0|1:0,1:0:0:0:
268,88,32691,6,0,L|264:172,1,80,0|0,1:0|0:0,0:0:0:0:
156,140,33091,1,8,0:0:0:0:
156,140,33291,1,0,0:0:0:0:
180,248,33491,2,0,P|136:252|100:272,1,80
196,332,33891,2,8,P|240:328|276:308,1,80,8|0,0:0|0:0,0:0:0:0:
340,220,34291,6,0,P|320:140|348:64,1,160,0|8,1:0|0:0,0:0:0:0:
232,88,34891,1,0,0:0:0:0:
124,64,35091,2,0,P|80:56|40:64,2,80,2|0|10,0:0|0:0|0:0,0:0:0:0:
60,156,35691,1,2,0:0:0:0:
132,244,35891,6,0,L|116:328,1,80,0|0,1:0|0:0,0:0:0:0:
220,364,36291,1,8,0:0:0:0:
332,320,36491,1,0,0:0:0:0:
300,212,36691,2,0,P|292:164|296:128,1,80
380,60,37091,2,0,P|388:108|384:144,1,80,8|0,0:0|0:0,0:0:0:0:
468,212,37491,5,0,1:0:0:0:
440,320,37691,1,0,0:0:0:0:
332,320,37891,2,0,P|296:336|244:332,1,80,8|0,0:0|0:0,0:0:0:0:
156,288,38291,2,2,P|116:288|68:320,2,80,0|10|2,0:0|0:0|1:0,0:0:0:0:
224,200,38891,1,10,0:0:0:0:
172,100,39091,6,0,P|136:120|88:116,2,80,0|0|8,1:0|0:0|0:0,0:0:0:0:
284,112,39691,1,0,0:0:0:0:
380,56,39891,2,0,P|380:96|396:140,1,80
440,236,40291,2,0,P|396:244|360:272,1,80,8|0,0:0|0:0,0:0:0:0:
284,340,40691,6,0,P|288:296|264:248,1,80,0|0,1:0|0:0,0:0:0:0:
200,180,41091,1,8,0:0:0:0:
284,112,41291,1,0,0:0:0:0:
200,180,41491,2,0,P|152:176|112:184,1,80
44,264,41891,2,0,P|44:220|28:184,1,80,8|0,0:0|0:0,0:0:0:0:
52,76,42291,6,0,L|224:60,1,160,0|8,1:0|0:0,0:0:0:0:
260,164,42891,1,0,0:0:0:0:
372,160,43091,2,0,P|404:148|456:152,1,80
424,260,43491,1,8,0:0:0:0:
348,344,43691,1,0,0:0:0:0:
248,296,43891,6,0,P|252:256|240:208,1,80,0|0,1:0|0:0,0:0:0:0:
160,292,44291,2,0,P|112:300|60:288,1,80,8|0,0:0|0:0,0:0:0:0:
100,184,44691,2,10,P|56:176|16:180,2,80,2|10|2,1:0|0:0|1:0,0:0:0:0:
168,92,45291,1,10,0:0:0:0:
216,192,45491,5,4,1:0:0:0:
276,96,45691,1,0,0:0:0:0:
328,196,45891,2,0,P|368:188|416:196,1,80,8|0,0:0|0:0,0:0:0:0:
464,288,46291,2,0,P|424:296|376:288,1,80
288,344,46691,2,0,P|248:336|209:340,1,80,8|0,0:0|0:0,0:0:0:0:
224,228,47091,6,0,P|165:232|100:308,1,160,0|8,1:0|0:0,0:0:0:0:
8,240,47691,1,0,0:0:0:0:
100,176,47891,1,0,0:0:0:0:
44,80,48091,2,0,P|88:68|120:40,1,80,0|8,0:0|0:0,0:0:0:0:
212,108,48491,1,0,0:0:0:0:
312,160,48691,6,0,L|324:240,1,80,0|0,1:0|0:0,0:0:0:0:
392,148,49091,2,0,L|404:68,1,80,8|0,0:0|0:0,0:0:0:0:
292,52,49491,2,0,P|212:72|128:40,1,160,0|8,0:0|0:0,0:0:0:0:
112,156,50091,1,0,0:0:0:0:
216,196,50291,6,0,L|224:280,1,80,0|0,1:0|0:0,0:0:0:0:
316,336,50691,2,0,P|360:340|396:324,1,80,8|0,0:0|0:0,0:0:0:0:
404,216,51091,2,10,L|492:228,2,80
456,116,51691,1,10,0:0:0:0:
344,124,51891,6,0,P|304:116|264:120,1,80,0|0,1:0|0:0,0:0:0:0:
296,228,52291,2,0,P|288:268|308:320,1,80,8|0,0:0|0:0,0:0:0:0:
184,328,52691,2,0,P|104:348|32:320,1,160,0|8,0:0|0:0,0:0:0:0:
112,244,53291,1,0,0:0:0:0:
112,244,53491,6,0,P|192:224|264:252,1,160,0|8,1:0|0:0,0:0:0:0:
304,144,54091,1,0,0:0:0:0:
316,32,54291,1,0,0:0:0:0:
400,104,54491,2,0,L|480:92,1,80,0|8,0:0|0:0,0:0:0:0:
456,204,54891,1,0,0:0:0:0:
348,236,55091,6,0,P|320:276|308:316,1,80,0|0,1:0|0:0,0:0:0:0:
216,244,55491,2,0,P|170:260|137:286,1,80,8|0,0:0|0:0,0:0:0:0:
124,168,55891,1,0,0:0:0:0:
200,88,56091,1,0,0:0:0:0:
96,44,56291,2,0,P|56:56|12:52,1,80,8|0,0:0|0:0,0:0:0:0:
16,164,56691,6,0,P|16:204|40:272,1,80,0|0,1:0|0:0,0:0:0:0:
120,304,57091,1,0,0:0:0:0:
216,244,57291,1,0,0:0:0:0:
324,216,57491,2,0,L|380:204,3,40,0|0|0|0,1:0|1:0|1:0|1:0,1:0:0:0:
380,128,57891,2,0,L|420:120,3,40,0|0|0|0,1:0|1:0|1:0|1:0,1:0:0:0:
172,296,64691,6,0,P|184:268|184:228,1,60.0000022888184,0|0,1:0|0:0,0:0:0:0:
168,156,65091,2,0,P|228:156|264:204,1,120.000004577637
408,60,65891,1,0,0:0:0:0:
464,124,66091,1,0,0:0:0:0:
408,188,66291,6,0,L|424:252,1,60.0000022888184,0|0,1:0|0:0,0:0:0:0:
344,296,66691,2,0,P|328:236|272:216,1,120.000004577637
184,76,67491,1,0,0:0:0:0:
208,244,67891,6,0,L|136:256,1,60.0000022888184,0|0,1:0|0:0,0:0:0:0:
76,208,68291,2,0,P|80:176|72:144,1,60.0000022888184
92,68,68691,1,0,0:0:0:0:
256,112,69091,1,0,0:0:0:0:
276,192,69291,1,0,0:0:0:0:
208,244,69491,6,0,P|216:276|208:308,1,60.0000022888184,0|0,1:0|0:0,0:0:0:0:
288,336,69891,2,0,P|328:316|400:324,1,120.000004577637
292,196,70691,1,0,0:0:0:0:
408,96,71091,6,0,L|340:88,1,60.0000022888184,0|0,1:0|0:0,0:0:0:0:
268,112,71491,1,2,0:0:0:0:
196,72,71691,1,0,0:0:0:0:
128,120,71891,2,0,P|124:164|108:188,1,60.0000022888184
52,228,72291,2,0,P|56:272|72:296,1,60.0000022888184,2|0,0:0|0:0,0:0:0:0:
132,336,72691,6,0,P|184:312|248:328,1,120.000004577637,0|2,1:0|0:0,0:0:0:0:
292,256,73291,1,0,0:0:0:0:
353,310,73491,2,0,P|369:230|293:174,1,180.000006866455
248,108,74291,6,0,L|312:96,1,60.0000022888184,0|0,1:0|0:0,0:0:0:0:
372,44,74691,1,2,0:0:0:0:
435,100,74891,1,0,0:0:0:0:
476,172,75091,2,0,L|464:240,1,60.0000022888184
436,308,75491,2,0,P|400:304|360:320,1,60.0000022888184,2|0,0:0|0:0,0:0:0:0:
304,268,75891,6,0,P|248:288|184:280,1,120.000004577637,0|2,1:0|0:0,0:0:0:0:
116,324,76491,1,0,0:0:0:0:
120,240,76691,2,0,P|120:208|104:180,1,60.0000022888184
180,144,77091,2,0,P|180:112|196:84,1,60.0000022888184,2|0,0:0|0:0,0:0:0:0:
272,112,77491,6,0,P|332:108|376:148,2,120.000004577637,0|0|0,1:0|0:0|0:0,0:0:0:0:
304,188,78491,1,0,0:0:0:0:
260,259,78691,1,0,0:0:0:0:
312,324,78891,1,0,0:0:0:0:
392,296,79091,6,0,P|428:292|468:304,1,60.0000022888184,0|0,1:0|0:0,0:0:0:0:
480,220,79491,2,0,L|460:96,1,120.000004577637
384,72,80091,2,0,L|320:56,2,60.0000022888184
336,140,80691,6,0,P|304:140|256:160,1,60.0000022888184,0|0,1:0|0:0,0:0:0:0:
204,104,81091,2,0,P|228:160|220:240,1,120.000004577637
192,296,81691,2,0,P|160:300|132:292,1,60.0000022888184
64,344,82091,1,0,0:0:0:0:
56,260,82291,6,0,P|48:220|36:192,1,60.0000022888184,0|0,1:0|0:0,0:0:0:0:
88,132,82691,1,0,0:0:0:0:
88,132,82891,2,0,P|120:120|160:120,1,60.0000022888184
200,56,83291,1,0,0:0:0:0:
236,131,83491,2,0,P|240:166|229:204,1,60.0000022888184
312,100,83891,5,0,1:0:0:0:
384,56,84091,1,0,0:0:0:0:
388,140,84291,2,0,P|420:140|452:156,1,60.0000022888184,2|0,0:0|0:0,0:0:0:0:
400,220,84691,2,0,P|368:220|336:236,1,60.0000022888184
392,300,85091,2,0,P|424:300|456:316,1,60.0000022888184,2|0,0:0|0:0,0:0:0:0:
316,336,85491,6,0,P|260:344|204:316,1,120.000004577637,0|2,1:0|0:0,0:0:0:0:
132,272,86091,1,0,0:0:0:0:
132,272,86291,2,0,L|156:208,1,60.0000022888184
92,156,86691,2,0,L|68:92,1,60.0000022888184,2|0,0:0|0:0,0:0:0:0:
140,48,87091,5,0,1:0:0:0:
140,48,87291,2,0,L|212:36,2,60.0000022888184,0|2|0,0:0|0:0|0:0,0:0:0:0:
188,116,87891,1,0,0:0:0:0:
188,116,88091,2,0,L|256:128,2,60.0000022888184,0|2|0,0:0|0:0|0:0,0:0:0:0:
192,200,88691,6,0,P|200:232|200:268,1,60.0000022888184,0|0,1:0|0:0,0:0:0:0:
248,328,89091,2,0,P|284:316|320:320,1,60.0000022888184,2|0,0:0|0:0,0:0:0:0:
380,264,89491,2,0,L|420:284,3,30.0000011444092,0|0|0|0,1:0|1:0|1:0|1:0,1:0:0:0:
460,224,89891,2,0,L|500:244,3,30.0000011444092,0|0|0|0,1:0|1:0|1:0|1:0,1:0:0:0:
472,136,90291,6,0,L|460:52,1,80,0|0,1:0|0:0,0:0:0:0:
352,72,90691,2,0,P|312:68|272:88,1,80,8|0,0:0|0:0,0:0:0:0:
168,60,91091,2,0,P|180:100|184:152,1,80
104,220,91491,2,0,P|92:180|88:128,1,80,8|0,0:0|0:0,0:0:0:0:
168,60,91891,6,0,P|232:104|320:84,1,160,0|8,1:0|0:0,0:0:0:0:
288,200,92491,1,0,0:0:0:0:
196,268,92691,1,0,0:0:0:0:
296,320,92891,1,0,0:0:0:0:
296,320,93091,2,0,P|336:312|380:320,1,80,8|0,0:0|0:0,0:0:0:0:
480,276,93491,6,0,P|452:200|472:120,1,160,0|8,1:0|0:0,0:0:0:0:
360,96,94091,1,0,0:0:0:0:
360,96,94291,2,0,P|312:104|280:92,1,80
216,184,94691,2,0,P|264:176|296:188,1,80,8|0,0:0|0:0,0:0:0:0:
184,280,95091,6,0,P|168:200|164:112,1,160,0|8,1:0|0:0,0:0:0:0:
56,84,95691,1,0,0:0:0:0:
44,196,95891,2,0,P|60:232|56:276,1,80,0|10,0:0|0:0,0:0:0:0:
104,376,96291,2,0,P|144:368|188:372,1,80,0|10,1:0|0:0,0:0:0:0:
288,332,96691,6,0,P|368:346|444:292,1,160,0|8,1:0|0:0,0:0:0:0:
348,240,97291,1,0,0:0:0:0:
408,144,97491,2,0,P|328:130|252:184,1,160,0|8,1:0|0:0,0:0:0:0:
199,76,98091,1,0,0:0:0:0:
88,58,98291,6,0,L|100:223,1,160,0|8,1:0|0:0,0:0:0:0:
186,289,98891,1,0,0:0:0:0:
267,212,99091,2,0,L|353:202,1,80
407,109,99491,2,0,L|321:119,1,80,8|0,0:0|0:0,0:0:0:0:
244,44,99891,5,0,1:0:0:0:
244,44,100091,1,0,0:0:0:0:
164,120,100291,1,8,0:0:0:0:
164,120,100491,1,0,0:0:0:0:
92,208,100691,2,0,P|136:212|180:232,1,80
216,328,101091,2,0,P|172:324|128:304,1,80,8|0,0:0|0:0,0:0:0:0:
292,272,101491,6,0,P|364:268|440:320,1,160,0|8,1:0|0:0,0:0:0:0:
504,224,102091,1,0,0:0:0:0:
444,128,102291,1,0,0:0:0:0:
332,144,102491,1,0,0:0:0:0:
332,144,102691,1,8,0:0:0:0:
272,64,102891,1,8,0:0:0:0:
272,64,103091,6,0,L|112:104,1,160,4|8,1:0|0:0,0:0:0:0:
196,184,103691,1,0,0:0:0:0:
196,184,103891,2,0,L|284:196,1,80
212,288,104291,2,0,P|164:288|128:304,1,80,8|0,0:0|0:0,0:0:0:0:
52,223,104691,6,0,P|57:144|26:71,1,160,0|8,1:0|0:0,0:0:0:0:
140,84,105292,1,0,0:0:0:0:
196,183,105491,2,0,P|235:176|274:180,1,80
380,144,105891,1,8,0:0:0:0:
296,68,106091,1,0,0:0:0:0:
380,144,106291,6,0,P|376:184|388:240,1,80,0|0,1:0|0:0,0:0:0:0:
480,280,106691,1,8,0:0:0:0:
384,336,106891,1,0,0:0:0:0:
288,276,107091,2,0,P|244:276|196:300,1,80
104,328,107491,2,0,P|60:332|12:312,1,80,8|0,0:0|0:0,0:0:0:0:
76,216,107891,6,0,P|84:140|48:60,1,160,0|0,1:0|0:0,0:0:0:0:
164,80,108491,1,0,0:0:0:0:
268,124,108691,2,2,L|352:112,1,80,2|10,0:0|0:0,0:0:0:0:
424,196,109091,2,2,L|336:208,1,80,0|10,1:0|0:0,0:0:0:0:
340,320,109491,6,0,L|180:288,1,160,0|8,1:0|0:0,0:0:0:0:
112,200,110091,1,0,0:0:0:0:
112,200,110291,2,0,P|120:152|116:120,1,80
216,72,110691,2,0,P|208:120|212:152,1,80,8|0,0:0|0:0,0:0:0:0:
324,156,111091,6,0,L|312:264,1,80,0|0,1:0|0:0,0:0:0:0:
220,292,111491,1,8,0:0:0:0:
316,352,111691,1,0,0:0:0:0:
412,292,111891,2,0,P|456:284|496:288,1,80
472,176,112291,2,0,P|460:136|464:80,1,80,8|0,0:0|0:0,0:0:0:0:
356,56,112691,6,0,P|272:48|204:80,1,160,0|8,1:0|0:0,0:0:0:0:
96,52,113291,1,0,0:0:0:0:
96,52,113491,2,0,P|105:91|108:136,1,80
60,232,113891,2,0,P|100:244|144:236,1,80,8|0,0:0|0:0,0:0:0:0:
208,328,114291,6,0,L|224:164,1,160,0|8,1:0|0:0,0:0:0:0:
320,112,114891,1,0,0:0:0:0:
400,192,115091,2,0,L|464:184,3,40,0|0|0|0,1:0|1:0|1:0|1:0,1:0:0:0:
440,276,115491,2,0,L|504:268,3,40,0|0|0|0,1:0|1:0|1:0|1:0,1:0:0:0:
256,192,115891,12,2,122291,0:0:0:0:
