osu file format v14

[General]
AudioFilename: neverendingnights.mp3
AudioLeadIn: 0
PreviewTime: 128059
Countdown: 0
SampleSet: Soft
StackLeniency: 0.7
Mode: 0
LetterboxInBreaks: 0
EpilepsyWarning: 1
WidescreenStoryboard: 1

[Editor]
Bookmarks: 32061,64061,96061,128061,160061,176061,208061,240061,272061
DistanceSpacing: 1.2
BeatDivisor: 4
GridSize: 4
TimelineZoom: 1

[Metadata]
Title:Neverending Nights
TitleUnicode:Neverending Nights
Artist:Mr.Kitty
ArtistUnicode:Mr.Kitty
Creator:Pjecoo
Version:Dark
Source:
Tags:D_E_A_T_H DEATH synthpop goth -Bakari-
BeatmapID:666745
BeatmapSetID:296993

[Difficulty]
HPDrainRate:5.5
CircleSize:4
OverallDifficulty:5.5
ApproachRate:6.5
SliderMultiplier:1.4
SliderTickRate:1

[Events]
//Background and Video events
0,0,"bg.jpg",0,0
//Break Periods
2,160259,174059
//Storyboard Layer 0 (Background)
//Storyboard Layer 1 (Fail)
//Storyboard Layer 2 (Pass)
//Storyboard Layer 3 (Foreground)
//Storyboard Sound Samples

[TimingPoints]
59,500,4,2,1,40,1,0
64059,-83.3333333333333,4,2,1,40,0,0
96059,-100,4,2,1,40,0,0
128059,-83.3333333333333,4,2,1,60,0,1
160059,-83.3333333333333,4,2,1,40,0,0
208059,-100,4,2,1,40,0,0
240059,-83.3333333333333,4,2,1,60,0,1
272059,-83.3333333333333,4,2,1,40,0,0

[Colours]
Combo1 : 100,130,136
Combo2 : 217,218,167
Combo3 : 147,168,181
Combo4 : 204,175,239

[HitObjects]
256,192,28309,12,4,32059,0:0:0:0:
137,313,32809,5,0,0:0:0:0:
64,271,33059,2,0,L|45:126,1,140,0|8,0:0|0:0,0:0:0:0:
189,44,34059,1,0,0:0:0:0:
258,286,34809,1,0,0:0:0:0:
292,362,35059,2,0,P|333:323|330:244,1,140,0|8,0:0|0:0,0:0:0:0:
131,139,36059,6,0,B|206:182|240:113|240:113|278:87|320:111,1,210
388,148,37059,2,0,P|415:212|396:292,1,140,0|8,0:0|0:0,0:0:0:0:
244,336,38059,2,0,B|172:308|103:345|103:345|81:303|42:292,1,210
28,221,39059,2,0,P|84:175|158:162,1,140,0|8,0:0|0:0,0:0:0:0:
333,287,40059,5,0,0:0:0:0:
442,59,40809,1,0,0:0:0:0:
366,95,41059,2,0,L|221:81,1,140,0|8,0:0|0:0,0:0:0:0:
101,194,42059,1,0,0:0:0:0:
306,339,42809,1,0,0:0:0:0:
385,311,43059,2,0,L|453:179,1,140,0|8,0:0|0:0,0:0:0:0:
227,155,44059,6,0,P|130:183|46:124,1,210
93,54,45059,1,0,0:0:0:0:
227,155,45559,1,8,0:0:0:0:
359,257,46059,2,0,B|316:275|286:301|286:301|231:237|151:288,1,210
217,347,47059,1,0,0:0:0:0:
359,257,47559,1,8,0:0:0:0:
256,57,48059,5,4,0:0:0:0:
48,199,48809,1,0,0:0:0:0:
109,256,49059,2,0,P|177:246|247:268,1,140,0|8,0:0|0:0,0:0:0:0:
394,342,50059,1,0,0:0:0:0:
455,97,50809,1,0,0:0:0:0:
448,180,51059,2,0,P|387:144|374:78,1,140,0|8,0:0|0:0,0:0:0:0:
145,54,52059,6,0,B|83:69|72:130|72:130|88:198|41:223,1,210
92,290,53059,2,0,P|147:318|224:296,1,140,0|8,0:0|0:0,0:0:0:0:
382,258,54059,2,0,B|398:209|357:165|357:165|370:103|313:64,1,210
277,142,55059,2,0,P|222:170|145:148,1,140,0|8,0:0|0:0,0:0:0:0:
265,324,56059,5,0,0:0:0:0:
441,144,56809,1,0,0:0:0:0:
358,161,57059,2,0,L|225:115,1,140,0|8,0:0|0:0,0:0:0:0:
65,64,58059,1,0,0:0:0:0:
127,308,58809,1,0,0:0:0:0:
203,342,59059,2,0,L|350:329,1,140,0|8,0:0|0:0,0:0:0:0:
445,130,60059,6,0,P|471:220|418:322,1,210
352,270,61059,1,0,0:0:0:0:
445,130,61559,1,8,0:0:0:0:
300,44,62059,2,0,P|216:88|106:65,1,210
95,181,63309,1,8,0:0:0:0:
108,197,63434,1,8,0:0:0:0:
121,212,63559,1,8,0:0:0:0:
133,229,63684,1,8,0:0:0:0:
145,245,63809,1,8,0:0:0:0:
159,260,63934,1,8,0:0:0:0:
169,273,64059,6,0,P|214:310|319:293,1,167.999994873047,4|8,0:0|0:0,0:0:0:0:
478,205,65059,2,0,P|433:168|328:185,1,167.999994873047,0|8,0:0|0:0,0:0:0:0:
251,230,65809,1,0,0:0:0:0:
170,185,66059,2,0,L|122:93,1,83.9999974365235
188,37,66559,2,0,L|236:129,1,83.9999974365235,8|0,0:0|0:0,0:0:0:0:
308,155,67059,1,0,0:0:0:0:
308,155,67309,2,0,P|357:149|405:113,2,83.9999974365235,0|8|0,0:0|0:0|0:0,0:0:0:0:
208,269,68059,6,0,P|169:296|112:283,1,83.9999974365235
58,227,68559,2,0,P|97:200|149:209,1,83.9999974365235,8|0,0:0|0:0,0:0:0:0:
222,156,69059,1,0,0:0:0:0:
286,232,69309,2,0,L|355:292,1,83.9999974365235,0|8,0:0|0:0,0:0:0:0:
445,255,69809,1,0,0:0:0:0:
445,255,70059,2,0,L|376:195,1,83.9999974365235
304,151,70559,2,0,P|241:157|203:247,1,167.999994873047,8|0,0:0|0:0,0:0:0:0:
135,308,71309,2,8,L|54:343,2,83.9999974365235,8|8|0,0:0|0:0|0:0,0:0:0:0:
286,294,72059,6,0,P|368:308|453:246,1,167.999994873047,0|8,0:0|0:0,0:0:0:0:
298,145,73059,2,0,P|216:131|131:193,1,167.999994873047,0|8,0:0|0:0,0:0:0:0:
80,237,73809,1,0,0:0:0:0:
80,237,74059,2,0,P|60:146|132:78,1,167.999994873047,0|8,0:0|0:0,0:0:0:0:
197,59,74809,1,0,0:0:0:0:
280,110,75059,1,0,0:0:0:0:
357,59,75309,1,0,0:0:0:0:
433,110,75559,2,0,L|462:192,1,83.9999974365235,8|0,0:0|0:0,0:0:0:0:
385,300,76059,6,0,L|356:218,1,83.9999974365235
269,189,76559,2,0,P|226:200|176:185,1,83.9999974365235,8|0,0:0|0:0,0:0:0:0:
140,114,77059,2,0,P|183:103|233:118,1,83.9999974365235
299,64,77559,2,0,L|470:88,1,167.999994873047,8|0,0:0|0:0,0:0:0:0:
488,185,78309,1,0,0:0:0:0:
433,258,78559,2,0,L|354:302,1,83.9999974365235,8|0,0:0|0:0,0:0:0:0:
284,336,79059,1,0,0:0:0:0:
199,335,79309,2,0,P|152:308|138:271,1,83.9999974365235,8|8,0:0|0:0,0:0:0:0:
221,260,79809,1,8,0:0:0:0:
352,184,80059,6,0,L|281:136,1,83.9999974365235,4|0,0:0|0:0,0:0:0:0:
201,76,80559,1,8,0:0:0:0:
104,95,80809,1,0,0:0:0:0:
104,95,81059,2,0,P|73:165|115:241,1,167.999994873047,0|8,0:0|0:0,0:0:0:0:
221,260,81809,1,0,0:0:0:0:
221,260,82059,2,0,L|395:229,1,167.999994873047,0|8,0:0|0:0,0:0:0:0:
474,181,82809,2,0,P|480:134|464:91,1,83.9999974365235
381,149,83309,2,0,P|375:196|391:239,1,83.9999974365235,0|8,0:0|0:0,0:0:0:0:
469,285,83809,1,0,0:0:0:0:
351,351,84059,6,0,L|264:344,1,83.9999974365235
190,283,84559,1,8,0:0:0:0:
105,333,84809,1,0,0:0:0:0:
105,333,85059,2,0,L|40:170,1,167.999994873047,0|8,0:0|0:0,0:0:0:0:
78,91,85809,1,0,0:0:0:0:
169,78,86059,2,0,B|256:51|256:112|346:66,1,167.999994873047,0|8,0:0|0:0,0:0:0:0:
392,154,86809,2,0,P|355:171|302:165,1,83.9999974365235
209,197,87309,1,8,0:0:0:0:
253,277,87559,1,8,0:0:0:0:
339,310,87809,1,0,0:0:0:0:
471,285,88059,6,0,P|484:244|479:198,2,83.9999974365235,0|0|8,0:0|0:0|0:0,0:0:0:0:
373,235,88809,1,0,0:0:0:0:
373,235,89059,2,0,L|204:196,1,167.999994873047,0|8,0:0|0:0,0:0:0:0:
127,240,89809,2,0,P|124:292|139:342,1,83.9999974365235
208,373,90309,2,0,P|211:321|196:271,1,83.9999974365235,0|8,0:0|0:0,0:0:0:0:
210,197,90809,1,0,0:0:0:0:
282,139,91059,2,0,L|371:153,1,83.9999974365235
465,142,91559,1,8,0:0:0:0:
465,142,91809,1,0,0:0:0:0:
459,261,92059,6,0,L|298:307,1,167.999994873047,0|8,0:0|0:0,0:0:0:0:
209,337,92809,1,0,0:0:0:0:
121,308,93059,2,0,P|76:238|91:145,1,167.999994873047,0|8,0:0|0:0,0:0:0:0:
56,60,93809,1,0,0:0:0:0:
56,60,94059,2,0,B|141:39|192:121|192:121|228:104|305:122,1,251.999992309571
376,82,95059,1,0,0:0:0:0:
462,151,95309,1,8,0:0:0:0:
445,170,95434,1,8,0:0:0:0:
428,189,95559,1,8,0:0:0:0:
411,207,95684,1,8,0:0:0:0:
394,225,95809,1,8,0:0:0:0:
377,244,95934,1,8,0:0:0:0:
364,260,96059,5,4,0:0:0:0:
257,327,96559,1,0,0:0:0:0:
142,274,97059,2,0,P|80:280|23:366,2,140
254,216,98559,1,0,0:0:0:0:
393,151,99059,2,0,L|466:18,2,140
256,328,100559,5,0,0:0:0:0:
121,253,101059,2,0,P|92:191|122:131,1,140
256,54,102059,1,0,0:0:0:0:
389,131,102559,2,0,P|418:192|375:261,2,140
201,300,104059,6,0,L|56:319,2,140
351,332,105559,1,0,0:0:0:0:
466,229,106059,2,0,P|469:160|410:100,1,140
315,214,107059,2,0,P|260:231|164:211,1,140
78,102,108059,6,0,P|133:85|229:105,1,140
362,58,109059,1,0,0:0:0:0:
486,148,109559,1,0,0:0:0:0:
442,295,110059,2,0,P|390:321|306:312,1,140
210,196,111059,1,0,0:0:0:0:
80,278,111559,1,0,0:0:0:0:
256,98,112059,6,0,L|409:89,1,140,4|8,0:0|0:0,0:0:0:0:
504,198,113059,2,0,L|351:207,1,140,0|8,0:0|0:0,0:0:0:0:
256,316,114059,1,0,0:0:0:0:
111,262,114559,1,8,0:0:0:0:
194,132,115059,2,0,P|159:94|61:76,2,140,0|8|0,0:0|0:0|0:0,0:0:0:0:
386,295,116559,5,8,0:0:0:0:
489,181,117059,2,0,B|432:148|384:179|384:179|349:161,1,140,0|8,0:0|0:0,0:0:0:0:
204,165,118059,2,0,B|147:198|99:167|99:167|73:180,1,140,0|8,0:0|0:0,0:0:0:0:
25,326,119059,1,0,0:0:0:0:
175,294,119559,1,8,0:0:0:0:
416,223,120059,5,0,0:0:0:0:
309,334,120559,2,0,L|174:294,1,140,8|0,0:0|0:0,0:0:0:0:
58,193,121559,1,8,0:0:0:0:
169,87,122059,2,0,P|229:68|319:92,1,140,0|8,0:0|0:0,0:0:0:0:
425,176,123059,2,0,P|365:195|275:171,1,140,0|8,0:0|0:0,0:0:0:0:
136,177,124059,6,0,L|65:311,2,140,0|8|0,0:0|0:0|0:0,0:0:0:0:
290,179,125559,1,8,0:0:0:0:
302,185,126059,5,4,0:0:0:0:
405,279,127309,2,8,L|441:300,5,35
387,280,128059,6,0,P|308:297|228:267,1,167.999994873047,0|8,0:0|0:0,0:0:0:0:
159,193,128809,1,0,0:0:0:0:
253,158,129059,2,0,L|344:143,1,83.9999974365235
427,102,129559,1,8,0:0:0:0:
475,190,129809,1,0,0:0:0:0:
437,336,130059,6,0,P|394:352|348:342,1,83.9999974365235
259,321,130559,1,8,0:0:0:0:
158,310,130809,2,0,L|70:328,2,83.9999974365235
223,232,131559,2,0,P|232:181|200:64,1,167.999994873047,8|0,0:0|0:0,0:0:0:0:
48,198,132559,6,0,L|24:278,2,83.9999974365235,8|0|0,0:0|0:0|0:0,0:0:0:0:
122,129,133309,1,0,0:0:0:0:
122,129,133559,2,0,P|172:141|222:128,1,83.9999974365235,8|0,0:0|0:0,0:0:0:0:
278,67,134059,6,0,P|228:55|178:68,1,83.9999974365235
122,129,134559,1,8,0:0:0:0:
201,190,134809,1,0,0:0:0:0:
282,249,135059,2,0,L|366:251,2,83.9999974365235,0|8|8,0:0|0:0|0:0,0:0:0:0:
154,331,135809,1,0,0:0:0:0:
58,296,136059,6,0,L|48:112,1,167.999994873047,0|8,0:0|0:0,0:0:0:0:
114,63,136809,1,0,0:0:0:0:
171,135,137059,2,0,B|191:177|191:177|184:217,1,83.9999974365235
267,155,137559,2,0,B|247:113|247:113|254:73,1,83.9999974365235,8|0,0:0|0:0,0:0:0:0:
397,62,138059,6,0,P|431:134|411:216,1,167.999994873047,0|8,0:0|0:0,0:0:0:0:
318,258,138809,1,0,0:0:0:0:
318,258,139059,2,0,B|261:278|233:250|233:250|200:217|152:240,2,167.999994873047,0|8|0,0:0|0:0|0:0,0:0:0:0:
412,294,140309,1,0,0:0:0:0:
484,191,140559,5,8,0:0:0:0:
419,108,140809,2,0,L|369:84,1,41.9999987182618
329,97,141059,2,0,P|256:117|166:94,1,167.999994873047,0|8,0:0|0:0,0:0:0:0:
75,56,141809,1,0,0:0:0:0:
31,200,142059,6,0,L|45:295,1,83.9999974365235
134,326,142559,2,0,B|172:341|172:341|212:326,1,83.9999974365235,8|0,0:0|0:0,0:0:0:0:
308,295,143058,1,0,0:0:0:0:
398,250,143309,2,8,B|438:235|438:235|491:256,2,83.9999974365235
259,192,144059,6,0,L|94:158,1,167.999994873047,4|8,0:0|0:0,0:0:0:0:
37,76,144809,1,0,0:0:0:0:
94,158,145059,2,0,P|100:211|92:255,1,83.9999974365235
178,299,145559,2,0,P|172:246|180:202,1,83.9999974365235,8|0,0:0|0:0,0:0:0:0:
280,106,146059,6,0,P|361:78|440:137,1,167.999994873047,0|8,0:0|0:0,0:0:0:0:
349,178,146809,1,0,0:0:0:0:
256,217,147059,2,0,P|175:245|96:186,1,167.999994873047,0|8,0:0|0:0,0:0:0:0:
38,125,147809,1,0,0:0:0:0:
38,125,148059,6,0,P|117:112|209:154,1,167.999994873047,0|8,0:0|0:0,0:0:0:0:
258,224,148809,1,0,0:0:0:0:
410,273,149059,2,0,L|391:355,2,83.9999974365235,0|0|8,0:0|0:0|0:0,0:0:0:0:
471,197,149809,1,0,0:0:0:0:
410,116,150059,6,0,P|364:104|307:114,1,83.9999974365235
250,171,150559,2,0,P|208:173|168:162,1,83.9999974365235,8|0,0:0|0:0,0:0:0:0:
72,129,151059,1,0,0:0:0:0:
104,224,151309,1,8,0:0:0:0:
184,284,151559,1,8,0:0:0:0:
288,268,151809,1,0,0:0:0:0:
355,342,152059,6,0,P|388:264|347:187,1,167.999994873047,0|8,0:0|0:0,0:0:0:0:
250,193,152809,1,0,0:0:0:0:
150,208,153059,2,0,L|67:220,1,83.9999974365235
8,137,153559,2,0,L|91:125,1,83.9999974365235,8|0,0:0|0:0,0:0:0:0:
241,135,154059,6,0,P|318:114|382:174,1,167.999994873047,0|8,0:0|0:0,0:0:0:0:
292,217,154809,1,0,0:0:0:0:
232,298,155059,2,0,L|50:323,2,167.999994873047,0|8|0,0:0|0:0|0:0,0:0:0:0:
382,289,156309,5,0,0:0:0:0:
442,208,156559,1,8,0:0:0:0:
400,115,156809,1,0,0:0:0:0:
322,50,157059,2,0,B|277:44|277:44|236:58,1,83.9999974365235
159,117,157559,2,0,B|122:129|122:129|77:123,1,83.9999974365235,8|0,0:0|0:0,0:0:0:0:
33,261,158059,6,0,B|59:257|85:282|85:282|125:237|190:258,1,167.999994873047,0|8,0:0|0:0,0:0:0:0:
256,328,158809,1,0,0:0:0:0:
348,287,159059,1,0,0:0:0:0:
412,209,159309,2,8,L|462:200,5,41.9999987182618
483,160,160059,5,12,0:0:0:0:
95,297,176059,6,0,P|177:318|246:270,1,167.999994873047,4|8,0:0|0:0,0:0:0:0:
160,220,176809,1,0,0:0:0:0:
160,220,177059,2,0,P|146:179|157:128,1,83.9999974365235
232,78,177559,2,0,P|246:119|235:170,1,83.9999974365235,8|0,0:0|0:0,0:0:0:0:
299,240,178059,1,0,0:0:0:0:
382,296,178309,2,0,L|446:241,1,83.9999974365235,0|8,0:0|0:0,0:0:0:0:
455,140,178809,1,0,0:0:0:0:
375,77,179059,2,0,P|332:70|290:85,1,83.9999974365235
341,171,179559,2,0,P|296:177|256:163,1,83.9999974365235,8|0,0:0|0:0,0:0:0:0:
154,57,180059,6,0,P|112:134|143:212,1,167.999994873047,0|8,0:0|0:0,0:0:0:0:
203,281,180809,1,0,0:0:0:0:
296,318,181059,2,0,L|392:325,1,83.9999974365235
454,256,181559,2,0,L|358:249,1,83.9999974365235,8|0,0:0|0:0,0:0:0:0:
269,246,182059,2,0,B|215:271|221:334|221:334|183:325|155:331,1,167.999994873047,0|8,0:0|0:0,0:0:0:0:
64,301,182809,1,0,0:0:0:0:
114,200,183059,1,0,0:0:0:0:
64,100,183309,1,8,0:0:0:0:
164,100,183559,2,8,B|207:100|207:100|247:79,1,83.9999974365235,8|0,0:0|0:0,0:0:0:0:
383,138,184059,6,0,L|430:312,1,167.999994873047,0|8,0:0|0:0,0:0:0:0:
333,339,184809,1,0,0:0:0:0:
257,272,185059,2,0,P|286:201|281:111,2,167.999994873047,0|8|0,0:0|0:0|0:0,0:0:0:0:
176,332,186309,1,0,0:0:0:0:
80,299,186559,2,0,L|62:213,1,83.9999974365235,8|0,0:0|0:0,0:0:0:0:
126,138,187059,1,0,0:0:0:0:
126,138,187309,2,0,L|144:224,1,83.9999974365235,0|8,0:0|0:0,0:0:0:0:
236,258,187809,1,0,0:0:0:0:
336,144,188059,6,0,L|431:127,2,83.9999974365235,0|0|8,0:0|0:0|0:0,0:0:0:0:
253,84,188809,1,0,0:0:0:0:
175,148,189059,2,0,P|145:222|190:296,1,167.999994873047,0|8,0:0|0:0,0:0:0:0:
253,219,189809,1,0,0:0:0:0:
327,286,190059,2,0,P|359:215|312:138,1,167.999994873047,0|8,0:0|0:0,0:0:0:0:
258,60,190809,2,0,P|229:95|223:145,1,83.9999974365235
282,212,191309,2,8,P|311:177|317:127,1,83.9999974365235
360,56,191809,1,8,0:0:0:0:
417,208,192059,6,0,L|281:307,1,167.999994873047,4|8,0:0|0:0,0:0:0:0:
180,300,192809,1,0,0:0:0:0:
91,251,193059,2,0,P|78:207|82:167,1,83.9999974365235
178,197,193559,2,0,P|219:201|258:187,1,83.9999974365235,8|0,0:0|0:0,0:0:0:0:
350,146,194059,2,0,P|391:141|430:155,1,83.9999974365235
490,236,194559,1,8,0:0:0:0:
407,294,194809,2,0,L|326:319,1,83.9999974365235
238,268,195309,1,0,0:0:0:0:
238,268,195559,2,0,L|319:243,1,83.9999974365235,8|0,0:0|0:0,0:0:0:0:
415,126,196059,6,0,P|456:123|501:85,2,83.9999974365235,0|0|8,0:0|0:0|0:0,0:0:0:0:
317,99,196809,1,0,0:0:0:0:
221,65,197059,2,0,P|133:33|64:84,1,167.999994873047,0|8,0:0|0:0,0:0:0:0:
149,132,197809,1,0,0:0:0:0:
56,172,198059,2,8,L|35:340,1,167.999994873047,0|8,0:0|0:0,0:0:0:0:
136,342,198809,1,0,0:0:0:0:
228,302,199059,1,0,0:0:0:0:
315,252,199309,2,8,L|387:312,2,83.9999974365235,8|8|0,0:0|0:0|0:0,0:0:0:0:
252,110,200059,6,0,B|288:88|328:120|328:120|372:89|412:112,1,167.999994873047,0|8,0:0|0:0,0:0:0:0:
480,180,200809,1,0,0:0:0:0:
390,226,201059,2,0,P|306:256|232:216,1,167.999994873047,0|8,0:0|0:0,0:0:0:0:
153,165,201809,1,0,0:0:0:0:
79,233,202059,2,0,B|66:275|66:275|81:317,1,83.9999974365235
170,357,202559,2,0,B|183:315|183:315|168:273,1,83.9999974365235,8|0,0:0|0:0,0:0:0:0:
256,226,203059,2,0,L|431:251,2,167.999994873047,0|8|0,0:0|0:0|0:0,0:0:0:0:
122,155,204309,5,0,0:0:0:0:
217,122,204559,2,0,P|266:133|306:121,1,83.9999974365235,8|0,0:0|0:0,0:0:0:0:
393,91,205059,2,0,P|433:83|474:94,2,83.9999974365235,0|0|8,0:0|0:0|0:0,0:0:0:0:
364,188,205809,1,0,0:0:0:0:
328,280,206059,2,0,P|256:305|146:188,1,251.999992309571
183,99,207059,1,0,0:0:0:0:
333,113,207309,1,8,0:0:0:0:
320,132,207434,1,8,0:0:0:0:
304,152,207559,1,8,0:0:0:0:
288,172,207684,1,8,0:0:0:0:
276,192,207809,1,8,0:0:0:0:
260,212,207934,1,8,0:0:0:0:
248,228,208059,5,4,0:0:0:0:
55,193,208559,5,0,0:0:0:0:
170,295,209059,2,0,P|231:324|310:300,1,140
401,192,210059,1,0,0:0:0:0:
251,92,210559,2,0,P|180:73|107:93,2,140
435,309,212059,6,0,L|286:328,1,140
156,323,213059,1,0,0:0:0:0:
96,196,213559,1,0,0:0:0:0:
156,69,214059,1,0,0:0:0:0:
254,164,214559,1,0,0:0:0:0:
361,69,215059,2,0,P|410:118|404:190,1,140
209,318,216059,5,0,0:0:0:0:
345,285,216559,1,0,0:0:0:0:
234,198,217059,2,0,P|213:140|246:63,1,140
349,156,218059,2,0,P|371:220|343:287,1,140
210,322,219059,2,0,B|139:295|142:352|59:307,2,140
448,316,220559,6,0,L|472:150,1,140
349,102,221559,1,0,0:0:0:0:
219,155,222059,2,0,L|80:175,2,140
349,207,223559,1,0,0:0:0:0:
146,332,224059,6,0,P|123:267|142:198,1,140,4|8,0:0|0:0,0:0:0:0:
266,261,225059,2,0,P|332:278|397:255,1,140,0|8,0:0|0:0,0:0:0:0:
470,136,226059,1,0,0:0:0:0:
355,54,226559,1,8,0:0:0:0:
257,154,227059,2,0,P|198:193|121:185,1,140,0|8,0:0|0:0,0:0:0:0:
51,304,228059,6,0,L|187:335,1,140,0|8,0:0|0:0,0:0:0:0:
327,335,229059,2,0,L|463:304,1,140,0|8,0:0|0:0,0:0:0:0:
482,165,230059,1,0,0:0:0:0:
344,193,230559,1,8,0:0:0:0:
217,133,231059,2,0,L|78:116,1,140,0|8,0:0|0:0,0:0:0:0:
255,275,232059,6,0,L|394:292,1,140,0|8,0:0|0:0,0:0:0:0:
475,177,233059,2,0,P|418:153|398:73,1,140,0|8,0:0|0:0,0:0:0:0:
257,60,234059,1,0,0:0:0:0:
119,83,234559,2,0,P|101:148|39:177,1,140,8|0,0:0|0:0,0:0:0:0:
111,297,235559,1,8,0:0:0:0:
345,232,236059,6,0,P|298:181|216:166,1,140,0|8,0:0|0:0,0:0:0:0:
95,199,237059,2,0,P|142:250|224:265,1,140,0|8,0:0|0:0,0:0:0:0:
345,298,238059,5,4,0:0:0:0:
375,280,239309,2,8,L|418:274,5,35
363,296,240059,6,0,P|307:315|194:284,1,167.999994873047,4|8,0:0|0:0,0:0:0:0:
127,224,240809,2,0,P|116:178|128:138,1,83.9999974365235
212,92,241309,2,0,P|223:138|211:178,1,83.9999974365235,0|8,0:0|0:0,0:0:0:0:
193,271,241809,1,0,0:0:0:0:
330,334,242059,6,0,L|422:315,1,83.9999974365235
461,228,242559,2,0,L|369:247,1,83.9999974365235,8|0,0:0|0:0,0:0:0:0:
279,264,243059,2,0,P|231:195|255:116,1,167.999994873047,0|8,0:0|0:0,0:0:0:0:
332,180,243809,1,0,0:0:0:0:
332,180,244059,6,0,L|158:211,1,167.999994873047,0|8,0:0|0:0,0:0:0:0:
67,190,244809,1,0,0:0:0:0:
134,115,245059,2,0,P|178:98|220:98,1,83.9999974365235
315,100,245559,2,0,P|332:144|332:186,1,83.9999974365235,8|0,0:0|0:0,0:0:0:0:
227,289,246059,6,0,L|399:296,1,167.999994873047,0|8,0:0|0:0,0:0:0:0:
473,232,246809,1,0,0:0:0:0:
383,186,247059,2,0,B|338:196|338:196|300:188,1,83.9999974365235,0|8,0:0|0:0,0:0:0:0:
207,149,247559,1,8,0:0:0:0:
207,149,247809,1,0,0:0:0:0:
84,237,248059,6,0,P|51:159|91:83,1,167.999994873047,0|8,0:0|0:0,0:0:0:0:
151,163,248809,1,0,0:0:0:0:
222,233,249059,2,0,P|268:254|318:250,1,83.9999974365235
381,192,249559,2,0,P|335:171|285:175,1,83.9999974365235,8|0,0:0|0:0,0:0:0:0:
151,163,250059,6,0,P|128:224|184:318,1,167.999994873047,0|8,0:0|0:0,0:0:0:0:
269,336,250809,1,0,0:0:0:0:
362,299,251059,2,0,L|432:239,1,83.9999974365235
330,212,251559,2,0,L|393:157,1,83.9999974365235,8|0,0:0|0:0,0:0:0:0:
291,46,252059,6,0,B|232:112|232:112|190:81|139:99,1,167.999994873047,0|8,0:0|0:0,0:0:0:0:
173,193,252809,1,0,0:0:0:0:
173,193,253059,2,0,P|145:243|109:266,1,83.9999974365235
24,249,253559,2,0,P|52:199|88:176,1,83.9999974365235,8|0,0:0|0:0,0:0:0:0:
210,122,254059,6,0,P|246:156|251:199,1,83.9999974365235
241,288,254559,1,8,0:0:0:0:
334,326,254809,2,0,L|421:317,1,83.9999974365235
473,232,255309,1,8,0:0:0:0:
401,136,255559,1,8,0:0:0:0:
258,145,255809,1,8,0:0:0:0:
184,213,256059,6,0,P|259:245|345:197,1,167.999994873047,4|8,0:0|0:0,0:0:0:0:
401,136,256809,1,0,0:0:0:0:
324,69,257059,2,0,P|366:40|410:39,2,83.9999974365235,0|0|8,0:0|0:0|0:0,0:0:0:0:
258,145,257809,1,0,0:0:0:0:
185,277,258059,6,0,L|92:293,2,83.9999974365235,0|0|8,0:0|0:0|0:0,0:0:0:0:
278,314,258809,1,0,0:0:0:0:
372,349,259059,2,0,L|455:197,1,167.999994873047,0|8,0:0|0:0,0:0:0:0:
383,127,259809,1,0,0:0:0:0:
251,202,260059,6,0,P|168:213|106:160,1,167.999994873047,0|8,0:0|0:0,0:0:0:0:
197,117,260809,1,0,0:0:0:0:
280,60,261059,2,0,L|366:91,1,83.9999974365235
402,179,261559,2,0,L|373:258,1,83.9999974365235,8|0,0:0|0:0,0:0:0:0:
238,327,262059,6,0,P|196:337|150:326,1,83.9999974365235
67,282,262559,1,8,0:0:0:0:
144,218,262809,1,0,0:0:0:0:
50,179,263059,2,0,L|35:95,1,83.9999974365235,0|8,0:0|0:0,0:0:0:0:
126,54,263559,1,8,0:0:0:0:
210,108,263809,1,0,0:0:0:0:
351,54,264059,6,0,L|391:221,1,167.999994873047,0|8,0:0|0:0,0:0:0:0:
328,297,264809,1,0,0:0:0:0:
238,346,265059,2,0,B|196:353|196:353|149:336,1,83.9999974365235
100,254,265559,2,0,B|142:247|142:247|189:264,1,83.9999974365235,8|0,0:0|0:0,0:0:0:0:
328,297,266059,6,0,L|403:144,1,167.999994873047,0|8,0:0|0:0,0:0:0:0:
338,67,266809,1,0,0:0:0:0:
255,124,267059,2,0,P|183:83|105:106,1,167.999994873047,0|8,0:0|0:0,0:0:0:0:
173,181,267809,1,0,0:0:0:0:
257,306,268059,6,0,L|435:332,1,167.999994873047,0|8,0:0|0:0,0:0:0:0:
482,248,268809,1,0,0:0:0:0:
382,233,269059,2,0,B|338:242|338:242|297:223,1,83.9999974365235
205,251,269559,2,0,L|34:207,1,167.999994873047,8|0,0:0|0:0,0:0:0:0:
35,108,270309,5,0,0:0:0:0:
128,145,270559,2,0,B|166:157|166:157|214:136,1,83.9999974365235,8|0,0:0|0:0,0:0:0:0:
281,72,271059,1,0,0:0:0:0:
409,152,271309,2,8,L|472:139,5,41.9999987182618
483,138,272059,5,4,0:0:0:0:
