osu file format v14

[General]
AudioFilename: neverendingnights.mp3
AudioLeadIn: 0
PreviewTime: 128059
Countdown: 0
SampleSet: Soft
StackLeniency: 0.7
Mode: 0
LetterboxInBreaks: 0
EpilepsyWarning: 1
WidescreenStoryboard: 1

[Editor]
Bookmarks: 32069,64069,96069,128069,160069,176069,208069,240069,272069
DistanceSpacing: 1.1
BeatDivisor: 4
GridSize: 4
TimelineZoom: 1

[Metadata]
Title:Neverending Nights
TitleUnicode:Neverending Nights
Artist:Mr.Kitty
ArtistUnicode:Mr.Kitty
Creator:Pjecoo
Version:Bakari's Light
Source:
Tags:D_E_A_T_H DEATH synthpop goth -Bakari-
BeatmapID:666744
BeatmapSetID:296993

[Difficulty]
HPDrainRate:3
CircleSize:3
OverallDifficulty:3
ApproachRate:4
SliderMultiplier:1
SliderTickRate:1

[Events]
//Background and Video events
0,0,"bg.jpg",0,0
//Break Periods
2,160259,174069
//Storyboard Layer 0 (Background)
//Storyboard Layer 1 (Fail)
//Storyboard Layer 2 (Pass)
//Storyboard Layer 3 (Foreground)
//Storyboard Sound Samples

[TimingPoints]
59,500,4,2,1,40,1,0
128059,-100,4,2,1,60,0,1
160059,-100,4,2,1,40,0,0
240059,-100,4,2,1,60,0,1
272059,-100,4,2,1,40,0,0

[Colours]
Combo1 : 100,130,136
Combo2 : 217,218,167
Combo3 : 147,168,181
Combo4 : 204,175,239

[HitObjects]
256,192,28309,12,4,32059,0:0:0:0:
96,128,34059,6,0,P|128:120|244:180,1,150,0|0,0:0|0:0,0:0:0:0:
260,208,35059,1,0,0:0:0:0:
220,312,35559,1,8,0:0:0:0:
316,364,36059,6,0,P|380:356|444:288,1,150
436,240,37059,2,0,L|428:128,1,100,0|8,0:0|0:0,0:0:0:0:
324,108,38059,2,0,L|316:268,1,150
268,288,39059,1,0,0:0:0:0:
196,204,39559,1,8,0:0:0:0:
88,232,40059,6,0,P|60:216|4:104,1,150
36,72,41059,2,0,P|80:76|152:56,1,100,0|8,0:0|0:0,0:0:0:0:
236,20,42059,2,0,P|272:28|364:104,1,150
360,152,43059,1,0,0:0:0:0:
460,104,43559,1,8,0:0:0:0:
452,212,44059,6,0,P|420:244|308:244,1,150
264,232,45059,2,0,L|160:216,1,100,0|8,0:0|0:0,0:0:0:0:
136,324,46059,2,0,L|300:316,1,150
332,348,47059,1,0,0:0:0:0:
392,256,47559,1,8,0:0:0:0:
444,160,48059,6,0,L|292:176,1,150,4|0,0:0|0:0,0:0:0:0:
248,148,49059,2,0,P|224:112|212:52,1,100,0|8,0:0|0:0,0:0:0:0:
320,68,50059,2,0,P|344:116|320:224,1,150
296,252,51059,2,0,P|280:288|276:352,1,100,0|8,0:0|0:0,0:0:0:0:
384,324,52059,6,0,L|428:176,1,150
472,148,53059,2,0,P|496:180|512:244,1,100,0|8,0:0|0:0,0:0:0:0:
448,328,54059,2,0,P|420:332|300:264,1,150
288,232,55059,1,0,0:0:0:0:
188,276,55559,1,8,0:0:0:0:
92,328,56059,6,0,P|56:304|24:192,1,150
40,156,57059,2,0,P|80:160|144:136,1,100,0|8,0:0|0:0,0:0:0:0:
248,148,58059,2,0,P|284:180|320:284,1,150
284,316,59059,1,0,0:0:0:0:
184,268,59559,1,8,0:0:0:0:
76,244,60059,6,0,L|60:88,1,150
56,40,61059,1,0,0:0:0:0:
160,80,61559,1,8,0:0:0:0:
256,192,62059,12,4,64059,0:0:0:0:
56,232,65059,6,0,P|80:220|168:212,1,100,0|8,0:0|0:0,0:0:0:0:
252,252,66059,1,0,0:0:0:0:
344,192,66559,2,0,P|348:160|344:132,1,50,8|0,0:0|0:0,0:0:0:0:
324,92,67059,1,0,0:0:0:0:
228,36,67559,1,8,0:0:0:0:
172,132,68059,6,0,L|184:240,2,100,0|8|0,0:0|0:0|0:0,0:0:0:0:
80,76,69559,1,8,0:0:0:0:
28,172,70059,2,0,P|24:216|52:280,1,100,0|8,0:0|0:0,0:0:0:0:
140,316,71059,2,0,L|204:308,1,50,0|8,0:0|0:0,0:0:0:0:
244,328,71559,2,0,L|300:320,1,50,8|0,0:0|0:0,0:0:0:0:
332,280,72059,6,0,P|344:220|340:168,1,100,0|8,0:0|0:0,0:0:0:0:
256,116,73059,2,0,P|224:120|148:92,1,100,0|8,0:0|0:0,0:0:0:0:
120,64,73809,1,0,0:0:0:0:
68,76,74059,2,0,P|52:124|52:180,1,100,0|8,0:0|0:0,0:0:0:0:
108,268,75059,1,0,0:0:0:0:
208,224,75559,2,0,P|232:224|264:228,1,50,8|0,0:0|0:0,0:0:0:0:
300,264,76059,6,0,L|316:368,2,100,0|8|0,0:0|0:0|0:0,0:0:0:0:
364,176,77559,2,0,L|356:112,1,50,8|0,0:0|0:0,0:0:0:0:
384,80,78059,1,0,0:0:0:0:
296,16,78559,1,8,0:0:0:0:
204,76,79059,2,0,P|192:96|184:128,1,50,0|8,0:0|0:0,0:0:0:0:
196,176,79559,2,0,P|196:208|192:232,1,50,8|8,0:0|0:0,0:0:0:0:
156,268,80059,5,4,0:0:0:0:
244,332,80559,1,8,0:0:0:0:
332,268,81059,2,0,L|436:264,1,100,0|8,0:0|0:0,0:0:0:0:
504,180,82059,2,0,P|476:164|404:160,1,100,0|8,0:0|0:0,0:0:0:0:
300,156,83059,2,0,L|304:100,2,50,0|0|8,0:0|0:0|0:0,0:0:0:0:
200,204,84059,6,0,L|188:312,1,100,0|8,0:0|0:0,0:0:0:0:
88,344,85059,2,0,L|84:288,1,50,0|0,0:0|0:0,0:0:0:0:
56,248,85559,1,8,0:0:0:0:
116,156,86059,2,0,P|128:120|128:56,1,100,0|8,0:0|0:0,0:0:0:0:
228,12,87059,2,0,P|256:24|280:40,1,50,0|0,0:0|0:0,0:0:0:0:
280,88,87559,2,0,P|301:100|324:110,1,50,8|8,0:0|0:0,0:0:0:0:
380,112,88059,1,0,0:0:0:0:
432,208,88559,6,0,P|432:240|408:308,1,100,8|0,0:0|0:0,0:0:0:0:
304,336,89559,1,8,0:0:0:0:
220,264,90059,2,0,P|184:268|120:300,1,100,0|8,0:0|0:0,0:0:0:0:
28,244,91059,2,0,P|16:192|24:128,1,100,0|8,0:0|0:0,0:0:0:0:
84,56,92059,5,0,0:0:0:0:
160,136,92559,1,8,0:0:0:0:
264,104,93059,2,0,P|296:100|368:108,1,100,0|8,0:0|0:0,0:0:0:0:
436,188,94059,2,0,P|428:224|440:304,2,100,0|8|0,0:0|0:0|0:0,0:0:0:0:
464,140,95309,2,0,L|520:144,2,50,8|8|8,0:0|0:0|0:0,0:0:0:0:
432,92,96059,5,4,0:0:0:0:
332,44,96559,1,0,0:0:0:0:
256,124,97059,1,0,0:0:0:0:
152,84,97559,1,0,0:0:0:0:
64,152,98059,2,0,P|52:184|52:256,1,100,0|0,0:0|0:0,0:0:0:0:
132,320,99059,2,0,L|244:312,1,100,0|0,0:0|0:0,0:0:0:0:
340,336,100059,6,0,P|384:324|468:196,1,200,0|0,0:0|0:0,0:0:0:0:
404,112,101559,1,0,0:0:0:0:
328,192,102059,2,0,P|256:200|164:120,1,200,0|0,0:0|0:0,0:0:0:0:
200,16,103559,1,0,0:0:0:0:
292,76,104059,6,0,P|328:80|396:64,2,100,0|0|0,0:0|0:0|0:0,0:0:0:0:
192,28,105559,1,0,0:0:0:0:
108,100,106059,2,0,L|100:204,1,100
128,308,107059,2,0,P|156:320|236:312,1,100
324,268,108059,5,0,0:0:0:0:
432,252,108559,1,0,0:0:0:0:
492,160,109059,2,0,L|484:60,1,100
380,28,110059,2,0,P|380:60|408:128,1,100
380,232,111059,2,0,P|348:244|276:244,1,100
184,196,112059,6,0,L|192:296,1,100,4|8,0:0|0:0,0:0:0:0:
104,360,113059,2,0,P|60:364|4:340,2,100,0|8|0,0:0|0:0|0:0,0:0:0:0:
192,296,114559,2,0,P|200:252|132:108,1,200,8|8,0:0|0:0,0:0:0:0:
32,140,116059,6,0,P|24:180|32:244,1,100,0|8,0:0|0:0,0:0:0:0:
116,308,117059,1,0,0:0:0:0:
212,256,117559,1,8,0:0:0:0:
300,192,118059,2,0,B|340:168|392:204|392:204|448:236|504:204,1,200
448,108,119559,1,8,0:0:0:0:
352,52,120059,6,0,L|244:44,1,100,0|8,0:0|0:0,0:0:0:0:
176,124,121059,1,0,0:0:0:0:
240,216,121559,1,8,0:0:0:0:
288,316,122059,2,0,P|239:324|190:315,1,100,0|8,0:0|0:0,0:0:0:0:
132,224,123059,1,0,0:0:0:0:
24,240,123559,1,8,0:0:0:0:
94,325,124059,6,0,P|138:329|238:221,1,200
236,116,125559,1,8,0:0:0:0:
316,40,126059,1,4,0:0:0:0:
412,96,126559,2,0,L|404:216,1,100,0|0,0:0|0:0,0:0:0:0:
352,208,127309,2,0,L|356:272,2,50,8|8|8,0:0|0:0|0:0,0:0:0:0:
308,176,128059,6,0,P|268:180|204:212,1,100,0|8,0:0|0:0,0:0:0:0:
132,280,129059,1,0,0:0:0:0:
220,348,129559,1,8,0:0:0:0:
296,268,130059,2,0,L|408:276,1,100,0|8,0:0|0:0,0:0:0:0:
452,180,131059,2,0,L|352:172,1,100,0|8,0:0|0:0,0:0:0:0:
264,104,132059,6,0,P|296:76|360:60,2,100,0|8|0,0:0|0:0|0:0,0:0:0:0:
280,212,133559,2,0,L|284:268,1,50,8|0,0:0|0:0,0:0:0:0:
304,312,134059,2,0,L|204:304,1,100,0|8,0:0|0:0,0:0:0:0:
108,356,135059,2,0,L|56:332,1,50,0|8,0:0|0:0,0:0:0:0:
60,280,135559,2,0,L|44:228,1,50,8|8,0:0|0:0,0:0:0:0:
64,180,136059,6,0,P|72:145|194:49,1,200,0|0,0:0|0:0,0:0:0:0:
304,72,137559,2,0,P|332:72|360:68,1,50,8|0,0:0|0:0,0:0:0:0:
396,36,138059,1,0,0:0:0:0:
448,132,138559,1,8,0:0:0:0:
496,232,139059,2,0,P|460:240|384:220,1,100,0|8,0:0|0:0,0:0:0:0:
340,132,140059,5,0,0:0:0:0:
256,204,140559,2,0,L|56:192,1,200,8|8,0:0|0:0,0:0:0:0:
92,296,142059,2,0,L|195:302,1,100,0|8,0:0|0:0,0:0:0:0:
300,284,143059,2,0,P|328:284|356:288,1,50,0|8,0:0|0:0,0:0:0:0:
400,308,143559,2,0,P|436:304|464:292,1,50,8|8,0:0|0:0,0:0:0:0:
472,248,144059,6,0,P|488:196|480:148,1,100,4|8,0:0|0:0,0:0:0:0:
380,108,145059,2,0,L|276:116,1,100,0|8,0:0|0:0,0:0:0:0:
184,168,146059,2,0,L|116:160,1,50,0|0,0:0|0:0,0:0:0:0:
84,188,146559,1,8,0:0:0:0:
156,272,147059,2,0,P|204:272|264:240,1,100,0|8,0:0|0:0,0:0:0:0:
360,272,148059,6,0,P|372:309|365:388,2,100,0|8|0,0:0|0:0|0:0,0:0:0:0:
316,172,149559,1,8,0:0:0:0:
224,112,150059,1,0,0:0:0:0:
224,224,150559,2,0,P|262:263|401:233,1,200,8|8,0:0|0:0,0:0:0:0:
416,132,152059,5,0,0:0:0:0:
312,172,152559,2,0,L|292:376,1,200,8|8,0:0|0:0,0:0:0:0:
184,348,154059,2,0,P|164:300|164:240,1,100,0|8,0:0|0:0,0:0:0:0:
212,156,155059,2,0,P|216:120|216:96,1,50,0|0,0:0|0:0,0:0:0:0:
244,56,155559,2,0,P|272:36|304:28,1,50,8|0,0:0|0:0,0:0:0:0:
340,32,156059,5,0,0:0:0:0:
432,92,156559,2,0,L|424:144,1,50,8|0,0:0|0:0,0:0:0:0:
376,168,157059,2,0,L|384:276,1,100,0|8,0:0|0:0,0:0:0:0:
284,320,158059,1,0,0:0:0:0:
212,236,158559,1,8,0:0:0:0:
108,200,159059,1,0,0:0:0:0:
56,220,159309,2,0,P|40:256|56:324,1,100,8|8,0:0|0:0,0:0:0:0:
84,360,160059,5,12,0:0:0:0:
320,92,176059,6,0,L|424:100,1,100,4|8,0:0|0:0,0:0:0:0:
460,200,177059,1,0,0:0:0:0:
404,296,177559,1,8,0:0:0:0:
304,344,178059,2,0,P|264:356|200:348,1,100,0|8,0:0|0:0,0:0:0:0:
168,312,178809,1,0,0:0:0:0:
144,264,179059,2,0,L|152:160,1,100,0|8,0:0|0:0,0:0:0:0:
240,100,180059,6,0,L|252:200,2,100,0|8|0,0:0|0:0|0:0,0:0:0:0:
328,36,181559,1,8,0:0:0:0:
412,112,182059,2,0,P|416:144|396:216,1,100,0|8,0:0|0:0,0:0:0:0:
296,244,183059,2,0,P|288:272|284:304,1,50,0|8,0:0|0:0,0:0:0:0:
252,336,183559,2,0,P|224:344|184:344,1,50,8|8,0:0|0:0,0:0:0:0:
152,324,184059,5,0,0:0:0:0:
68,252,184559,1,8,0:0:0:0:
72,144,185059,2,0,P|104:120|172:104,1,100,0|8,0:0|0:0,0:0:0:0:
260,156,186059,2,0,L|312:148,1,50,0|0,0:0|0:0,0:0:0:0:
360,172,186559,2,0,P|368:196|364:288,1,100,8|0,0:0|0:0,0:0:0:0:
288,344,187559,1,8,0:0:0:0:
204,272,188059,5,0,0:0:0:0:
100,304,188559,2,0,B|84:264|108:216|108:216|136:156|108:108,2,200,8|8|8,0:0|0:0|0:0,0:0:0:0:
200,352,191059,2,0,L|256:348,1,50,0|8,0:0|0:0,0:0:0:0:
292,312,191559,2,0,L|352:320,1,50,8|8,0:0|0:0,0:0:0:0:
392,296,192059,6,0,P|405:264|348:107,1,200,4|0,0:0|0:0,0:0:0:0:
248,108,193559,1,8,0:0:0:0:
168,176,194059,2,0,P|120:160|80:112,2,100,0|8|0,0:0|0:0|0:0,0:0:0:0:
248,252,195559,2,0,P|252:288|248:320,1,50,8|0,0:0|0:0,0:0:0:0:
228,352,196059,5,0,0:0:0:0:
332,320,196559,2,0,P|372:320|436:348,2,100,8|0|8,0:0|0:0|0:0,0:0:0:0:
260,232,198059,2,0,P|292:212|324:208,2,50,0|0|8,0:0|0:0|0:0,0:0:0:0:
156,196,199059,2,0,P|144:172|136:144,1,50,0|8,0:0|0:0,0:0:0:0:
88,124,199559,2,0,P|68:136|48:160,1,50,8|8,0:0|0:0,0:0:0:0:
40,208,200059,6,0,L|48:316,1,100,0|8,0:0|0:0,0:0:0:0:
148,356,201059,2,0,L|152:300,1,50,0|0,0:0|0:0,0:0:0:0:
176,256,201559,1,8,0:0:0:0:
276,296,202059,2,0,P|312:300|380:280,1,100,0|8,0:0|0:0,0:0:0:0:
384,176,203059,6,0,P|352:168|244:44,1,200,0|0,0:0|0:0,0:0:0:0:
24,64,205059,2,0,P|0:112|27:251,2,200
68,32,207309,1,0,0:0:0:0:
120,52,207559,2,0,L|172:48,1,50,8|8,0:0|0:0,0:0:0:0:
208,88,208059,5,4,0:0:0:0:
300,28,208559,1,0,0:0:0:0:
408,36,209059,2,0,P|420:76|416:136,1,100
336,208,210059,1,0,0:0:0:0:
240,152,210559,2,0,P|180:148|96:252,1,200,0|0,0:0|0:0,0:0:0:0:
152,340,212059,6,0,P|184:348|256:344,2,100,0|0|0,0:0|0:0|0:0,0:0:0:0:
204,244,213559,1,0,0:0:0:0:
292,176,214059,2,0,P|324:184|440:76,1,200,0|0,0:0|0:0,0:0:0:0:
332,76,215559,1,0,0:0:0:0:
228,24,216059,5,0,0:0:0:0:
184,124,216559,1,0,0:0:0:0:
128,220,217059,2,0,L|124:328,1,100,0|0,0:0|0:0,0:0:0:0:
20,360,218059,2,0,P|-4:308|108:112,1,300
212,112,220059,6,0,L|316:104,1,100,0|0,0:0|0:0,0:0:0:0:
348,208,221059,1,0,0:0:0:0:
396,308,221559,2,0,L|292:304,2,100,0|0|0,0:0|0:0|0:0,0:0:0:0:
476,232,223059,2,0,P|488:208|488:136,1,100,0|0,0:0|0:0,0:0:0:0:
384,100,224059,6,0,P|348:124|276:132,1,100,4|8,0:0|0:0,0:0:0:0:
196,184,225059,2,0,P|176:236|172:288,1,100,0|8,0:0|0:0,0:0:0:0:
244,360,226059,1,0,0:0:0:0:
348,324,226559,2,0,P|416:280|336:228,1,200,8|8,0:0|0:0,0:0:0:0:
249,170,228059,6,0,P|273:138|333:114,2,100,0|8|0,0:0|0:0|0:0,0:0:0:0:
148,200,229559,2,0,L|48:196,2,100,8|0|8,0:0|0:0|0:0,0:0:0:0:
248,244,231059,1,0,0:0:0:0:
352,212,231559,1,8,0:0:0:0:
456,180,232059,6,0,L|452:288,2,100,0|8|0,0:0|0:0|0:0,0:0:0:0:
376,104,233559,1,8,0:0:0:0:
280,156,234059,1,0,0:0:0:0:
172,180,234559,2,0,P|136:180|152:56,1,200,8|8,0:0|0:0,0:0:0:0:
240,96,236059,5,0,0:0:0:0:
296,192,236559,2,0,L|280:304,2,100,8|0|8,0:0|0:0|0:0,0:0:0:0:
392,136,238059,2,0,L|404:344,1,200,4|0,0:0|0:0,0:0:0:0:
352,356,239309,2,8,P|308:360|252:328,1,100
224,292,240059,6,0,L|108:280,2,100,4|8|0,0:0|0:0|0:0,0:0:0:0:
316,232,241559,1,8,0:0:0:0:
408,292,242059,2,0,P|424:244|416:184,1,100,0|8,0:0|0:0,0:0:0:0:
332,128,243059,1,0,0:0:0:0:
232,176,243559,1,8,0:0:0:0:
136,228,244059,6,0,L|32:208,2,100,0|8|0,0:0|0:0|0:0,0:0:0:0:
236,276,245559,2,0,L|300:264,1,50,8|0,0:0|0:0,0:0:0:0:
336,284,246059,1,0,0:0:0:0:
400,196,246559,2,0,P|416:152|412:88,1,100,8|0,0:0|0:0,0:0:0:0:
384,56,247309,2,0,P|360:36|272:28,1,100,8|8,0:0|0:0,0:0:0:0:
252,60,248059,6,0,P|212:76|140:80,1,100,0|8,0:0|0:0,0:0:0:0:
56,128,249059,2,0,L|44:244,1,100,0|8,0:0|0:0,0:0:0:0:
144,280,250059,1,0,0:0:0:0:
140,172,250559,1,8,0:0:0:0:
236,228,251059,2,0,L|336:220,1,100,0|8,0:0|0:0,0:0:0:0:
408,300,252059,5,0,0:0:0:0:
496,236,252559,2,0,P|494:186|477:139,2,100,8|0|8,0:0|0:0|0:0,0:0:0:0:
392,196,254059,2,0,P|374:149|373:99,2,100,0|8|0,0:0|0:0|0:0,0:0:0:0:
348,228,255309,2,0,L|244:216,1,100,8|8,0:0|0:0,0:0:0:0:
208,252,256059,5,4,0:0:0:0:
140,164,256559,2,0,P|132:132|140:56,2,100,8|0|8,0:0|0:0|0:0,0:0:0:0:
248,156,258059,1,0,0:0:0:0:
356,136,258559,2,0,L|352:204,1,50,8|0,0:0|0:0,0:0:0:0:
376,236,259059,1,0,0:0:0:0:
284,296,259559,1,8,0:0:0:0:
180,264,260059,5,0,0:0:0:0:
116,172,260559,2,0,P|112:144|116:116,1,50,8|0,0:0|0:0,0:0:0:0:
152,80,261059,2,0,L|264:88,1,100,0|8,0:0|0:0,0:0:0:0:
352,36,262059,1,0,0:0:0:0:
416,128,262559,2,0,P|420:160|404:236,1,100,8|0,0:0|0:0,0:0:0:0:
356,248,263309,2,0,L|252:244,1,100,8|8,0:0|0:0,0:0:0:0:
208,272,264059,5,0,0:0:0:0:
112,220,264559,1,8,0:0:0:0:
12,176,265059,2,0,L|20:296,1,100,0|8,0:0|0:0,0:0:0:0:
104,348,266059,2,0,L|156:352,1,50,0|0,0:0|0:0,0:0:0:0:
196,316,266559,2,0,P|168:276|104:248,2,100,8|0|8,0:0|0:0|0:0,0:0:0:0:
304,336,268059,6,0,P|332:308|360:248,1,100,0|8,0:0|0:0,0:0:0:0:
300,160,269059,2,0,P|280:148|248:120,2,50,0|0|8,0:0|0:0|0:0,0:0:0:0:
408,176,270059,1,0,0:0:0:0:
488,104,270559,1,8,0:0:0:0:
384,68,271059,1,0,0:0:0:0:
332,84,271309,2,0,L|232:76,1,100,8|8,0:0|0:0,0:0:0:0:
184,104,272059,5,4,0:0:0:0:
