osu file format v14

[General]
AudioFilename: insects.mp3
AudioLeadIn: 0
PreviewTime: 76855
Countdown: 0
SampleSet: Soft
StackLeniency: 0.7
Mode: 0
LetterboxInBreaks: 0
WidescreenStoryboard: 1

[Editor]
Bookmarks: 76855,102455
DistanceSpacing: 1
BeatDivisor: 4
GridSize: 4
TimelineZoom: 1.6

[Metadata]
Title:Insects
TitleUnicode:Insects
Artist:Mr.Kitty
ArtistUnicode:Mr.Kitty
Creator:-Bakari-
Version:Simple
Source:
Tags:life electronic goth new wave post-punk synthpop
BeatmapID:627959
BeatmapSetID:271183

[Difficulty]
HPDrainRate:2
CircleSize:3
OverallDifficulty:2
ApproachRate:3
SliderMultiplier:0.9
SliderTickRate:1

[Events]
//Background and Video events
0,0,"bg.jpg",0,0
//Break Periods
//Storyboard Layer 0 (Background)
//Storyboard Layer 1 (Fail)
//Storyboard Layer 2 (Pass)
//Storyboard Layer 3 (Foreground)
//Storyboard Sound Samples

[TimingPoints]
25655,400,4,2,0,50,1,0
76855,-100,4,2,0,50,0,1
102455,-100,4,2,0,50,0,0
128055,-100,4,2,0,50,0,1
153655,-100,4,2,0,5,0,0

[Colours]
Combo1 : 109,146,137
Combo2 : 99,109,86
Combo3 : 129,105,139
Combo4 : 158,109,107

[HitObjects]
64,72,25655,6,0,P|55:123|215:233,1,270,4|0,0:1|1:0,0:0:0:0:
303,235,27255,2,0,P|426:198|448:72,1,270,0|0,0:0|1:0,0:0:0:0:
372,24,28855,6,0,L|264:16,1,90,0|0,0:0|1:0,0:0:0:0:
148,136,30055,1,0,1:0:0:0:
176,224,30455,1,0,0:0:0:0:
204,308,30855,2,0,P|240:328|344:308,2,135,0|2|0,1:0|1:2|0:0,0:0:0:0:
116,292,32455,6,0,P|84:300|24:288,2,90,0|0|0,1:0|0:0|1:0,0:0:0:0:
168,216,33655,2,0,L|156:120,1,90,0|0,0:0|1:0,0:0:0:0:
304,20,34855,1,0,1:0:0:0:
388,52,35255,5,0,0:0:0:0:
472,24,35655,2,0,P|448:116|360:136,1,180,0|0,1:0|1:0,0:0:0:0:
288,108,36855,2,0,P|264:105|201:121,2,90,0|0|0,0:0|1:0|0:0,0:0:0:0:
408,240,38455,5,4,0:1:0:0:
336,292,38855,1,0,1:0:0:0:
176,208,39655,1,0,1:0:0:0:
224,44,40455,2,0,P|188:32|116:40,2,90,0|0|0,1:0|0:0|1:0,0:0:0:0:
288,108,41655,6,0,P|276:136|56:180,1,270,0|0,0:0|1:0,0:0:0:0:
24,112,43255,1,0,0:0:0:0:
76,40,43655,2,0,L|220:48,2,135,0|2|0,1:0|1:2|0:0,0:0:0:0:
100,128,45255,6,0,P|80:156|20:192,2,90,0|0|0,1:0|0:0|1:0,0:0:0:0:
188,108,46455,2,0,P|188:144|168:196,1,90,0|0,0:0|1:0,0:0:0:0:
16,288,47655,1,0,1:0:0:0:
188,340,48455,6,0,P|268:344|348:284,1,180,0|0,1:0|1:0,0:0:0:0:
296,212,49655,2,0,P|256:216|200:200,2,90,0|0|0,0:0|1:0|0:0,0:0:0:0:
368,156,50855,1,0,1:0:0:0:
304,92,51255,6,0,L|208:100,1,90,4|0,0:1|1:0,0:0:0:0:
52,180,52455,2,0,P|40:156|36:84,2,90,0|0|0,1:0|0:0|1:0,0:0:0:0:
192,292,54055,1,0,1:0:0:0:
276,260,54455,6,0,P|292:232|296:160,1,90,0|0,0:0|1:0,0:0:0:0:
216,16,55655,1,0,1:0:0:0:
148,76,56055,2,0,L|140:180,1,90,0|0,0:0|1:0,0:0:0:0:
200,232,56855,2,0,P|220:208|232:148,1,90,0|0,0:0|0:0,0:0:0:0:
312,108,57655,6,0,P|347:133|379:226,2,135,0|0|0,0:0|0:0|1:0,0:0:0:0:
232,68,59255,1,0,0:0:0:0:
68,140,60055,2,0,L|56:44,1,90,0|0,0:0|1:0,0:0:0:0:
148,60,60855,6,0,P|160:93|158:193,2,135,0|0|0,0:0|0:0|1:0,0:0:0:0:
228,20,62455,1,0,0:0:0:0:
316,36,62855,2,0,P|348:36|412:8,1,90,0|0,1:0|0:0,0:0:0:0:
480,60,64055,6,0,P|460:88|320:152,1,180,4|0,0:1|0:0,0:0:0:0:
248,128,65255,1,0,1:0:0:0:
200,204,65655,2,0,L|104:200,1,90,0|0,0:0|1:0,0:0:0:0:
24,44,66855,1,0,1:0:0:0:
208,28,67655,1,0,1:0:0:0:
376,96,68455,6,0,P|400:100|468:72,2,90,0|0|0,1:0|0:0|1:0,0:0:0:0:
296,136,69655,2,0,P|296:168|312:240,1,90,0|0,0:0|0:0,0:0:0:0:
248,296,70455,2,0,P|216:304|80:248,1,180,0|0,0:0|0:0,0:0:0:0:
48,172,71655,1,0,1:0:0:0:
80,88,72055,6,0,P|112:72|180:72,1,90,0|0,0:0|1:0,0:0:0:0:
248,108,72855,2,0,L|344:100,1,90,0|0,0:0|1:0,0:0:0:0:
420,140,73655,2,0,P|444:184|440:284,2,135,0|0|0,0:0|0:0|1:0,0:0:0:0:
352,80,75255,1,0,0:0:0:0:
76,244,76855,6,0,L|52:152,1,90,4|0,0:1|1:0,0:0:0:0:
140,172,77655,2,0,L|160:72,1,90,0|0,0:0|1:0,0:0:0:0:
240,48,78455,2,0,P|296:60|372:160,1,180,0|0,0:0|0:0,0:0:0:0:
316,224,79655,1,0,1:0:0:0:
292,312,80055,5,0,0:0:0:0:
216,268,80455,2,0,P|172:280|136:312,2,90,0|0|0,1:0|0:0|1:0,0:0:0:0:
260,192,81655,2,0,P|224:168|88:184,1,180,0|0,0:0|0:0,0:0:0:0:
204,320,83255,6,0,P|231:330|297:326,2,90,0|0|0,0:0|1:0|0:0,0:0:0:0:
136,260,84455,1,0,1:0:0:0:
208,208,84855,2,0,P|236:164|244:32,2,180,0|0|0,0:0|0:0|0:0,0:0:0:0:
128,248,86855,5,0,1:0:0:0:
196,304,87255,2,0,L|292:308,2,90,0|0|0,0:0|1:0|0:0,0:0:0:0:
116,348,88455,2,0,P|64:328|32:248,2,135,0|2|4,1:0|1:2|0:1,0:0:0:0:
188,296,90055,6,0,L|180:188,2,90,0|0|0,1:0|0:0|1:0,0:0:0:0:
260,348,91255,2,0,P|284:336|320:188,1,180,0|0,0:0|0:0,0:0:0:0:
276,124,92455,1,0,1:0:0:0:
192,156,92855,6,0,P|144:160|96:144,2,90,0|0|0,0:0|1:0|0:0,0:0:0:0:
204,68,94055,1,0,1:0:0:0:
277,123,94455,2,0,L|465:107,1,180,0|0,0:0|0:0,0:0:0:0:
424,196,95655,1,0,0:0:0:0:
388,280,96055,6,0,L|292:272,1,90,0|0,0:0|1:0,0:0:0:0:
224,324,96855,1,0,0:0:0:0:
164,256,97255,1,0,1:0:0:0:
128,176,97655,2,0,P|128:132|152:80,1,90,0|0,0:0|1:0,0:0:0:0:
320,44,98855,1,0,1:0:0:0:
408,20,99255,6,0,P|366:124|300:132,1,180,0|0,0:0|0:0,0:0:0:0:
240,76,100455,1,0,1:0:0:0:
168,132,100855,2,0,L|172:232,1,90,0|0,0:0|1:0,0:0:0:0:
316,332,102055,1,0,1:0:0:0:
396,288,102455,6,0,P|428:240|384:120,1,180,4|0,0:1|0:0,0:0:0:0:
312,100,103655,1,0,1:0:0:0:
240,156,104055,2,0,L|136:148,1,90,0|0,0:0|1:0,0:0:0:0:
48,300,105255,1,0,1:0:0:0:
124,352,105655,6,0,L|320:344,1,180,0|0,0:0|0:0,0:0:0:0:
392,320,106855,2,0,P|408:292|408:224,2,90,0|0|0,1:0|0:0|1:0,0:0:0:0:
324,260,108055,1,0,0:0:0:0:
216,116,108855,6,0,P|184:104|80:128,2,135,0|0|0,0:0|0:0|1:0,0:0:0:0:
260,192,110455,1,0,0:0:0:0:
424,264,111255,2,0,L|432:164,1,90,0|0,0:0|1:0,0:0:0:0:
512,136,112055,6,0,P|532:188|524:272,2,135,0|0|0,0:0|0:0|1:0,0:0:0:0:
460,64,113655,1,0,0:0:0:0:
288,68,114455,1,0,0:0:0:0:
264,156,114855,1,0,1:0:0:0:
228,240,115255,6,0,P|176:256|60:208,1,180,4|0,0:1|0:0,0:0:0:0:
76,124,116455,1,0,1:0:0:0:
164,120,116855,2,0,P|199:100|232:56,1,90,0|0,0:0|1:0,0:0:0:0:
320,60,117655,2,0,P|340:92|352:156,1,90,0|0,0:0|1:0,0:0:0:0:
288,208,118455,6,0,L|280:304,1,90,0|0,0:0|1:0,0:0:0:0:
104,324,119655,2,0,L|100:224,2,90,0|0|0,1:0|0:0|1:0,0:0:0:0:
188,356,120855,1,0,0:0:0:0:
176,176,121655,6,0,P|132:148|12:184,2,180,0|0|0,0:0|0:0|0:0,0:0:0:0:
260,336,124055,2,0,L|356:332,1,90,0|0,0:0|1:0,0:0:0:0:
408,264,124855,6,0,P|352:232|268:228,2,135,0|0|0,0:0|0:0|1:0,0:0:0:0:
468,332,126455,1,0,0:0:0:0:
504,156,127255,1,0,0:0:0:0:
448,88,127655,1,0,1:0:0:0:
356,92,128055,6,0,P|308:96|188:48,2,180,4|0|0,0:1|0:0|0:0,0:0:0:0:
412,24,130055,1,0,1:0:0:0:
448,108,130455,2,0,L|444:208,1,90,0|0,0:0|1:0,0:0:0:0:
468,284,131255,5,0,0:0:0:0:
376,296,131655,2,0,P|356:324|332:384,2,90,0|0|0,1:0|0:0|1:0,0:0:0:0:
344,212,132855,2,0,P|304:204|212:96,1,180,0|0,0:0|0:0,0:0:0:0:
252,24,134055,1,0,0:0:0:0:
328,72,134455,6,0,P|364:72|416:40,2,90,0|0|0,0:0|1:0|0:0,0:0:0:0:
148,92,136055,2,0,L|140:200,1,90,0|0,0:0|1:0,0:0:0:0:
268,328,137255,1,0,1:0:0:0:
332,264,137655,6,0,P|336:220|320:156,2,90,0|0|0,0:0|1:0|0:0,0:0:0:0:
168,340,139255,1,0,0:0:0:0:
108,272,139655,2,0,P|88:264|8:268,2,90,0|0|0,1:0|0:0|1:0,0:0:0:0:
136,188,140855,6,0,P|152:144|156:100,1,90,4|0,0:1|1:0,0:0:0:0:
224,40,141655,2,0,P|264:32|328:40,1,90,0|0,0:0|1:0,0:0:0:0:
388,88,142455,2,0,P|404:132|328:232,2,180,0|0|0,0:0|0:0|0:0,0:0:0:0:
316,140,144455,6,0,P|280:148|212:132,2,90,0|0|0,1:0|0:0|1:0,0:0:0:0:
272,60,145655,2,0,L|80:52,1,180,0|0,0:0|0:0,0:0:0:0:
56,136,146855,1,0,0:0:0:0:
128,188,147255,6,0,L|220:180,1,90,0|0,0:0|1:0,0:0:0:0:
368,280,148455,1,0,1:0:0:0:
424,212,148855,2,0,P|432:176|424:104,2,90,0|0|0,0:0|1:0|0:0,0:0:0:0:
336,204,150055,1,0,1:0:0:0:
280,272,150455,6,0,P|272:308|280:380,2,90,0|0|0,0:0|1:0|0:0,0:0:0:0:
368,280,151655,1,0,1:0:0:0:
420,208,152055,2,0,L|420:112,2,90,0|0|0,0:0|1:0|0:0,0:0:0:0:
496,252,153255,1,0,1:0:0:0:
256,192,153655,12,0,156855,0:0:0:0:
