osu file format v14

[General]
AudioFilename: insects.mp3
AudioLeadIn: 0
PreviewTime: 76855
Countdown: 0
SampleSet: Soft
StackLeniency: 0.7
Mode: 0
LetterboxInBreaks: 0
WidescreenStoryboard: 1

[Editor]
Bookmarks: 76855,102455
DistanceSpacing: 1.1
BeatDivisor: 8
GridSize: 4
TimelineZoom: 1.8

[Metadata]
Title:Insects
TitleUnicode:Insects
Artist:Mr.Kitty
ArtistUnicode:Mr.Kitty
Creator:-Bakari-
Version:Dark
Source:
Tags:life electronic goth new wave post-punk synthpop
BeatmapID:616617
BeatmapSetID:271183

[Difficulty]
HPDrainRate:7
CircleSize:4
OverallDifficulty:7
ApproachRate:8
SliderMultiplier:1.8
SliderTickRate:2

[Events]
//Background and Video events
0,0,"bg.jpg",0,0
//Break Periods
//Storyboard Layer 0 (Background)
//Storyboard Layer 1 (Fail)
//Storyboard Layer 2 (Pass)
//Storyboard Layer 3 (Foreground)
//Storyboard Sound Samples

[TimingPoints]
25655,400,4,2,0,50,1,0
38205,-100,4,1,0,30,0,0
38305,-100,4,2,0,50,0,0
51005,-100,4,1,0,30,0,0
51105,-100,4,2,0,50,0,0
63805,-100,4,1,0,30,0,0
63905,-100,4,2,0,50,0,0
76605,-100,4,1,0,30,0,0
76705,-100,4,2,0,50,0,0
76855,-100,4,2,0,50,0,1
89405,-100,4,1,0,30,0,1
89505,-100,4,2,0,50,0,1
102205,-100,4,1,0,30,0,1
102305,-100,4,2,0,50,0,1
102455,-100,4,2,0,50,0,0
115005,-100,4,1,0,30,0,0
115105,-100,4,2,0,50,0,0
127805,-100,4,1,0,30,0,0
127905,-100,4,2,0,50,0,0
128055,-100,4,2,0,50,0,1
140605,-100,4,1,0,30,0,1
140705,-100,4,2,0,50,0,1
153405,-100,4,1,0,30,0,1
153505,-100,4,2,0,50,0,1
153655,-100,4,2,0,5,0,0

[Colours]
Combo1 : 109,146,137
Combo2 : 99,109,86
Combo3 : 129,105,139
Combo4 : 158,109,107

[HitObjects]
64,276,25655,6,0,P|60:244|80:192,1,90,4|0,0:1|0:0,0:0:0:0:
172,156,26055,1,0,1:0:0:0:
148,60,26255,1,0,0:0:0:0:
244,88,26455,2,0,P|296:84|336:60,1,90,0|2,0:0|0:0,0:0:0:0:
416,108,26855,2,0,P|424:152|412:208,1,90,0|2,1:0|0:0,0:0:0:0:
340,260,27255,2,0,P|380:268|456:376,2,180,0|0|0,0:0|1:0|0:0,0:0:0:0:
256,312,28255,1,2,0:0:0:0:
172,260,28455,2,0,P|164:224|176:172,1,90,0|2,1:0|0:0,0:0:0:0:
228,88,28855,6,0,P|126:79|61:15,2,180,0|0|0,0:0|1:0|0:0,0:0:0:0:
308,32,29855,1,2,0:0:0:0:
348,176,30055,1,0,1:0:0:0:
400,92,30255,1,2,0:0:0:0:
304,112,30455,2,0,P|288:128|276:195,1,90
348,260,30855,1,0,1:0:0:0:
252,288,31055,1,0,0:0:0:0:
160,320,31255,1,0,0:0:0:0:
68,352,31455,1,2,1:2:0:0:
104,212,31655,2,0,P|100:176|72:132,1,90,0|2,0:0|1:2,0:0:0:0:
84,32,32055,6,0,P|132:28|252:104,1,180,0|0,0:0|1:0,0:0:0:0:
244,188,32655,1,0,0:0:0:0:
340,220,32855,2,0,P|372:224|432:216,1,90,0|2,0:0|0:0,0:0:0:0:
468,128,33255,2,0,P|436:124|376:132,1,90,0|2,1:0|0:0,0:0:0:0:
280,136,33655,2,0,P|296:84|416:40,2,180,0|0|0,0:0|1:0|0:0,0:0:0:0:
312,228,34655,1,2,0:0:0:0:
216,204,34855,2,0,L|108:212,1,90,0|2,1:0|0:0,0:0:0:0:
88,120,35255,5,0,0:0:0:0:
188,124,35455,1,0,0:0:0:0:
288,132,35655,1,0,1:0:0:0:
388,136,35855,1,0,0:0:0:0:
344,48,36055,1,0,0:0:0:0:
288,132,36255,1,2,0:0:0:0:
236,216,36455,1,0,1:0:0:0:
172,292,36655,1,2,0:0:0:0:
89,344,36855,2,0,P|82:257|144:196,2,180,0|0|0,0:0|1:0|0:0,0:0:0:0:
180,384,37855,1,2,1:2:0:0:
325,318,38055,1,0,1:0:0:0:
173,293,38255,1,4,0:0:0:0:
268,176,38455,6,0,P|272:144|184:32,2,180,4|0|0,0:1|1:0|0:0,0:0:0:0:
172,196,39455,1,2,0:0:0:0:
244,264,39655,2,0,P|288:268|328:248,1,90,0|2,1:0|0:0,0:0:0:0:
448,327,40055,2,0,P|401:334|348:316,1,90
273,192,40455,1,0,1:0:0:0:
248,344,40655,1,0,0:0:0:0:
160,296,40855,1,0,0:0:0:0:
64,280,41055,1,2,0:0:0:0:
116,196,41255,2,0,P|120:148|108:100,1,90,0|2,1:0|0:0,0:0:0:0:
156,20,41655,6,0,P|200:52|248:188,2,180,0|0|0,0:0|1:0|0:0,0:0:0:0:
64,52,42655,1,2,0:0:0:0:
16,140,42855,2,0,P|8:164|16:232,1,90,0|2,1:0|0:0,0:0:0:0:
169,342,43255,2,0,P|173:294|95:190,2,180,0|0|0,0:0|1:0|0:0,0:0:0:0:
72,348,44255,1,2,1:2:0:0:
128,271,44455,2,0,P|172:263|216:279,1,90,0|2,0:0|1:2,0:0:0:0:
304,232,44855,6,0,P|316:196|244:64,1,180,0|0,0:0|1:0,0:0:0:0:
163,92,45455,1,0,0:0:0:0:
144,188,45655,2,0,P|196:188|240:156,1,90,0|2,0:0|0:0,0:0:0:0:
309,312,46055,2,0,P|275:306|227:261,1,90,0|2,1:0|0:0,0:0:0:0:
228,169,46455,2,0,P|176:193|64:137,1,180,0|0,0:0|1:0,0:0:0:0:
88,48,47055,1,0,0:0:0:0:
184,28,47255,2,0,P|188:64|160:112,1,90,0|2,0:0|0:0,0:0:0:0:
57,211,47655,2,0,L|65:311,1,90,0|2,1:0|0:0,0:0:0:0:
148,356,48055,6,0,L|164:176,2,180,0|0|0,0:0|1:0|0:0,0:0:0:0:
228,300,49055,1,2,0:0:0:0:
84,204,49255,2,0,P|80:172|112:112,1,90,0|2,1:0|0:0,0:0:0:0:
180,60,49655,2,0,L|-4:40,2,180,0|0|0,0:0|1:0|0:0,0:0:0:0:
253,185,50655,1,2,1:2:0:0:
320,112,50855,2,0,P|328:92|332:60,3,45,0|0|4|0,1:0|1:0|0:0|1:0,1:0:0:0:
368,36,51255,6,0,P|396:32|496:140,1,180,4|0,0:1|1:0,0:0:0:0:
456,216,51855,1,0,0:0:0:0:
360,188,52055,1,0,0:0:0:0:
268,156,52255,1,0,0:0:0:0:
292,252,52455,2,0,L|280:344,1,90,0|0,1:0|0:0,0:0:0:0:
188,372,52855,2,0,P|160:328|204:196,1,180,0|0,0:0|1:0,0:0:0:0:
268,156,53455,1,0,0:0:0:0:
208,80,53655,2,0,P|180:72|112:88,1,90
8,172,54055,2,0,P|44:176|96:208,1,90,0|0,1:0|0:0,0:0:0:0:
97,327,54455,6,0,P|134:298|276:328,1,180,0|0,0:0|1:0,0:0:0:0:
340,372,55055,1,0,0:0:0:0:
416,308,55255,2,0,L|408:216,1,90
428,32,55655,1,0,1:0:0:0:
344,88,55855,1,0,0:0:0:0:
248,128,56055,2,0,P|180:128|112:20,1,180,0|0,0:0|1:0,0:0:0:0:
212,32,56655,1,0,0:0:0:0:
336,120,56855,2,0,P|328:164|288:200,2,90,0|2|0,0:0|1:2|0:0,0:0:0:0:
316,24,57455,1,2,1:2:0:0:
434,123,57655,6,0,P|430:175|342:287,1,180,0|0,0:0|1:0,0:0:0:0:
260,280,58255,2,0,P|219:247|202:205,1,90
224,116,58655,1,0,0:0:0:0:
316,92,58855,2,0,P|320:120|296:180,1,90,0|0,1:0|0:0,0:0:0:0:
360,256,59255,2,0,P|360:300|248:372,2,180,0|0|0,0:0|1:0|0:0,0:0:0:0:
280,200,60255,1,0,0:0:0:0:
352,132,60455,2,0,L|452:144,1,90,0|0,1:0|0:0,0:0:0:0:
493,21,60855,6,0,L|309:29,1,180,0|0,0:0|1:0,0:0:0:0:
272,120,61455,2,0,L|284:304,1,180
196,344,62055,2,0,P|191:295|219:239,1,90,0|0,1:0|0:0,0:0:0:0:
168,164,62455,2,0,P|112:196|60:308,2,180,0|0|0,0:0|1:0|0:0,0:0:0:0:
318,195,63455,1,2,1:2:0:0:
224,89,63655,1,0,1:0:0:0:
236,234,63855,1,4,0:0:0:0:
320,100,64055,6,0,P|364:116|400:236,1,180,4|0,0:1|1:0,0:0:0:0:
320,292,64655,1,0,0:0:0:0:
318,195,64855,2,0,L|508:184,1,180,0|0,0:0|1:0,0:0:0:0:
468,88,65455,1,0,0:0:0:0:
368,96,65655,2,0,P|344:84|308:28,1,90
212,20,66055,2,0,P|204:68|256:208,1,180,0|0,1:0|0:0,0:0:0:0:
324,248,66655,1,0,0:0:0:0:
216,356,66855,2,0,L|124:344,1,90,0|0,1:0|0:0,0:0:0:0:
96,252,67255,6,0,P|136:244|272:310,2,180,0|0|0,0:0|1:0|0:0,0:0:0:0:
16,312,68255,1,0,0:0:0:0:
40,160,68455,2,0,P|40:120|16:64,1,90,0|0,1:0|0:0,0:0:0:0:
104,16,68855,2,0,P|128:52|132:212,1,180,0|0,0:0|1:0,0:0:0:0:
72,256,69455,1,0,0:0:0:0:
152,316,69655,2,0,P|188:328|244:324,1,90,0|2,0:0|1:2,0:0:0:0:
340,236,70055,2,0,P|300:224|260:180,1,90,0|2,0:0|1:2,0:0:0:0:
224,60,70455,6,0,P|272:76|392:32,1,180,0|0,0:0|1:0,0:0:0:0:
504,127,71055,2,0,P|449:129|402:103,1,90
332,164,71455,1,2,0:0:0:0:
316,260,71655,2,0,P|272:272|224:264,1,90,0|2,1:0|0:0,0:0:0:0:
164,192,72055,2,0,P|164:156|60:56,2,180,0|0|0,0:0|1:0|0:0,0:0:0:0:
124,280,73055,1,2,0:0:0:0:
180,360,73255,2,0,L|272:356,1,90,0|2,1:0|0:0,0:0:0:0:
360,316,73655,6,0,P|384:292|372:152,1,180,0|0,0:0|1:0,0:0:0:0:
280,128,74255,2,0,L|288:228,1,90
228,300,74655,1,2,0:0:0:0:
77,248,74855,2,0,L|65:142,1,90,0|2,1:0|0:0,0:0:0:0:
160,128,75255,2,0,L|148:328,1,180,0|0,0:0|1:0,0:0:0:0:
232,360,75855,1,0,0:0:0:0:
304,292,76055,1,0,0:0:0:0:
240,216,76255,1,2,1:2:0:0:
320,156,76455,2,0,P|324:136|320:108,3,45,0|0|4|0,1:0|1:0|0:0|1:0,1:0:0:0:
348,72,76855,6,0,P|396:68|492:164,1,180,4|0,0:1|1:0,0:0:0:0:
460,244,77455,1,0,0:0:0:0:
364,220,77655,2,0,P|312:240|228:356,1,180,0|0,0:0|1:0,0:0:0:0:
148,288,78255,1,2,0:0:0:0:
56,320,78455,6,0,L|44:228,1,90
144,120,78855,2,0,L|128:212,1,90,0|0,1:0|0:0,0:0:0:0:
236,118,79255,2,0,P|216:66|80:54,1,180,0|0,0:0|1:0,0:0:0:0:
48,124,79855,1,2,0:0:0:0:
104,204,80055,6,0,L|292:192,1,180,0|0,0:0|1:0,0:0:0:0:
340,276,80655,1,0,0:0:0:0:
396,192,80855,2,0,L|384:88,1,90,0|2,0:0|0:0,0:0:0:0:
480,72,81255,2,0,L|472:172,1,90,0|2,1:0|0:0,0:0:0:0:
464,260,81655,6,0,P|428:284|308:228,1,180,0|0,0:0|1:0,0:0:0:0:
292,140,82255,1,0,0:0:0:0:
195,244,82455,2,0,L|95:232,1,90,0|2,0:0|1:2,0:0:0:0:
48,156,82855,1,0,0:0:0:0:
0,248,83055,1,2,1:2:0:0:
3,78,83255,6,0,P|35:54|187:58,1,180,0|0,0:0|1:0,0:0:0:0:
252,100,83855,1,0,0:0:0:0:
208,192,84055,2,0,L|196:292,1,90,0|2,0:0|0:0,0:0:0:0:
325,337,84455,2,0,L|317:245,1,90,0|2,1:0|0:0,0:0:0:0:
404,200,84855,6,0,P|432:240|420:376,2,180,0|0|0,0:0|1:0|0:0,0:0:0:0:
312,168,85855,1,2,0:0:0:0:
392,108,86055,1,0,1:0:0:0:
472,52,86255,1,2,0:0:0:0:
323,55,86455,6,0,P|283:47|230:15,1,90
148,60,86855,2,0,P|140:96|184:240,1,180,0|0,1:0|0:0,0:0:0:0:
256,300,87455,1,2,0:0:0:0:
332,236,87655,2,0,P|332:200|304:140,1,90,0|2,1:0|0:0,0:0:0:0:
324,52,88055,6,0,P|368:52|476:148,1,180,0|0,0:0|1:0,0:0:0:0:
468,232,88655,1,0,0:0:0:0:
357,158,88855,2,0,L|265:150,1,90,0|2,0:0|1:2,0:0:0:0:
192,264,89255,1,0,1:0:0:0:
292,252,89455,1,4,1:0:0:0:
417,333,89655,6,0,P|365:357|248:322,1,180,4|0,0:1|1:0,0:0:0:0:
236,228,90255,1,0,0:0:0:0:
142,337,90455,2,0,P|118:309|112:252,1,90,0|2,0:0|0:0,0:0:0:0:
160,172,90855,2,0,P|124:144|100:104,1,90,0|2,1:0|0:0,0:0:0:0:
200,92,91255,6,0,P|232:104|360:36,2,180,0|0|0,0:0|1:0|0:0,0:0:0:0:
128,24,92255,1,2,0:0:0:0:
66,177,92455,1,0,1:0:0:0:
44,80,92655,1,2,0:0:0:0:
132,124,92855,6,0,P|148:160|148:212,1,90
240,248,93255,2,0,P|272:217|399:163,1,180,0|0,1:0|0:0,0:0:0:0:
488,196,93855,1,2,0:0:0:0:
464,102,94055,1,0,1:0:0:0:
421,259,94255,1,2,0:0:0:0:
396,164,94455,6,0,P|320:124|216:172,1,180,0|0,0:0|1:0,0:0:0:0:
180,232,95055,1,0,0:0:0:0:
313,298,95255,2,0,P|321:270|313:210,1,90,0|2,0:0|1:2,0:0:0:0:
236,152,95655,2,0,L|244:60,1,90,0|2,0:0|1:2,0:0:0:0:
112,15,96055,6,0,L|124:195,2,180,0|0|0,0:0|1:0|0:0,0:0:0:0:
40,84,97055,1,2,0:0:0:0:
200,152,97255,2,0,P|216:188|212:240,1,90,0|2,1:0|0:0,0:0:0:0:
284,304,97655,6,0,P|335:308|437:384,2,180,0|0|0,0:0|1:0|0:0,0:0:0:0:
188,336,98655,1,2,0:0:0:0:
60,262,98855,2,0,P|56:234|68:170,1,90,0|2,1:0|0:0,0:0:0:0:
153,57,99255,6,0,P|187:126|123:230,1,180,0|0,0:0|1:0,0:0:0:0:
60,262,99855,1,0,0:0:0:0:
9,128,100055,2,0,L|99:133,1,90,0|2,0:0|0:0,0:0:0:0:
248,64,100455,1,0,1:0:0:0:
296,152,100655,1,2,0:0:0:0:
440,180,100855,6,0,P|404:234|418:353,2,180,0|0|0,0:0|1:0|0:0,0:0:0:0:
507,108,101855,1,2,1:2:0:0:
412,84,102055,2,0,P|404:60|404:40,3,45,0|0|4|0,1:0|1:0|0:0|1:0,1:0:0:0:
360,20,102455,6,0,P|340:36|300:184,1,180,4|0,0:1|1:0,0:0:0:0:
336,268,103055,1,0,0:0:0:0:
240,248,103255,1,0,0:0:0:0:
144,224,103455,1,0,0:0:0:0:
214,119,103655,2,0,P|200:76|174:39,1,90,0|0,1:0|0:0,0:0:0:0:
9,7,104055,2,0,P|25:67|133:115,2,180,0|0|0,0:0|1:0|0:0,0:0:0:0:
108,12,105055,1,0,0:0:0:0:
207,80,105255,2,0,P|215:112|199:168,1,90,0|0,1:0|0:0,0:0:0:0:
108,200,105655,6,0,P|132:240|92:360,1,180,0|0,0:0|1:0,0:0:0:0:
36,276,106255,1,0,0:0:0:0:
12,180,106455,2,0,P|28:144|76:108,1,90
198,134,106855,2,0,P|168:92|167:42,1,90,0|0,1:0|0:0,0:0:0:0:
260,69,107255,2,0,P|284:109|212:225,1,180,0|0,0:0|1:0,0:0:0:0:
132,208,107855,1,0,0:0:0:0:
184,292,108055,2,0,L|288:284,1,90,0|2,0:0|1:2,0:0:0:0:
386,373,108455,2,0,L|294:369,1,90,0|2,0:0|1:2,0:0:0:0:
196,380,108855,6,0,P|128:360|112:244,1,180,0|0,0:0|1:0,0:0:0:0:
184,204,109455,2,0,P|220:208|264:252,2,90
124,124,110055,2,0,P|128:84|148:36,1,90,0|0,1:0|0:0,0:0:0:0:
244,20,110455,2,0,P|277:46|312:181,1,180,0|0,0:0|1:0,0:0:0:0:
244,240,111055,1,0,0:0:0:0:
152,204,111255,2,0,P|104:212|8:328,1,180,0|0,0:0|1:0,0:0:0:0:
96,356,111855,1,0,0:0:0:0:
192,328,112055,6,0,L|384:344,1,180,0|0,0:0|1:0,0:0:0:0:
428,260,112655,2,0,L|324:268,2,90
477,175,113255,2,0,L|388:168,1,90,0|0,1:0|0:0,0:0:0:0:
508,80,113655,2,0,P|480:64|328:92,1,180,0|0,0:0|1:0,0:0:0:0:
284,164,114255,1,0,0:0:0:0:
188,144,114455,2,0,P|176:100|188:48,1,90,0|2,0:0|1:2,0:0:0:0:
284,164,114855,1,0,1:0:0:0:
304,260,115055,1,4,0:0:0:0:
228,328,115255,6,0,L|416:344,1,180,4|0,0:1|1:0,0:0:0:0:
464,260,115855,1,0,0:0:0:0:
412,176,116055,2,0,P|408:136|424:88,1,90
360,12,116455,2,0,P|328:24|280:68,1,90,0|0,1:0|0:0,0:0:0:0:
204,116,116855,2,0,L|16:100,1,180,0|0,0:0|1:0,0:0:0:0:
56,196,117455,1,0,0:0:0:0:
120,272,117655,2,0,P|160:288|215:280,1,90
276,212,118055,2,0,P|292:252|328:284,1,90,0|0,1:0|0:0,0:0:0:0:
424,272,118455,6,0,P|432:228|368:116,1,180,0|0,0:0|1:0,0:0:0:0:
268,120,119055,1,0,0:0:0:0:
172,92,119255,2,0,P|160:76|144:8,1,90
268,119,119655,2,0,P|280:135|296:203,1,90,0|0,1:0|0:0,0:0:0:0:
240,284,120055,2,0,P|324:288|388:368,1,180,0|0,0:0|1:0,0:0:0:0:
288,372,120655,1,0,0:0:0:0:
152,344,120855,2,0,P|136:312|140:252,1,90,0|2,0:0|1:2,0:0:0:0:
204,184,121255,1,0,0:0:0:0:
108,164,121455,1,2,1:2:0:0:
180,92,121655,6,0,P|224:96|296:216,2,180,0|0|0,0:0|1:0|0:0,0:0:0:0:
108,164,122655,1,2,0:0:0:0:
160,248,122855,2,0,L|152:352,1,90,0|2,1:0|0:0,0:0:0:0:
284,372,123255,2,0,P|280:344|256:288,2,90,0|0|0,0:0|0:0|1:0,0:0:0:0:
352,300,123855,2,0,P|378:265|391:207,2,90,0|0|2,0:0|0:0|0:0,0:0:0:0:
300,216,124455,2,0,P|292:180|292:116,1,90,0|2,1:0|0:0,0:0:0:0:
204,79,124855,6,0,P|169:94|37:29,2,180,0|0|0,0:0|1:0|0:0,0:0:0:0:
284,24,125855,1,2,0:0:0:0:
404,112,126055,2,0,P|408:132|396:208,1,90,0|2,1:0|0:0,0:0:0:0:
310,253,126455,2,0,P|238:258|142:198,1,180,0|0,0:0|1:0,0:0:0:0:
92,120,127055,1,0,0:0:0:0:
55,220,127255,1,0,0:0:0:0:
186,119,127455,1,2,1:2:0:0:
148,205,127655,2,0,P|149:234|161:262,3,45,0|0|4|0,1:0|1:0|0:0|1:0,1:0:0:0:
184,292,128055,6,0,L|-4:280,1,180,4|0,0:1|1:0,0:0:0:0:
48,368,128655,1,0,0:0:0:0:
105,208,128855,2,0,P|108:176|88:116,1,90,0|2,0:0|0:0,0:0:0:0:
148,40,129255,2,0,P|184:40|236:64,1,90,0|2,1:0|0:0,0:0:0:0:
312,120,129655,6,0,P|360:128|468:40,2,180,0|0|0,0:0|1:0|0:0,0:0:0:0:
232,60,130655,1,2,0:0:0:0:
160,128,130855,2,0,P|128:128|64:104,1,90,0|2,1:0|0:0,0:0:0:0:
4,180,131255,6,0,P|56:216|180:232,1,180,0|0,0:0|1:0,0:0:0:0:
252,180,131855,1,0,0:0:0:0:
336,232,132055,2,0,P|344:260|336:328,1,90,0|2,0:0|0:0,0:0:0:0:
253,180,132455,2,0,P|245:152|253:84,1,90,0|2,1:0|0:0,0:0:0:0:
308,12,132855,6,0,L|120:8,1,180,0|0,0:0|1:0,0:0:0:0:
72,84,133455,1,0,0:0:0:0:
148,188,133655,2,0,P|176:160|184:100,2,90,0|2|0,0:0|1:2|0:0,0:0:0:0:
48,184,134255,1,2,1:2:0:0:
96,272,134455,6,0,P|124:284|248:200,2,180,0|0|0,0:0|1:0|0:0,0:0:0:0:
148,188,135455,1,2,0:0:0:0:
248,120,135655,2,0,P|284:128|328:168,1,90,0|2,1:0|0:0,0:0:0:0:
352,256,136055,6,0,P|376:228|516:208,2,180,0|0|0,0:0|1:0|0:0,0:0:0:0:
320,348,137055,1,2,0:0:0:0:
240,288,137255,2,0,P|204:288|148:308,1,90,0|2,1:0|0:0,0:0:0:0:
68,352,137655,6,0,P|56:308|16:268,1,90
48,176,138055,2,0,P|100:152|228:180,1,180,0|0,1:0|0:0,0:0:0:0:
288,240,138655,1,2,0:0:0:0:
380,208,138855,2,0,P|388:176|372:116,1,90,0|2,1:0|0:0,0:0:0:0:
266,9,139255,6,0,P|245:74|312:168,2,180,0|0|0,0:0|1:0|0:0,0:0:0:0:
344,72,140255,1,2,1:2:0:0:
176,128,140455,2,0,L|79:118,1,90,0|4,1:0|0:0,0:0:0:0:
12,184,140855,6,0,P|48:216|180:228,1,180,4|0,0:1|1:0,0:0:0:0:
256,176,141455,1,0,0:0:0:0:
332,236,141655,2,0,P|336:268|320:328,1,90,0|2,0:0|0:0,0:0:0:0:
256,176,142055,2,0,P|252:136|264:84,1,90,0|2,1:0|0:0,0:0:0:0:
196,12,142455,6,0,P|168:24|104:172,1,180,0|0,0:0|1:0,0:0:0:0:
136,240,143055,1,0,0:0:0:0:
276,220,143255,2,0,L|224:132,1,90,0|2,0:0|0:0,0:0:0:0:
322,46,143655,2,0,L|369:126,1,90,0|2,1:0|0:0,0:0:0:0:
433,244,144055,6,0,P|469:216|473:66,1,180,0|0,0:0|1:0,0:0:0:0:
416,20,144655,1,0,0:0:0:0:
322,46,144855,2,0,P|276:52|218:42,1,90,0|2,0:0|0:0,0:0:0:0:
148,100,145255,2,0,P|148:132|168:188,1,90,0|2,1:0|0:0,0:0:0:0:
252,236,145655,6,0,P|212:256|160:376,2,180,0|0|0,0:0|1:0|0:0,0:0:0:0:
404,268,146655,1,2,1:2:0:0:
344,188,146855,2,0,L|328:96,1,90,0|2,0:0|1:2,0:0:0:0:
248,44,147255,6,0,P|208:52|128:188,1,180,0|0,0:0|1:0,0:0:0:0:
128,256,147855,1,0,0:0:0:0:
212,308,148055,2,0,P|224:265|216:221,1,90,0|2,0:0|0:0,0:0:0:0:
276,144,148455,2,0,P|312:140|368:152,1,90,0|2,1:0|0:0,0:0:0:0:
444,208,148855,5,0,0:0:0:0:
440,108,149055,1,0,0:0:0:0:
346,229,149255,2,0,P|366:269|418:301,2,90,0|0|0,1:0|0:0|0:0,0:0:0:0:
372,132,149855,1,2,0:0:0:0:
280,168,150055,2,0,L|184:156,1,90,0|2,1:0|0:0,0:0:0:0:
156,64,150455,6,0,L|336:48,1,180,0|0,0:0|1:0,0:0:0:0:
380,136,151055,1,0,0:0:0:0:
364,232,151255,2,0,P|324:256|268:256,1,90,0|2,0:0|0:0,0:0:0:0:
188,224,151655,1,0,1:0:0:0:
208,320,151855,1,2,0:0:0:0:
292,189,152055,6,0,P|244:141|128:149,1,180,0|0,0:0|1:0,0:0:0:0:
108,236,152655,1,0,0:0:0:0:
36,168,152855,1,0,0:0:0:0:
16,264,153055,1,2,1:2:0:0:
138,144,153255,2,0,P|134:124|122:96,3,45,0|0|4|0,1:0|1:0|0:0|1:0,1:0:0:0:
256,192,153655,12,0,156855,0:0:0:0:
