osu file format v14

[General]
AudioFilename: insects.mp3
AudioLeadIn: 0
PreviewTime: 76855
Countdown: 0
SampleSet: Soft
StackLeniency: 0.7
Mode: 0
LetterboxInBreaks: 0
WidescreenStoryboard: 1

[Editor]
Bookmarks: 76855,102455,159755
DistanceSpacing: 1
BeatDivisor: 4
GridSize: 4
TimelineZoom: 1.6

[Metadata]
Title:Insects
TitleUnicode:Insects
Artist:Mr.Kitty
ArtistUnicode:Mr.Kitty
Creator:-Bakari-
Version:Advanced
Source:
Tags:life electronic goth new wave post-punk synthpop
BeatmapID:618187
BeatmapSetID:271183

[Difficulty]
HPDrainRate:4
CircleSize:3.5
OverallDifficulty:4
ApproachRate:5
SliderMultiplier:1.35
SliderTickRate:2

[Events]
//Background and Video events
0,0,"bg.jpg",0,0
//Break Periods
//Storyboard Layer 0 (Background)
//Storyboard Layer 1 (Fail)
//Storyboard Layer 2 (Pass)
//Storyboard Layer 3 (Foreground)
//Storyboard Sound Samples

[TimingPoints]
25655,400,4,2,0,50,1,0
38205,-100,4,1,0,30,0,0
38305,-100,4,2,0,50,0,0
51005,-100,4,1,0,30,0,0
51105,-100,4,2,0,50,0,0
63805,-100,4,1,0,30,0,0
63905,-100,4,2,0,50,0,0
76855,-100,4,2,0,50,0,1
89405,-100,4,1,0,30,0,1
89505,-100,4,2,0,50,0,1
102455,-100,4,2,0,50,0,0
128055,-100,4,2,0,50,0,1
153655,-100,4,2,0,5,0,0

[Colours]
Combo1 : 109,146,137
Combo2 : 99,109,86
Combo3 : 129,105,139
Combo4 : 158,109,107

[HitObjects]
60,68,25655,6,0,P|92:52|188:60,1,135,4|0,0:1|1:0,0:0:0:0:
316,160,26455,2,0,L|392:148,2,67.5,0|2|0,0:0|0:0|1:0,0:0:0:0:
200,272,27255,2,0,P|244:308|328:320,2,135,0|0|0,0:0|1:0|0:0,0:0:0:0:
192,192,28255,2,0,P|168:204|120:212,2,67.5,2|0|2,0:0|1:0|0:0,0:0:0:0:
196,112,28855,6,0,P|232:120|332:84,1,135,0|0,0:0|1:0,0:0:0:0:
480,136,29655,2,0,P|484:168|476:208,1,67.5,0|2,0:0|0:0,0:0:0:0:
420,260,30055,1,0,1:0:0:0:
360,108,30455,2,0,P|376:68|464:16,2,135,0|0|0,0:0|1:0|0:0,0:0:0:0:
296,160,31455,2,0,L|220:152,1,67.5,2|0,1:2|0:0,0:0:0:0:
156,188,31855,1,2,1:2:0:0:
116,120,32055,6,0,P|124:80|204:20,2,135,0|0|0,0:0|1:0|0:0,0:0:0:0:
164,276,33255,2,0,P|140:292|84:300,1,67.5,0|2,1:0|0:0,0:0:0:0:
46,251,33655,2,0,P|84:207|172:191,1,135,0|0,0:0|1:0,0:0:0:0:
296,268,34455,2,0,L|368:260,1,67.5,0|2,0:0|0:0,0:0:0:0:
436,292,34855,1,0,1:0:0:0:
468,131,35255,6,0,P|469:99|405:15,2,135,0|0|0,0:0|1:0|0:0,0:0:0:0:
320,200,36455,2,0,P|316:172|328:124,1,67.5,0|2,1:0|0:0,0:0:0:0:
272,72,36855,2,0,P|216:64|140:104,1,135,0|0,0:0|1:0,0:0:0:0:
80,140,37455,2,0,P|40:136|4:120,2,67.5,0|0|2,0:0|0:0|1:2,0:0:0:0:
152,176,38055,2,0,P|156:196|156:256,1,67.5,0|4,1:0|0:0,0:0:0:0:
216,300,38455,6,0,P|252:288|368:296,1,135,4|0,0:1|1:0,0:0:0:0:
500,348,39255,1,0,0:0:0:0:
456,192,39655,2,0,P|456:152|464:116,1,67.5,0|2,1:0|0:0,0:0:0:0:
420,56,40055,2,0,P|384:72|320:160,1,135,0|0,0:0|1:0,0:0:0:0:
176,212,40855,2,0,L|108:204,1,67.5,0|2,0:0|0:0,0:0:0:0:
36,240,41255,1,0,1:0:0:0:
180,312,41655,6,0,P|232:296|280:204,1,135,0|0,0:0|1:0,0:0:0:0:
240,160,42255,2,0,P|240:132|252:92,2,67.5,0|0|2,0:0|0:0|0:0,0:0:0:0:
176,212,42855,2,0,P|132:220|100:232,1,67.5,0|2,1:0|0:0,0:0:0:0:
36,196,43255,2,0,P|16:160|24:57,1,135,0|0,0:0|1:0,0:0:0:0:
172,12,44055,2,0,P|180:40|180:84,1,67.5,0|2,0:0|1:2,0:0:0:0:
132,144,44455,1,0,0:0:0:0:
176,212,44655,1,2,1:2:0:0:
252,236,44855,6,0,P|292:228|360:160,2,135,0|0|0,0:0|1:0|0:0,0:0:0:0:
188,288,45855,2,0,P|216:312|264:320,2,67.5,2|0|2,0:0|1:0|0:0,0:0:0:0:
152,216,46455,2,0,P|120:248|140:356,2,135,0|0|0,0:0|1:0|0:0,0:0:0:0:
284,124,47655,2,0,L|292:48,1,67.5,0|2,1:0|0:0,0:0:0:0:
364,20,48055,6,0,L|372:172,2,135,0|0|0,0:0|1:0|0:0,0:0:0:0:
472,140,49255,2,0,P|472:168|456:212,1,67.5,0|2,1:0|0:0,0:0:0:0:
392,252,49655,2,0,P|366:287|380:389,2,135,0|0|0,0:0|1:0|0:0,0:0:0:0:
356,180,50655,2,0,L|276:176,2,67.5,2|0|4,1:2|1:0|0:0,0:0:0:0:
416,124,51255,5,4,0:1:0:0:
264,80,51655,2,0,P|232:92|180:188,1,135,0|0,1:0|0:0,0:0:0:0:
280,304,52455,2,0,P|312:312|340:332,1,67.5,0|0,1:0|0:0,0:0:0:0:
420,332,52855,2,0,P|456:304|488:220,2,135,0|0|0,0:0|1:0|0:0,0:0:0:0:
372,176,54055,2,0,P|392:144|420:120,1,67.5,0|0,1:0|0:0,0:0:0:0:
408,44,54455,6,0,P|364:36|272:56,1,135,0|0,0:0|1:0,0:0:0:0:
168,172,55255,1,0,0:0:0:0:
28,92,55655,2,0,P|28:56|40:24,1,67.5,0|0,1:0|0:0,0:0:0:0:
108,68,56055,2,0,P|112:104|44:172,1,135,0|0,0:0|1:0,0:0:0:0:
124,316,56855,2,0,L|204:308,1,67.5,0|2,0:0|1:2,0:0:0:0:
344,360,57455,1,2,1:2:0:0:
416,324,57655,6,0,P|436:276|412:188,1,135,0|0,0:0|1:0,0:0:0:0:
352,156,58255,2,0,L|216:172,1,135,0|0,0:0|0:0,0:0:0:0:
148,128,58855,1,0,1:0:0:0:
112,288,59255,2,0,P|152:316|256:320,1,135,0|0,0:0|1:0,0:0:0:0:
300,176,60055,2,0,P|272:168|228:176,2,67.5,0|0|0,0:0|0:0|1:0,0:0:0:0:
360,228,60655,1,0,0:0:0:0:
420,172,60855,6,0,P|428:136|392:44,2,135,0|0|0,0:0|1:0|0:0,0:0:0:0:
308,288,62055,2,0,P|308:316|328:356,1,67.5,0|0,1:0|0:0,0:0:0:0:
388,300,62455,2,0,P|376:248|304:208,1,135,0|0,0:0|1:0,0:0:0:0:
180,308,63255,2,0,L|112:312,1,67.5,0|2,0:0|1:2,0:0:0:0:
56,256,63655,2,0,L|64:188,1,67.5,0|4,1:0|0:0,0:0:0:0:
132,144,64055,6,0,P|172:160|232:248,2,135,4|0|0,0:1|1:0|0:0,0:0:0:0:
284,92,65255,2,0,P|296:64|300:28,1,67.5,0|0,1:0|0:0,0:0:0:0:
380,8,65655,2,0,P|392:40|368:160,1,135,0|0,0:0|1:0,0:0:0:0:
432,284,66455,2,0,P|464:292|496:312,2,67.5,0|0|0,0:0|0:0|1:0,0:0:0:0:
276,332,67255,6,0,L|132:328,1,135,0|0,0:0|1:0,0:0:0:0:
100,260,67855,2,0,L|172:252,2,67.5,0|0|0,0:0|0:0|0:0,0:0:0:0:
40,208,68455,1,0,1:0:0:0:
188,144,68855,2,0,P|224:156|280:252,2,135,0|0|0,0:0|1:0|0:0,0:0:0:0:
116,180,69855,2,0,P|104:154|75:125,2,67.5,2|0|2,1:2|0:0|1:2,0:0:0:0:
172,240,70455,6,0,P|124:256|64:332,2,135,0|0|0,0:0|1:0|0:0,0:0:0:0:
332,272,71655,2,0,L|324:192,2,67.5,0|2|0,1:0|0:0|0:0,0:0:0:0:
468,184,72455,2,0,L|480:112,1,67.5,0|0,1:0|0:0,0:0:0:0:
476,36,72855,2,0,P|432:48|396:128,1,135,0|0,0:0|1:0,0:0:0:0:
276,236,73655,6,0,P|236:228|140:272,2,135,0|0|0,0:0|1:0|0:0,0:0:0:0:
336,292,74655,1,2,0:0:0:0:
408,252,74855,2,0,L|404:176,1,67.5,0|2,1:0|0:0,0:0:0:0:
440,112,75255,1,0,0:0:0:0:
296,36,75655,2,0,P|268:32|216:40,1,67.5,0|0,1:0|0:0,0:0:0:0:
176,96,76055,2,0,P|144:96|104:76,2,67.5,0|2|0,0:0|1:2|1:0,0:0:0:0:
336,120,76855,5,4,0:1:0:0:
224,236,77255,2,0,P|264:272|352:280,2,135,0|0|0,1:0|0:0|1:0,0:0:0:0:
80,160,78455,2,0,P|84:188|72:248,1,67.5,0|0,0:0|0:0,0:0:0:0:
144,276,78855,2,0,P|180:244|196:148,1,135,0|0,1:0|0:0,0:0:0:0:
308,44,79655,2,0,P|336:40|384:44,1,67.5,0|2,1:0|0:0,0:0:0:0:
444,88,80055,6,0,P|460:132|448:224,2,135,0|0|0,0:0|1:0|0:0,0:0:0:0:
304,168,81255,2,0,P|296:216|308:264,1,67.5,0|2,1:0|0:0,0:0:0:0:
252,300,81655,2,0,P|216:296|120:344,2,135,0|0|0,0:0|1:0|0:0,0:0:0:0:
332,316,82655,1,2,1:2:0:0:
412,336,82855,2,0,L|404:264,1,67.5,0|2,0:0|1:2,0:0:0:0:
448,200,83255,6,0,P|416:180|368:76,1,135,0|0,0:0|1:0,0:0:0:0:
296,64,83855,2,0,P|268:68|224:60,2,67.5,0|0|2,0:0|0:0|0:0,0:0:0:0:
360,16,84455,1,0,1:0:0:0:
300,168,84855,2,0,L|312:316,1,135,0|0,0:0|1:0,0:0:0:0:
244,348,85455,1,0,0:0:0:0:
200,280,85655,2,0,L|204:212,2,67.5,0|2|0,0:0|0:0|1:0,0:0:0:0:
40,312,86455,6,0,P|16:256|24:168,1,135,0|0,0:0|1:0,0:0:0:0:
40,104,87055,2,0,P|20:80|-12:64,2,67.5,0|0|2,0:0|0:0|0:0,0:0:0:0:
100,156,87655,2,0,P|128:152|164:132,1,67.5,0|2,1:0|0:0,0:0:0:0:
188,56,88055,1,0,0:0:0:0:
316,156,88455,2,0,L|308:304,1,135,0|0,1:0|0:0,0:0:0:0:
252,348,89055,2,0,P|228:344|184:352,2,67.5,2|0|4,1:2|1:0|1:0,0:0:0:0:
332,368,89655,5,4,0:1:0:0:
452,260,90055,2,0,P|472:216|448:124,2,135,0|0|0,1:0|0:0|1:0,0:0:0:0:
292,264,91255,2,0,L|128:248,1,135,0|0,0:0|1:0,0:0:0:0:
116,180,91855,1,0,0:0:0:0:
188,144,92055,2,0,L|260:140,1,67.5,0|2,0:0|0:0,0:0:0:0:
324,96,92455,1,0,1:0:0:0:
412,232,92855,6,0,P|412:304|364:364,2,135,0|0|0,0:0|1:0|0:0,0:0:0:0:
344,188,93855,1,2,0:0:0:0:
276,232,94055,2,0,P|256:236|200:224,1,67.5,0|2,1:0|0:0,0:0:0:0:
152,172,94455,2,0,P|131:212|32:248,2,135,0|0|0,0:0|1:0|0:0,0:0:0:0:
140,92,95455,1,2,1:2:0:0:
216,116,95655,2,0,L|288:112,1,67.5,0|2,0:0|1:2,0:0:0:0:
336,48,96055,5,0,0:0:0:0:
444,172,96455,2,0,P|472:168|512:176,2,67.5,0|0|0,1:0|0:0|0:0,0:0:0:0:
372,212,97055,2,0,P|336:204|292:208,2,67.5,2|0|2,0:0|1:0|0:0,0:0:0:0:
428,272,97655,6,0,P|380:304|356:376,2,135,0|0|0,0:0|1:0|0:0,0:0:0:0:
428,108,98855,2,0,P|404:92|384:52,1,67.5,0|2,1:0|0:0,0:0:0:0:
312,28,99255,2,0,P|288:72|288:172,1,135,0|0,0:0|1:0,0:0:0:0:
164,264,100055,2,0,P|124:264|88:272,1,67.5,0|2,0:0|0:0,0:0:0:0:
28,228,100455,2,0,P|28:192|40:152,1,67.5,0|2,1:0|0:0,0:0:0:0:
100,112,100855,6,0,P|139:122|205:207,2,135,0|0|0,0:0|1:0|0:0,0:0:0:0:
68,36,101855,1,2,1:2:0:0:
148,44,102055,2,0,L|224:36,1,67.5,0|4,1:0|0:0,0:0:0:0:
288,76,102455,6,0,P|348:80|420:32,2,135,4|0|0,0:1|1:0|0:0,0:0:0:0:
216,108,103455,2,0,P|216:136|236:176,2,67.5,0|0|0,0:0|1:0|0:0,0:0:0:0:
148,68,104055,2,0,P|120:96|100:196,1,135,0|0,0:0|1:0,0:0:0:0:
200,312,104855,1,0,0:0:0:0:
348,244,105255,2,0,L|364:176,1,67.5,0|0,1:0|0:0,0:0:0:0:
432,136,105655,6,0,P|456:172|456:276,2,135,0|0|0,0:0|1:0|0:0,0:0:0:0:
272,100,106855,2,0,L|192:104,1,67.5,0|0,1:0|0:0,0:0:0:0:
128,80,107255,2,0,P|120:40|124:12,2,67.5,0|0|0,0:0|0:0|1:0,0:0:0:0:
168,236,108055,2,0,P|160:268|132:308,1,67.5,0|0,0:0|0:1,0:0:0:0:
72,340,108455,1,0,0:0:0:0:
12,288,108655,1,2,1:2:0:0:
60,220,108855,6,0,P|68:184|40:80,1,135,0|0,0:0|1:0,0:0:0:0:
88,20,109455,2,0,P|128:16|220:68,1,135,0|0,0:0|0:0,0:0:0:0:
240,132,110055,1,0,1:0:0:0:
400,100,110455,1,0,0:0:0:0:
332,248,110855,2,0,P|328:284|336:332,1,67.5,0|0,1:0|0:0,0:0:0:0:
268,368,111255,2,0,P|224:344|184:256,1,135,0|0,0:0|1:0,0:0:0:0:
200,108,112055,6,0,P|160:112|72:64,2,135,0|0|0,0:0|1:0|0:0,0:0:0:0:
268,64,113055,1,0,0:0:0:0:
324,124,113255,2,0,L|320:196,1,67.5,0|0,1:0|0:0,0:0:0:0:
288,264,113655,2,0,P|312:276|372:372,2,135,0|0|0,0:0|1:0|0:0,0:0:0:0:
208,280,114655,2,0,L|136:284,2,67.5,2|0|4,1:2|1:0|0:0,0:0:0:0:
232,200,115255,6,0,L|68:180,1,135,4|0,0:1|1:0,0:0:0:0:
180,44,116055,2,0,P|220:40|260:48,1,67.5,0|0,0:0|0:0,0:0:0:0:
308,100,116455,1,0,1:0:0:0:
464,60,116855,2,0,P|472:92|432:192,2,135,0|0|0,0:0|1:0|0:0,0:0:0:0:
304,32,118055,2,0,P|300:64|312:112,1,67.5,0|0,1:0|0:0,0:0:0:0:
260,168,118455,6,0,P|224:176|128:144,2,135,0|0|0,0:0|1:0|0:0,0:0:0:0:
340,176,119455,1,0,0:0:0:0:
328,256,119655,2,0,P|324:296|332:328,1,67.5,0|0,1:0|0:0,0:0:0:0:
404,356,120055,2,0,P|420:324|396:212,1,135,0|0,0:0|1:0,0:0:0:0:
276,136,120855,2,0,L|192:132,2,67.5,0|2|0,0:0|1:2|0:0,0:0:0:0:
332,76,121455,1,2,1:2:0:0:
384,140,121655,6,0,P|376:192|304:244,2,135,0|0|0,0:0|1:0|0:0,0:0:0:0:
248,56,122855,2,0,P|204:60|164:48,1,67.5,0|2,1:0|0:0,0:0:0:0:
108,88,123255,2,0,P|100:136|120:228,1,135,0|0,0:0|1:0,0:0:0:0:
264,288,124055,2,0,P|272:240|252:148,1,135,0|0,0:0|1:0,0:0:0:0:
192,104,124655,1,2,0:0:0:0:
236,36,124855,6,0,L|376:40,1,135,0|0,0:0|1:0,0:0:0:0:
408,112,125455,2,0,L|332:116,2,67.5,0|0|2,0:0|0:0|0:0,0:0:0:0:
468,164,126055,1,0,1:0:0:0:
384,300,126455,2,0,P|340:312|252:280,1,135,0|0,0:0|1:0,0:0:0:0:
180,256,127055,2,0,P|140:264|112:280,2,67.5,0|0|2,0:0|0:0|1:2,0:0:0:0:
244,204,127655,2,0,P|244:172|232:128,1,67.5,0|4,1:0|0:0,0:0:0:0:
176,80,128055,5,4,0:1:0:0:
36,164,128455,2,0,P|32:208|68:300,2,135,0|0|0,1:0|0:0|1:0,0:0:0:0:
176,80,129655,2,0,P|192:124|192:156,1,67.5,0|0,0:0|0:0,0:0:0:0:
240,208,130055,2,0,P|280:216|376:172,1,135,0|0,1:0|0:0,0:0:0:0:
352,24,130855,2,0,P|320:32|284:72,1,67.5,0|2,1:0|0:0,0:0:0:0:
228,100,131255,6,0,L|72:92,1,135,0|0,0:0|1:0,0:0:0:0:
40,156,131855,1,0,0:0:0:0:
92,220,132055,2,0,P|100:252|92:296,1,67.5,0|2,0:0|0:0,0:0:0:0:
44,348,132455,1,0,1:0:0:0:
204,332,132855,2,0,L|352:340,2,135,0|0|0,0:0|1:0|0:0,0:0:0:0:
224,252,133855,2,0,L|156:256,2,67.5,2|0|2,1:2|0:0|1:2,0:0:0:0:
296,212,134455,6,0,P|312:152|280:72,1,135,0|0,0:0|1:0,0:0:0:0:
220,44,135055,1,0,0:0:0:0:
148,80,135255,2,0,P|128:84|72:72,1,67.5,0|2,0:0|0:0,0:0:0:0:
12,32,135655,1,0,1:0:0:0:
16,192,136055,2,0,P|44:216|148:236,1,135,0|0,0:0|1:0,0:0:0:0:
208,200,136655,1,0,0:0:0:0:
280,236,136855,2,0,P|288:272|288:316,1,67.5,0|2,0:0|0:0,0:0:0:0:
352,352,137255,2,0,P|388:356|420:348,1,67.5,0|2,1:0|0:0,0:0:0:0:
488,308,137655,5,0,0:0:0:0:
412,164,138055,2,0,L|420:28,1,135,0|0,1:0|0:0,0:0:0:0:
340,36,138655,1,2,0:0:0:0:
260,56,138855,2,0,L|264:132,1,67.5,0|2,1:0|0:0,0:0:0:0:
208,184,139255,1,0,0:0:0:0:
76,276,139655,2,0,P|49:239|45:150,1,135,0|0,1:0|0:0,0:0:0:0:
88,83,140255,2,0,P|92:57|85:18,2,67.5,2|0|4,1:2|1:0|0:0,0:0:0:0:
152,132,140855,6,0,L|296:120,1,135,4|0,0:1|1:0,0:0:0:0:
360,268,141655,2,0,L|280:260,1,67.5,0|2,0:0|0:0,0:0:0:0:
232,316,142055,1,0,1:0:0:0:
88,240,142455,2,0,P|48:200|48:108,2,135,0|0|0,0:0|1:0|0:0,0:0:0:0:
248,232,143655,2,0,P|279:245|313:271,1,67.5,0|2,1:0|0:0,0:0:0:0:
384,236,144055,6,0,P|404:208|408:100,2,135,0|0|0,0:0|1:0|0:0,0:0:0:0:
240,308,145255,2,0,L|168:304,1,67.5,0|2,1:0|0:0,0:0:0:0:
136,232,145655,2,0,L|280:224,2,135,0|0|0,0:0|1:0|0:0,0:0:0:0:
76,176,146655,1,2,1:2:0:0:
160,36,147055,1,2,1:2:0:0:
224,88,147255,6,0,P|260:92|336:36,2,135,0|0|0,0:0|1:0|0:0,0:0:0:0:
72,28,148455,2,0,L|76:96,1,67.5,0|2,1:0|0:0,0:0:0:0:
132,152,148855,2,0,L|120:304,2,135,0|0|0,0:0|1:0|0:0,0:0:0:0:
296,160,150055,2,0,L|284:80,1,67.5,0|2,1:0|0:0,0:0:0:0:
340,32,150455,6,0,P|376:52|424:144,2,135,0|0|0,0:0|1:0|0:0,0:0:0:0:
180,20,151655,1,0,1:0:0:0:
112,168,152055,2,0,P|92:176|32:176,2,67.5,0|0|0,0:0|0:0|1:0,0:0:0:0:
268,208,152855,2,0,P|272:236|264:292,1,67.5,0|2,0:0|1:2,0:0:0:0:
328,332,153255,2,0,P|356:328|400:332,1,67.5,0|4,1:0|0:0,0:0:0:0:
256,192,153655,12,0,156855,0:0:0:0:
