osu file format v14

[General]
AudioFilename: Mr.Kitty - Hold Me Down.mp3
AudioLeadIn: 0
PreviewTime: 112725
Countdown: 0
SampleSet: Soft
StackLeniency: 0.7
Mode: 0
LetterboxInBreaks: 0
WidescreenStoryboard: 0

[Editor]
Bookmarks: 56947,85391,101169
DistanceSpacing: 1.1
BeatDivisor: 8
GridSize: 4
TimelineZoom: 0.9000002

[Metadata]
Title:Hold Me Down
TitleUnicode:Hold Me Down
Artist:Mr.Kitty
ArtistUnicode:Mr.Kitty
Creator:YellowManul
Version:Light Collab
Source:
Tags:synthpop gothic new wave time Seikatu -Bakari- witch house
BeatmapID:749350
BeatmapSetID:338716

[Difficulty]
HPDrainRate:3
CircleSize:3
OverallDifficulty:3
ApproachRate:4.5
SliderMultiplier:1.65
SliderTickRate:2

[Events]
//Background and Video events
0,0,"drown.jpg",0,0
//Break Periods
//Storyboard Layer 0 (Background)
//Storyboard Layer 1 (Fail)
//Storyboard Layer 2 (Pass)
//Storyboard Layer 3 (Foreground)
//Storyboard Sound Samples

[TimingPoints]
28503,888.888888888889,4,2,0,50,1,0
54725,-100,4,2,0,35,0,0
55169,-100,4,2,0,20,0,0
56947,-83.3333333333333,4,2,0,50,0,1
85391,-100,4,2,0,50,0,0
111614,-100,4,2,0,30,0,0
112058,-100,4,2,0,10,0,0
112725,-100,4,2,0,40,0,0
113836,-83.3333333333333,4,2,0,50,0,1
142280,-100,4,2,0,50,0,0

[Colours]
Combo1 : 213,255,255
Combo2 : 182,197,203
Combo3 : 72,137,172

[HitObjects]
80,328,28502,6,0,P|64:276|96:160,1,165,0|8,0:0|0:0,0:0:0:0:
256,96,30280,2,0,P|304:112|332:116,2,61.875,0|0|0,0:0|0:0|0:0,0:0:0:0:
228,60,31169,1,8,0:0:0:0:
260,240,32058,6,0,L|88:228,1,165,0|8,1:0|0:0,0:0:0:0:
180,68,33836,2,0,P|228:56|252:56,2,61.875,0|0|0,0:0|0:0|0:0,0:0:0:0:
136,80,34725,2,0,L|44:72,1,82.5,10|10,0:0|0:0,0:0:0:0:
52,164,35614,6,0,B|148:172|148:172|188:168|216:136,1,165,0|8,1:0|0:0,0:0:0:0:
308,296,37391,2,0,B|328:271|368:267|368:267|464:275,1,165,0|8,0:0|0:0,0:0:0:0:
432,96,39169,6,0,L|292:112,1,123.75,0|0,1:0|0:0,0:0:0:0:
276,80,40058,1,8,0:0:0:0:
168,224,40947,2,0,L|152:152,2,61.875,0|0|0,0:0|0:0|0:0,0:0:0:0:
148,264,41836,2,0,P|96:264|56:256,1,82.5,10|10,0:0|0:0,0:0:0:0:
24,180,42725,6,0,P|28:148|76:64,2,123.75,0|0|2,1:0|0:0|0:0,0:0:0:0:
88,244,44502,2,0,P|88:276|76:312,2,61.875,0|0|0,0:0|0:0|0:0,0:0:0:0:
104,200,45391,2,0,P|132:176|180:160,1,82.5,8|2,0:0|0:0,0:0:0:0:
260,196,46280,6,0,L|244:20,1,165,0|8,1:0|0:0,0:0:0:0:
404,120,48058,2,0,L|396:196,2,61.875,0|0|0,0:0|0:0|0:0,0:0:0:0:
440,92,48947,1,10,0:0:0:0:
476,176,49391,1,10,0:0:0:0:
504,264,49836,6,0,B|432:308|432:308|392:332|340:312,1,165,0|8,1:0|0:0,0:0:0:0:
212,204,51614,2,0,B|174:188|134:212|134:212|62:256,1,165,0|8,0:0|0:0,0:0:0:0:
52,348,52947,1,0,0:0:0:0:
144,352,53391,6,0,L|216:308,1,82.5,0|0,1:0|0:0,0:0:0:0:
260,300,54058,1,0,0:0:0:0:
300,324,54280,1,8,0:0:0:0:
336,240,54725,1,8,0:0:0:0:
372,156,55169,1,8,0:0:0:0:
100,188,56947,6,0,P|88:216|100:340,2,148.49999546814,0|0|2,1:0|0:0|0:0,0:0:0:0:
180,116,58725,2,0,L|188:24,2,74.2499977340699,0|0|0,0:0|0:0|0:0,0:0:0:0:
208,164,59614,1,10,0:0:0:0:
308,116,60058,1,2,0:0:0:0:
400,172,60502,6,0,L|408:340,1,148.49999546814,0|0,1:0|0:0,0:0:0:0:
364,352,61391,2,0,P|324:336|264:336,1,98.9999969787599,8|2,0:0|0:0,0:0:0:0:
164,364,62280,2,0,L|72:356,2,74.2499977340699
208,328,63169,2,0,P|216:274|204:216,1,98.9999969787599,10|10,0:0|0:0,0:0:0:0:
188,108,64058,6,0,P|232:84|300:84,2,98.9999969787599,0|0|10,1:0|0:0|0:0,0:0:0:0:
388,196,65836,2,0,L|477:188,2,74.2499977340699
356,240,66725,1,8,0:0:0:0:
260,188,67169,1,2,0:0:0:0:
152,208,67614,6,0,P|160:276|272:360,1,197.99999395752,0|8,1:0|0:0,0:0:0:0:
444,248,69391,2,0,L|436:156,2,74.2499977340699,0|0|0,0:0|0:0|0:0,0:0:0:0:
392,268,70280,2,0,P|384:296|388:372,1,98.9999969787599,10|10,0:0|0:0,0:0:0:0:
280,332,71169,6,0,B|180:336|180:336|84:364,1,197.99999395752,0|8,1:0|0:0,0:0:0:0:
48,148,72947,2,0,P|44:108|32:72,2,74.2499977340699,0|0|0,0:0|0:0|0:0,0:0:0:0:
96,172,73836,2,0,P|124:164|212:152,1,98.9999969787599,8|2,0:0|0:0,0:0:0:0:
292,196,74725,6,0,P|304:240|216:368,1,197.99999395752,0|8,1:0|0:0,0:0:0:0:
24,296,76502,2,0,L|12:208,2,74.2499977340699,0|0|0,0:0|0:0|0:0,0:0:0:0:
72,320,77391,1,10,0:0:0:0:
132,228,77836,1,10,0:0:0:0:
204,148,78280,6,0,P|236:208|212:288,1,148.49999546814,0|0,1:0|0:0,0:0:0:0:
268,264,79169,2,0,P|316:272|364:248,1,98.9999969787599,8|0,0:0|0:0,0:0:0:0:
384,356,80058,2,0,P|412:364|468:396,2,74.2499977340699
328,364,80947,2,0,L|220:360,1,98.9999969787599,8|2,0:0|0:0,0:0:0:0:
48,228,81836,6,0,P|96:216|204:240,1,148.49999546814,0|0,1:0|0:0,0:0:0:0:
236,200,82725,2,0,P|240:160|228:84,1,98.9999969787599,8|2,0:0|0:0,0:0:0:0:
156,24,83614,2,0,L|60:28,2,74.2499977340699,0|0|0,0:0|0:0|0:0,0:0:0:0:
124,68,84502,2,0,P|112:120|104:184,1,98.9999969787599,10|10,0:0|0:0,0:0:0:0:
165,233,85391,6,0,L|290:221,1,123.75,0|0,1:0|0:0,0:0:0:0:
330,236,86280,2,0,P|340:260|337:325,1,82.5,8|0,0:0|0:0,0:0:0:0:
428,297,87169,2,0,L|492:305,2,61.875,0|0|0,0:0|0:0|0:0,0:0:0:0:
432,251,88058,2,0,P|422:227|425:162,1,82.5,8|2,0:0|0:0,0:0:0:0:
344,128,88947,6,0,L|296:88,2,61.875,0|0|0,1:0|0:0|0:0,0:0:0:0:
320,168,89836,2,0,L|236:180,1,82.5,8|0,0:0|0:0,0:0:0:0:
168,124,90725,2,0,L|104:132,2,61.875
196,160,91614,2,0,P|205:202|197:246,1,82.5,10|10,0:0|0:0,0:0:0:0:
212,332,92502,6,0,P|275:331|330:301,1,123.75,0|0,1:0|0:0,0:0:0:0:
368,328,93391,2,0,P|404:314|448:316,1,82.5,8|0,0:0|0:0,0:0:0:0:
433,226,94280,2,0,L|439:165,2,61.875,0|0|0,0:0|0:0|0:0,0:0:0:0:
388,236,95169,2,0,P|345:237|300:227,1,82.5,8|2,0:0|0:0,0:0:0:0:
225,270,96058,6,0,P|163:254|102:264,1,123.75,0|0,1:0|0:0,0:0:0:0:
63,281,96947,2,0,P|46:239|49:198,1,82.5,8|2,0:0|0:0,0:0:0:0:
92,123,97836,2,0,P|91:92|78:59,2,61.875,0|0|0,0:0|0:0|0:0,0:0:0:0:
132,143,98725,1,8,0:0:0:0:
291,55,99614,6,0,P|351:62|401:100,1,123.75,0|0,1:0|0:0,0:0:0:0:
416,141,100502,1,8,0:0:0:0:
273,253,101391,2,0,L|281:319,2,61.875,0|0|0,0:0|0:0|0:0,0:0:0:0:
238,223,102280,2,0,P|197:221|159:238,1,82.5,8|2,0:0|0:0,0:0:0:0:
86,183,103169,6,0,L|94:60,1,123.75,0|0,1:0|0:0,0:0:0:0:
133,35,104058,1,8,0:0:0:0:
232,186,104947,2,0,P|231:220|219:252,2,61.875,0|0|0,0:0|0:0|0:0,0:0:0:0:
216,143,105836,1,10,0:0:0:0:
264,66,106280,1,10,0:0:0:0:
348,98,106725,6,0,L|472:88,1,123.75,0|0,1:0|0:0,0:0:0:0:
497,125,107614,2,0,P|490:176|472:203,1,82.5,8|2,0:0|0:0,0:0:0:0:
394,246,108503,2,0,P|363:250|332:245,2,61.875,0|0|0,0:0|0:0|0:0,0:0:0:0:
437,257,109391,2,0,L|432:341,1,82.5,8|2,0:0|0:0,0:0:0:0:
344,364,110280,6,0,P|294:330|231:323,1,123.75,0|0,1:0|0:0,0:0:0:0:
188,336,111169,1,8,0:0:0:0:
212,248,111614,1,8,0:0:0:0:
240,160,112058,1,8,0:0:0:0:
192,161,113836,6,0,L|340:152,1,148.49999546814,0|0,1:0|0:0,0:0:0:0:
376,192,114725,1,8,0:0:0:0:
481,217,115169,1,2,0:0:0:0:
406,296,115614,2,0,P|403:335|414:378,2,74.2499977340699,0|0|0,0:0|0:0|0:0,0:0:0:0:
356,271,116503,1,8,0:0:0:0:
268,336,116947,1,2,0:0:0:0:
196,254,117391,6,0,B|117:233|122:278|51:252,1,148.49999546814,0|0,1:0|0:0,0:0:0:0:
5,221,118280,1,8,0:0:0:0:
89,152,118725,1,2,0:0:0:0:
197,157,119169,2,0,P|192:115|175:84,2,74.2499977340699,0|0|0,0:0|0:0|0:0,0:0:0:0:
246,134,120058,2,0,P|251:181|281:224,1,98.9999969787599,10|10,0:0|0:0,0:0:0:0:
353,142,120947,6,0,L|503:134,1,148.49999546814,0|0,1:0|0:0,0:0:0:0:
483,185,121836,1,8,0:0:0:0:
442,286,122280,1,2,0:0:0:0:
340,245,122725,2,0,P|301:244|266:258,2,74.2499977340699,0|0|0,0:0|0:0|0:0,0:0:0:0:
381,209,123614,1,8,0:0:0:0:
285,156,124058,1,2,0:0:0:0:
183,196,124503,6,0,P|111:179|69:122,1,148.49999546814,0|0,1:0|0:0,0:0:0:0:
70,66,125391,1,8,0:0:0:0:
178,79,125836,1,2,0:0:0:0:
274,28,126280,2,0,L|351:23,2,74.2499977340699,0|0|0,0:0|0:0|0:0,0:0:0:0:
256,79,127169,2,0,P|256:128|286:168,1,98.9999969787599,10|10,0:0|0:0,0:0:0:0:
380,218,128058,6,0,P|415:268|409:353,1,148.49999546814,0|0,1:0|0:0,0:0:0:0:
356,365,128947,2,0,L|257:359,1,98.9999969787599,8|2,0:0|0:0,0:0:0:0:
165,300,129836,2,0,P|129:316|92:317,2,74.2499977340699,0|0|0,0:0|0:0|0:0,0:0:0:0:
204,262,130725,1,8,0:0:0:0:
206,153,131169,1,2,0:0:0:0:
264,60,131614,6,0,L|188:54,2,74.2499977340699,0|0|0,1:0|0:0|0:0,0:0:0:0:
316,68,132503,2,0,P|356:100|360:160,1,98.9999969787599,8|0,0:0|0:0,0:0:0:0:
428,232,133391,2,0,P|438:268|431:305,2,74.2499977340699
372,224,134280,2,0,L|274:218,1,98.9999969787599,10|10,0:0|0:0,0:0:0:0:
264,116,135169,6,0,P|188:156|172:224,1,148.49999546814,0|0,1:0|0:0,0:0:0:0:
184,264,136058,2,0,L|86:258,1,98.9999969787599,8|2,0:0|0:0,0:0:0:0:
92,148,136947,2,0,P|56:135|29:105,2,74.2499977340699
144,160,137836,2,0,P|193:151|239:171,1,98.9999969787599,8|2,0:0|0:0,0:0:0:0:
280,272,138725,6,0,P|352:295|417:262,1,148.49999546814,0|0,1:0|0:0,0:0:0:0:
452,224,139614,1,8,0:0:0:0:
341,200,140058,1,2,0:0:0:0:
292,104,140503,2,0,L|297:29,2,74.2499977340699
244,128,141391,1,8,0:0:0:0:
176,212,141836,1,8,0:0:0:0:
256,192,142280,12,0,145836,0:0:0:0:
