osu file format v14

[General]
AudioFilename: Mr.Kitty - Hold Me Down.mp3
AudioLeadIn: 0
PreviewTime: 112725
Countdown: 0
SampleSet: Soft
StackLeniency: 0.7
Mode: 0
LetterboxInBreaks: 0
WidescreenStoryboard: 0

[Editor]
Bookmarks: 56947,85391
DistanceSpacing: 1.3
BeatDivisor: 8
GridSize: 4
TimelineZoom: 1.1

[Metadata]
Title:Hold Me Down
TitleUnicode:Hold Me Down
Artist:Mr.Kitty
ArtistUnicode:Mr.Kitty
Creator:YellowManul
Version:Dark
Source:
Tags:synthpop gothic new wave time Seikatu -Bakari- witch house
BeatmapID:749349
BeatmapSetID:338716

[Difficulty]
HPDrainRate:6
CircleSize:5
OverallDifficulty:6
ApproachRate:6.5
SliderMultiplier:2.35
SliderTickRate:2

[Events]
//Background and Video events
0,0,"drown.jpg",0,0
//Break Periods
//Storyboard Layer 0 (Background)
//Storyboard Layer 1 (Fail)
//Storyboard Layer 2 (Pass)
//Storyboard Layer 3 (Foreground)
//Storyboard Sound Samples

[TimingPoints]
28503,888.888888888889,4,2,0,50,1,0
54725,-133.333333333333,4,2,0,35,0,0
55169,-100,4,2,0,20,0,0
55836,-100,4,2,0,40,0,0
56947,-83.3333333333333,4,2,0,50,0,1
85391,-83.3333333333333,4,2,0,50,0,0
98947,-83.3333333333333,4,2,0,20,0,0
99058,-83.3333333333333,4,2,0,25,0,0
99169,-83.3333333333333,4,2,0,30,0,0
99280,-83.3333333333333,4,2,0,35,0,0
99391,-83.3333333333333,4,2,0,40,0,0
99502,-83.3333333333333,4,2,0,45,0,0
99614,-83.3333333333333,4,2,0,50,0,0
111614,-100,4,2,0,30,0,0
112058,-133.333333333333,4,2,0,10,0,0
112725,-133.333333333333,4,2,0,40,0,0
113836,-83.3333333333333,4,2,0,50,0,1
142280,-83.3333333333333,4,2,0,50,0,0

[Colours]
Combo1 : 213,255,255
Combo2 : 182,197,203
Combo3 : 72,137,172

[HitObjects]
44,12,28502,6,0,P|80:8|200:100,1,176.25,0|0,1:0|0:0,0:0:0:0:
164,152,29391,2,0,L|92:160,2,58.75,8|2|2,0:0|0:0|0:0,0:0:0:0:
304,216,30280,2,0,P|328:212|380:164,2,88.125
244,168,31169,1,8,0:0:0:0:
232,244,31391,1,2,0:0:0:0:
216,320,31614,1,2,0:0:0:0:
156,272,31836,1,0,0:0:0:0:
96,228,32058,6,0,P|60:224|-4:260,2,88.125,0|0|0,1:0|0:0|0:0,0:0:0:0:
156,272,32947,2,0,P|192:316|312:304,1,176.25,8|0,0:0|0:0,0:0:0:0:
332,240,33836,2,0,L|324:136,2,88.125
392,288,34725,1,10,0:0:0:0:
248,192,35169,1,10,0:0:0:0:
380,112,35614,6,0,L|392:292,1,176.25,0|0,1:0|0:0,0:0:0:0:
336,336,36502,2,0,P|308:340|224:288,1,117.5,8|2,0:0|0:0,0:0:0:0:
232,148,37391,2,0,L|240:40,2,88.125
176,204,38280,1,8,0:0:0:0:
310,108,38725,1,2,0:0:0:0:
424,208,39169,6,0,P|432:240|404:332,1,117.5,0|0,1:0|0:0,0:0:0:0:
348,360,39836,1,0,0:0:0:0:
288,312,40058,2,8,P|256:304|160:320,1,117.5,8|2,0:0|0:0,0:0:0:0:
116,364,40725,1,0,0:0:0:0:
56,320,40947,2,0,L|64:220,2,88.125
128,296,41836,1,10,0:0:0:0:
16,176,42280,1,10,0:0:0:0:
164,216,42725,6,0,L|348:204,1,176.25,0|0,1:0|0:0,0:0:0:0:
400,156,43614,2,0,P|408:128|368:28,1,117.5,8|2,0:0|0:0,0:0:0:0:
236,8,44502,2,0,P|208:16|136:12,2,88.125
296,56,45391,2,0,L|248:168,1,117.5,8|2,0:0|0:0,0:0:0:0:
308,304,46280,6,0,P|348:292|408:176,1,176.25,0|0,1:0|0:0,0:0:0:0:
388,108,47169,2,0,L|504:96,1,117.5,8|2,0:0|0:0,0:0:0:0:
368,24,48058,2,0,L|272:16,2,88.125
444,8,48947,1,10,0:0:0:0:
388,168,49391,1,10,0:0:0:0:
400,320,49836,6,0,P|360:344|228:312,1,176.25,0|0,1:0|0:0,0:0:0:0:
188,264,50725,1,8,0:0:0:0:
64,352,51169,2,0,L|56:276,1,58.75,2|0,0:0|0:0,0:0:0:0:
96,228,51614,2,0,P|120:256|128:312,2,88.125
96,152,52502,2,0,P|136:120|204:120,1,117.5,8|0,0:0|0:0,0:0:0:0:
264,160,53169,1,0,0:0:0:0:
368,116,53391,6,0,P|372:84|360:36,2,58.75,0|0|0,1:0|0:0|0:0,0:0:0:0:
336,188,54058,1,0,0:0:0:0:
276,232,54280,2,0,L|264:304,1,58.75
188,288,54725,6,0,L|176:348,1,44.062501680851
104,320,55169,1,0,0:0:0:0:
60,172,55614,1,0,0:0:0:0:
112,88,55836,6,0,L|48:84,2,58.75
140,160,56502,2,0,L|216:156,1,58.75
284,176,56947,6,0,B|280:212|268:232|268:232|352:272|352:272|340:300|352:332,1,211.499993545532,0|0,1:0|0:0,0:0:0:0:
440,360,57836,2,0,P|452:336|424:224,1,140.999995697022,8|2,0:0|0:0,0:0:0:0:
364,168,58502,1,0,0:0:0:0:
304,96,58725,2,0,L|424:88,2,105.749996772766
212,104,59614,1,10,0:0:0:0:
264,300,60058,1,2,0:0:0:0:
420,204,60502,6,0,P|444:236|444:344,1,140.999995697022,0|0,1:0|0:0,0:0:0:0:
368,376,61169,1,0,0:0:0:0:
264,300,61391,2,0,P|224:296|180:304,1,70.4999978485108,8|2,0:0|0:0,0:0:0:0:
128,364,61836,1,2,0:0:0:0:
32,208,62280,2,0,L|40:88,2,105.749996772766
100,268,63169,2,0,P|120:240|128:200,1,70.4999978485108,10|0,0:0|0:0,0:0:0:0:
220,108,63614,2,0,P|232:132|276:160,1,70.4999978485108,10|0,0:0|0:0,0:0:0:0:
356,180,64058,6,0,P|392:208|400:372,1,211.499993545532,0|0,1:0|0:0,0:0:0:0:
316,368,64947,2,0,L|168:356,1,140.999995697022,10|2,0:0|0:0,0:0:0:0:
84,372,65614,1,0,0:0:0:0:
128,292,65836,2,0,L|120:172,2,105.749996772766
208,248,66725,2,0,P|220:212|220:172,1,70.4999978485108,8|2,0:0|0:0,0:0:0:0:
321,121,67169,2,0,P|333:149|368:176,1,70.4999978485108,2|0,0:0|0:0,0:0:0:0:
444,216,67614,2,0,L|436:372,1,140.999995697022,0|0,1:0|0:0,0:0:0:0:
352,328,68280,1,0,0:0:0:0:
260,344,68502,5,8,0:0:0:0:
160,188,68947,1,0,0:0:0:0:
24,64,69391,2,0,P|56:40|128:32,2,105.749996772766
96,120,70280,1,10,0:0:0:0:
296,70,70725,1,10,0:0:0:0:
490,16,71169,6,0,P|504:72|408:200,1,211.499993545532,0|0,1:0|0:0,0:0:0:0:
336,188,72058,2,0,P|276:184|180:300,1,211.499993545532,8|0,0:0|0:0,0:0:0:0:
111,348,72947,2,0,P|78:330|39:267,2,105.749996772766
204,364,73836,1,8,0:0:0:0:
164,164,74280,1,2,0:0:0:0:
348,72,74725,6,0,L|368:288,1,211.499993545532,0|0,1:0|0:0,0:0:0:0:
428,352,75614,2,0,P|460:292|440:216,1,140.999995697022,8|2,0:0|0:0,0:0:0:0:
268,176,76502,2,0,L|278:292,2,105.749996772766
180,148,77391,2,0,P|172:120|176:72,1,70.4999978485108,10|0,0:0|0:0,0:0:0:0:
292,24,77836,2,0,P|296:68|284:112,1,70.4999978485108,10|0,0:0|0:0,0:0:0:0:
344,168,78280,6,0,P|384:168|480:36,1,211.499993545532,0|0,1:0|0:0,0:0:0:0:
396,12,79169,1,8,0:0:0:0:
340,84,79391,1,2,0:0:0:0:
344,168,79614,1,2,0:0:0:0:
400,240,79836,1,0,0:0:0:0:
480,288,80058,2,0,P|432:304|384:352,2,105.749996772766
480,196,80947,6,0,L|468:52,1,140.999995697022,8|2,0:0|0:0,0:0:0:0:
268,68,81836,2,0,L|280:208,1,140.999995697022,0|0,1:0|0:0,0:0:0:0:
220,280,82502,1,2,0:0:0:0:
300,324,82725,1,8,0:0:0:0:
148,324,82947,2,0,P|112:332|76:324,2,70.4999978485108,2|2|0,0:0|0:0|0:0,0:0:0:0:
72,188,83614,2,0,L|208:176,2,105.749996772766
200,104,84502,2,0,P|236:120|256:160,1,70.4999978485108,10|0,0:0|0:0,0:0:0:0:
336,104,84947,2,0,P|359:135|356:180,1,70.4999978485108,10|0,0:0|0:0,0:0:0:0:
288,248,85391,6,0,P|360:236|416:308,1,140.999995697022,0|0,1:0|0:0,0:0:0:0:
336,312,86058,1,0,0:0:0:0:
268,372,86280,2,0,B|200:360|200:360|168:336,2,105.749996772766,8|0|0,0:0|0:0|0:0,0:0:0:0:
224,292,87169,2,0,P|196:272|128:284,1,105.749996772766
96,252,87614,2,0,P|88:208|96:180,1,70.4999978485108
56,100,88058,2,0,L|68:28,2,70.4999978485108,8|2|2,0:0|0:0|0:0,0:0:0:0:
144,120,88725,1,0,0:0:0:0:
200,64,88947,6,0,P|236:116|232:196,1,140.999995697022,0|0,1:0|0:0,0:0:0:0:
324,264,89614,1,0,0:0:0:0:
324,264,89836,2,0,P|284:272|248:256,1,70.4999978485108,8|2,0:0|0:0,0:0:0:0:
392,304,90280,2,0,P|432:296|468:312,1,70.4999978485108,2|0,0:0|0:0,0:0:0:0:
456,208,90725,2,0,L|444:88,2,105.749996772766
368,160,91614,1,10,0:0:0:0:
192,72,92058,1,10,0:0:0:0:
208,268,92502,6,0,L|120:276,1,70.4999978485108,0|0,1:0|0:0,0:0:0:0:
56,328,92947,1,0,0:0:0:0:
56,328,93169,2,0,P|44:284|48:252,1,70.4999978485108,0|8,0:0|0:0,0:0:0:0:
120,204,93614,1,2,0:0:0:0:
40,164,93836,1,2,0:0:0:0:
112,108,94058,1,0,0:0:0:0:
216,92,94280,2,0,L|200:200,2,105.749996772766
284,164,95169,2,0,L|272:240,2,70.4999978485108,8|2|2,0:0|0:0|0:0,0:0:0:0:
364,108,95836,1,0,0:0:0:0:
456,148,96058,6,0,P|480:200|432:340,1,211.499993545532,0|0,1:0|0:0,0:0:0:0:
340,304,96947,2,0,L|248:284,1,70.4999978485108,8|2,0:0|0:0,0:0:0:0:
196,228,97391,2,0,L|276:208,1,70.4999978485108,2|0,0:0|0:0,0:0:0:0:
128,176,97836,2,0,L|112:300,2,105.749996772766
52,116,98725,1,8,0:0:0:0:
144,80,98947,6,0,L|160:56,11,17.6249994621277,0|0|0|0|0|0|0|0|0|0|0|0,2:0|2:0|2:0|2:0|2:0|2:0|2:0|2:0|2:0|2:0|2:0|2:0,2:0:0:0:
180,64,99614,6,0,L|264:72,1,70.4999978485108,0|0,1:0|0:0,0:0:0:0:
288,160,100058,2,0,L|208:152,1,70.4999978485108
260,248,100502,2,0,P|328:244|380:168,1,140.999995697022,8|2,0:0|0:0,0:0:0:0:
448,128,101169,1,0,0:0:0:0:
376,60,101391,2,0,L|260:52,2,105.749996772766
300,124,102280,2,0,L|220:116,1,70.4999978485108,8|2,0:0|0:0,0:0:0:0:
220,216,102725,2,0,L|292:224,1,70.4999978485108,2|0,0:0|0:0,0:0:0:0:
204,296,103169,6,0,P|168:312|84:296,2,105.749996772766,0|0|0,1:0|0:0|0:0,0:0:0:0:
124,236,104058,2,0,P|88:232|56:248,1,70.4999978485108,8|2,0:0|0:0,0:0:0:0:
96,156,104502,2,0,L|176:152,1,70.4999978485108,2|0,0:0|0:0,0:0:0:0:
228,76,104947,2,0,L|112:60,2,105.749996772766
300,44,105836,2,0,P|308:80|296:116,1,70.4999978485108,10|0,0:0|0:0,0:0:0:0:
248,172,106280,1,10,0:0:0:0:
384,316,106725,6,0,L|404:168,2,140.999995697022,0|0|8,1:0|0:0|0:0,0:0:0:0:
292,284,107836,1,2,0:0:0:0:
224,356,108058,1,2,0:0:0:0:
200,260,108280,1,0,0:0:0:0:
144,180,108503,2,0,P|104:168|40:188,2,105.749996772766
100,264,109391,2,0,P|96:300|108:336,1,70.4999978485108,8|2,0:0|0:0,0:0:0:0:
200,260,109836,2,0,P|204:224|192:188,1,70.4999978485108,2|0,0:0|0:0,0:0:0:0:
200,92,110280,6,0,L|120:84,1,70.4999978485108,0|0,1:0|0:0,0:0:0:0:
44,132,110725,2,0,P|36:168|48:208,1,70.4999978485108
140,184,111169,2,0,L|216:192,1,70.4999978485108,8|0,0:0|0:0,0:0:0:0:
292,176,111614,6,0,L|356:184,1,58.75,8|0,0:0|0:0,0:0:0:0:
388,160,112058,5,8,0:0:0:0:
388,160,112503,5,0,0:0:0:0:
428,200,112725,1,0,0:0:0:0:
424,256,112947,1,0,0:0:0:0:
368,356,113391,1,0,0:0:0:0:
308,272,113836,6,0,L|228:280,1,70.4999978485108,0|0,1:0|0:0,0:0:0:0:
160,216,114280,1,0,0:0:0:0:
160,216,114503,1,0,0:0:0:0:
232,148,114725,2,0,L|320:140,1,70.4999978485108,8|2,0:0|0:0,0:0:0:0:
228,76,115169,2,0,L|148:68,1,70.4999978485108,2|0,0:0|0:0,0:0:0:0:
76,128,115614,2,0,L|64:252,2,105.749996772766
140,204,116503,2,0,P|148:244|132:280,1,70.4999978485108,8|2,0:0|0:0,0:0:0:0:
232,240,116947,2,0,P|230:280|207:312,1,70.4999978485108,2|0,0:0|0:0,0:0:0:0:
312,324,117391,6,0,L|408:316,2,70.4999978485108,0|0|0,1:0|0:0|0:0,0:0:0:0:
348,240,118058,1,0,0:0:0:0:
300,164,118280,2,0,P|332:148|368:152,2,70.4999978485108,8|2|2,0:0|0:0|0:0,0:0:0:0:
196,68,118947,1,0,0:0:0:0:
196,68,119169,2,0,P|208:128|176:176,2,105.749996772766
196,68,120058,1,10,0:0:0:0:
204,264,120503,1,10,0:0:0:0:
56,160,120947,6,0,L|32:84,2,70.4999978485108,0|0|0,1:0|0:0|0:0,0:0:0:0:
88,240,121614,1,0,0:0:0:0:
68,344,121836,2,0,L|-4:360,2,70.4999978485108,8|2|2,0:0|0:0|0:0,0:0:0:0:
164,316,122503,1,0,0:0:0:0:
164,316,122725,2,0,P|216:320|272:296,2,105.749996772766
216,232,123614,2,0,P|252:216|288:220,1,70.4999978485108,8|2,0:0|0:0,0:0:0:0:
352,148,124058,2,0,P|376:176|380:208,1,70.4999978485108,2|0,0:0|0:0,0:0:0:0:
452,280,124503,6,0,L|460:136,1,140.999995697022,0|0,1:0|0:0,0:0:0:0:
392,68,125169,1,0,0:0:0:0:
296,80,125391,1,8,0:0:0:0:
360,156,125614,1,2,0:0:0:0:
288,88,125836,2,0,L|216:84,1,70.4999978485108,2|0,0:0|0:0,0:0:0:0:
148,152,126280,2,0,L|176:288,2,105.749996772766
48,152,127169,6,0,L|64:228,1,70.4999978485108,10|0,0:0|0:0,0:0:0:0:
20,312,127614,2,0,L|0:236,1,70.4999978485108,10|0,0:0|0:0,0:0:0:0:
96,304,128058,6,0,P|168:316|240:284,1,140.999995697022,0|0,1:0|0:0,0:0:0:0:
252,196,128725,1,0,0:0:0:0:
272,96,128947,2,0,P|312:112|336:144,1,70.4999978485108,8|2,0:0|0:0,0:0:0:0:
340,232,129391,2,0,L|420:228,1,70.4999978485108,2|0,0:0|0:0,0:0:0:0:
464,312,129836,6,0,P|420:332|352:308,2,105.749996772766
480,216,130725,2,0,L|456:72,1,140.999995697022,8|2,0:0|0:0,0:0:0:0:
260,60,131614,6,0,L|283:199,1,140.999995697022,0|0,1:0|0:0,0:0:0:0:
220,272,132280,1,0,0:0:0:0:
316,296,132503,2,0,L|388:308,2,70.4999978485108,8|2|2,0:0|0:0|0:0,0:0:0:0:
244,364,133169,1,0,0:0:0:0:
152,332,133391,2,0,L|44:324,2,105.749996772766
88,256,134280,1,10,0:0:0:0:
156,72,134725,1,10,0:0:0:0:
256,240,135169,6,0,P|248:192|304:112,1,140.999995697022,0|0,1:0|0:0,0:0:0:0:
376,172,135836,1,0,0:0:0:0:
376,172,136058,2,0,L|460:168,2,70.4999978485108,8|2|2,0:0|0:0|0:0,0:0:0:0:
352,268,136725,1,0,0:0:0:0:
272,328,136947,2,0,P|220:321|181:287,2,105.749996772766
220,220,137836,2,0,P|156:208|104:268,1,140.999995697022,8|2,0:0|0:0,0:0:0:0:
80,60,138725,6,0,L|60:200,1,140.999995697022,0|0,1:0|0:0,0:0:0:0:
140,140,139391,1,0,0:0:0:0:
140,140,139614,2,0,L|232:128,1,70.4999978485108,8|2,0:0|0:0,0:0:0:0:
276,56,140058,2,0,L|364:44,1,70.4999978485108,2|0,0:0|0:0,0:0:0:0:
356,144,140503,6,0,L|340:268,2,105.749996772766
444,100,141391,1,8,0:0:0:0:
460,196,141614,2,0,L|472:240,2,35.2499989242554,8|0|8,0:0|0:0|0:0,0:0:0:0:
404,276,142058,1,0,0:0:0:0:
256,192,142280,12,0,145836,0:0:0:0:
