osu file format v14

[General]
AudioFilename: Mr.Kitty+-+Dearlove.mp3
AudioLeadIn: 0
PreviewTime: 61300
Countdown: 0
SampleSet: Soft
StackLeniency: 0.7
Mode: 0
LetterboxInBreaks: 0
WidescreenStoryboard: 1

[Editor]
Bookmarks: 30776
DistanceSpacing: 1
BeatDivisor: 4
GridSize: 4
TimelineZoom: 1

[Metadata]
Title:Dearlove
TitleUnicode:Dearlove
Artist:Mr.Kitty
ArtistUnicode:Mr.Kitty
Creator:Inyuschan
Version:Average
Source:
Tags:LIFE electronic goth new wave post-punk synthpop witch house collab collaboration Pjecoo -Bakari-
BeatmapID:666729
BeatmapSetID:296988

[Difficulty]
HPDrainRate:4
CircleSize:3
OverallDifficulty:4
ApproachRate:5
SliderMultiplier:1.4
SliderTickRate:1

[Events]
//Background and Video events
0,0,"love.jpg",0,0
//Break Periods
//Storyboard Layer 0 (Background)
//Storyboard Layer 1 (Fail)
//Storyboard Layer 2 (Pass)
//Storyboard Layer 3 (Foreground)
//Storyboard Sound Samples

[TimingPoints]
30700,480,4,2,1,60,1,0
61420,-100,4,2,1,60,0,1
76660,-100,4,2,1,60,0,0
76780,-100,4,2,1,60,0,1
92140,-100,4,2,1,60,0,0
122860,-100,4,2,1,60,0,1
138100,-100,4,2,1,60,0,0
138220,-100,4,2,1,60,0,1
153580,-100,4,2,0,30,0,0

[Colours]
Combo1 : 210,155,115
Combo2 : 157,115,181
Combo3 : 196,182,104
Combo4 : 120,166,199

[HitObjects]
452,192,30700,6,0,P|420:192|336:256,1,140,4|0,0:0|0:0,0:0:0:0:
292,308,31420,2,0,L|204:308,1,70,0|4,0:0|3:0,0:0:0:0:
144,192,32140,2,0,L|214:192,1,70,8|0,3:0|0:0,0:0:0:0:
276,160,32620,2,0,P|304:96|264:28,2,140,4|0|4,3:0|0:0|3:0,0:0:0:0:
144,192,34060,2,0,P|136:228|152:272,1,70,8|0,3:0|0:0,0:0:0:0:
204,296,34540,5,4,3:0:0:0:
340,332,35020,2,0,P|376:340|420:324,2,70,0|0|2,0:0|0:0|0:0,0:0:0:0:
292,200,35980,2,0,P|256:192|208:208,1,70,8|0,3:0|0:0,0:0:0:0:
164,232,36460,1,2,0:0:0:0:
28,192,36940,2,0,B|20:156|20:156|32:112,2,70,0|0|2,0:0|0:0|0:0,0:0:0:0:
164,232,37900,2,0,B|172:268|172:268|160:312,1,70,8|0,3:0|0:0,0:0:0:0:
132,360,38380,6,0,L|280:360,1,140,4|0,3:0|0:0,0:0:0:0:
388,284,39340,2,0,P|396:248|384:212,2,70,2|0|8,0:0|0:0|3:0,0:0:0:0:
324,308,40060,1,0,0:0:0:0:
260,284,40300,2,0,P|192:268|112:292,1,140,2|0,0:0|0:0,0:0:0:0:
56,284,41020,2,0,L|12:208,1,70,0|4,0:0|3:0,0:0:0:0:
108,112,41740,2,0,L|143:172,1,70,8|0,3:0|0:0,0:0:0:0:
192,224,42220,6,0,P|256:248|324:220,1,140,4|0,3:0|0:0,0:0:0:0:
368,172,42940,2,0,L|404:112,1,70,0|2,0:0|0:0,0:0:0:0:
488,224,43660,2,0,L|452:284,1,70,8|0,3:0|0:0,0:0:0:0:
384,304,44140,2,0,P|319:328|255:304,1,140,2|0,0:0|0:0,0:0:0:0:
200,260,44860,2,0,L|164:188,2,70,0|2|0,0:0|0:0|0:0,0:0:0:0:
148,308,45580,2,0,L|179:370,2,70,8|0|4,3:0|0:0|0:0,0:0:0:0:
68,192,46540,6,0,P|48:124|80:48,1,140,0|2,0:0|0:0,0:0:0:0:
136,32,47260,1,0,0:0:0:0:
208,32,47500,2,0,P|244:32|296:60,1,70,8|0,3:0|0:0,0:0:0:0:
324,92,47980,2,0,L|376:224,1,140,2|0,0:0|0:0,0:0:0:0:
308,344,48940,2,0,L|256:213,1,140,2|8,0:0|3:0,0:0:0:0:
216,156,49660,1,0,0:0:0:0:
172,100,49900,6,0,P|104:80|28:108,1,140,4|0,3:0|0:0,0:0:0:0:
16,164,50620,2,0,P|8:200|28:248,1,70,0|2,0:0|0:0,0:0:0:0:
152,272,51340,2,0,P|160:236|140:188,1,70,8|0,3:0|0:0,0:0:0:0:
128,140,51820,2,0,P|168:108|260:108,1,140,2|0,0:0|0:0,0:0:0:0:
312,144,52540,1,0,0:0:0:0:
364,192,52780,1,2,0:0:0:0:
316,324,53260,2,0,L|236:376,1,70,8|0,3:0|0:0,0:0:0:0:
196,324,53740,6,0,B|140:288|140:288|60:288,1,140,4|0,3:0|0:0,0:0:0:0:
16,240,54460,2,0,P|8:204|28:160,1,70,0|2,0:0|0:0,0:0:0:0:
132,88,55180,1,8,3:0:0:0:
188,48,55420,1,0,0:0:0:0:
256,36,55660,2,0,P|304:36|388:104,2,140,2|0|2,0:0|0:0|0:0,0:0:0:0:
208,168,57100,2,0,L|260:228,1,70,8|0,3:0|0:0,0:0:0:0:
312,264,57580,6,0,P|392:264|456:212,1,140,4|0,3:0|0:0,0:0:0:0:
500,192,58300,2,0,L|448:132,1,70,0|2,0:0|0:0,0:0:0:0:
384,140,58780,2,0,L|332:80,1,70,0|8,0:0|3:0,0:0:0:0:
204,52,59500,2,0,L|132:52,2,70,2|0|2,0:0|0:0|0:0,0:0:0:0:
148,180,60460,2,0,L|218:180,1,70,0|8,0:0|3:0,0:0:0:0:
264,232,60940,2,0,L|334:232,1,70,8|4,3:0|3:0,0:0:0:0:
392,192,61420,6,0,P|416:128|388:60,1,140,4|8,0:0|3:0,0:0:0:0:
256,24,62380,1,2,0:0:0:0:
120,63,62860,2,0,P|96:127|120:192,1,140,8|2,3:0|0:0,0:0:0:0:
196,308,63820,1,8,3:0:0:0:
256,344,64060,1,0,0:0:0:0:
316,308,64300,2,0,B|352:252|352:252|352:168,1,140,2|8,0:0|3:0,0:0:0:0:
312,120,65020,1,0,0:0:0:0:
256,80,65260,6,0,P|204:80|128:144,1,140,2|8,0:0|3:0,0:0:0:0:
120,268,66220,2,0,P|172:268|248:204,1,140,2|8,0:0|3:0,0:0:0:0:
292,168,66940,1,0,0:0:0:0:
340,116,67180,2,0,P|392:116|468:180,2,140,2|8|2,0:0|3:0|0:0,0:0:0:0:
256,228,68620,1,8,3:0:0:0:
212,172,68860,1,0,0:0:0:0:
172,116,69100,6,0,P|120:116|44:180,1,140,2|8,0:0|3:0,0:0:0:0:
72,304,70060,2,0,B|124:328|124:328|240:328,1,140,2|8,0:0|3:0,0:0:0:0:
256,280,70780,1,0,0:0:0:0:
305,328,71020,2,0,B|388:328|388:328|440:304,1,140,2|8,0:0|3:0,0:0:0:0:
484,252,71740,2,0,L|444:184,1,70,0|2,0:0|0:0,0:0:0:0:
308,192,72460,2,0,L|268:124,1,70,8|0,3:0|0:0,0:0:0:0:
216,92,72940,6,0,B|148:72|148:72|70:95,2,140,2|8|2,0:0|3:0|0:0,0:0:0:0:
256,228,74380,1,8,3:0:0:0:
308,276,74620,1,0,0:0:0:0:
360,324,74860,2,0,B|428:344|428:344|506:321,2,140,2|8|2,0:0|3:0|0:0,0:0:0:0:
256,228,76300,2,0,L|192:288,1,70,8|0,3:0|0:0,0:0:0:0:
152,324,76780,6,0,B|84:344|84:344|6:321,1,140,4|8,0:0|3:0,0:0:0:0:
60,192,77740,1,2,0:0:0:0:
17,59,78220,2,0,B|84:40|84:40|152:60,1,140,8|2,3:0|0:0,0:0:0:0:
256,152,79180,2,0,P|288:152|328:132,1,70,8|0,3:0|0:0,0:0:0:0:
376,92,79660,2,0,L|476:196,1,140,2|8,0:0|3:0,0:0:0:0:
444,256,80380,1,0,0:0:0:0:
392,304,80620,5,2,0:0:0:0:
256,264,81100,1,8,3:0:0:0:
120,304,81580,1,2,0:0:0:0:
36,192,82060,1,8,3:0:0:0:
120,80,82540,2,0,P|176:80|252:20,2,140,2|8|2,0:0|3:0|0:0,0:0:0:0:
36,192,83980,2,0,L|84:256,1,70,8|0,3:0|0:0,0:0:0:0:
132,292,84460,5,2,0:0:0:0:
256,228,84940,1,8,3:0:0:0:
380,292,85420,2,0,P|424:292|496:216,1,140,2|8,0:0|3:0,0:0:0:0:
496,92,86380,2,0,P|452:92|380:168,1,140,2|8,0:0|3:0,0:0:0:0:
324,280,87340,1,2,0:0:0:0:
188,280,87820,1,8,3:0:0:0:
128,153,88300,6,0,P|83:101|16:92,1,140,2|8,0:0|3:0,0:0:0:0:
12,232,89260,2,0,P|56:284|124:293,1,140,2|8,0:0|3:0,0:0:0:0:
256,252,90220,2,0,P|323:261|368:313,2,140,2|8|2,0:0|3:0|0:0,0:0:0:0:
196,288,91420,1,8,3:0:0:0:
128,304,91660,2,0,L|64:248,1,70,8|8,3:0|3:0,0:0:0:0:
60,192,92140,6,0,P|92:192|176:128,1,140,4|0,0:0|0:0,0:0:0:0:
220,76,92860,2,0,L|308:76,1,70,0|4,0:0|3:0,0:0:0:0:
368,192,93580,2,0,L|298:192,1,70,8|0,3:0|0:0,0:0:0:0:
236,224,94060,2,0,P|208:288|248:356,2,140,4|0|4,3:0|0:0|3:0,0:0:0:0:
368,192,95500,2,0,P|376:156|360:112,1,70,8|0,3:0|0:0,0:0:0:0:
308,88,95980,5,4,3:0:0:0:
172,52,96460,2,0,P|136:44|92:60,2,70,0|0|2,0:0|0:0|0:0,0:0:0:0:
220,184,97420,2,0,P|256:192|304:176,1,70,8|0,3:0|0:0,0:0:0:0:
348,152,97900,1,2,0:0:0:0:
484,192,98380,2,0,B|492:228|492:228|480:272,2,70,0|0|2,0:0|0:0|0:0,0:0:0:0:
348,152,99340,2,0,B|340:116|340:116|352:72,1,70,8|0,3:0|0:0,0:0:0:0:
380,24,99820,6,0,L|232:24,1,140,4|0,3:0|0:0,0:0:0:0:
124,100,100780,2,0,P|116:136|128:172,2,70,2|0|8,0:0|0:0|3:0,0:0:0:0:
188,76,101500,1,0,0:0:0:0:
252,100,101740,2,0,P|320:116|400:92,1,140,2|0,0:0|0:0,0:0:0:0:
456,100,102460,2,0,L|500:176,1,70,0|4,0:0|3:0,0:0:0:0:
404,272,103180,2,0,L|369:212,1,70,8|0,3:0|0:0,0:0:0:0:
320,160,103660,6,0,P|256:136|188:164,1,140,4|0,3:0|0:0,0:0:0:0:
144,212,104380,2,0,L|108:272,1,70,0|4,0:0|3:0,0:0:0:0:
24,160,105100,2,0,L|60:100,1,70,8|0,3:0|0:0,0:0:0:0:
128,80,105580,2,0,P|193:56|257:80,1,140,2|0,0:0|0:0,0:0:0:0:
312,124,106300,2,0,L|348:196,2,70,0|2|0,0:0|0:0|0:0,0:0:0:0:
364,76,107020,2,0,L|333:14,2,70,8|0|4,3:0|0:0|0:0,0:0:0:0:
444,192,107980,6,0,P|464:260|432:336,1,140,0|2,0:0|0:0,0:0:0:0:
376,352,108700,1,0,0:0:0:0:
304,352,108940,2,0,P|268:352|216:324,1,70,8|0,3:0|0:0,0:0:0:0:
188,292,109420,2,0,L|136:160,1,140,2|0,0:0|0:0,0:0:0:0:
204,40,110380,2,0,L|256:171,1,140,2|8,0:0|3:0,0:0:0:0:
296,228,111100,1,0,0:0:0:0:
340,284,111340,6,0,P|408:304|484:276,1,140,4|0,3:0|0:0,0:0:0:0:
496,220,112060,2,0,P|504:184|484:136,1,70,0|2,0:0|0:0,0:0:0:0:
360,112,112780,2,0,P|352:148|372:196,1,70,8|0,3:0|0:0,0:0:0:0:
384,244,113260,2,0,P|344:276|252:276,1,140,2|0,0:0|0:0,0:0:0:0:
200,240,113980,1,0,0:0:0:0:
148,192,114220,1,2,0:0:0:0:
196,60,114700,2,0,L|276:8,1,70,8|0,3:0|0:0,0:0:0:0:
316,60,115180,6,0,B|372:96|372:96|452:96,1,140,4|0,3:0|0:0,0:0:0:0:
496,144,115900,2,0,P|504:180|484:224,1,70,0|2,0:0|0:0,0:0:0:0:
380,296,116620,1,8,3:0:0:0:
324,336,116860,1,0,0:0:0:0:
256,348,117100,2,0,P|208:348|124:280,2,140,2|0|2,0:0|0:0|0:0,0:0:0:0:
304,216,118540,2,0,L|252:156,1,70,8|0,3:0|0:0,0:0:0:0:
200,120,119020,6,0,P|120:120|56:172,1,140,4|0,3:0|0:0,0:0:0:0:
12,192,119740,2,0,L|64:252,1,70,0|2,0:0|0:0,0:0:0:0:
128,244,120220,2,0,L|180:304,1,70,0|8,0:0|3:0,0:0:0:0:
308,332,120940,2,0,L|380:332,2,70,2|0|2,0:0|0:0|0:0,0:0:0:0:
364,204,121900,2,0,L|294:204,1,70,0|8,0:0|3:0,0:0:0:0:
248,152,122380,2,0,L|178:152,1,70,8|4,3:0|3:0,0:0:0:0:
120,192,122860,6,0,P|96:256|124:324,1,140,4|8,0:0|3:0,0:0:0:0:
256,360,123820,1,2,0:0:0:0:
392,321,124300,2,0,P|416:257|392:192,1,140,8|2,3:0|0:0,0:0:0:0:
316,76,125260,1,8,3:0:0:0:
256,40,125500,1,0,0:0:0:0:
196,76,125740,2,0,B|160:132|160:132|160:216,1,140,2|8,0:0|3:0,0:0:0:0:
200,264,126460,1,0,0:0:0:0:
256,304,126700,6,0,P|308:304|384:240,1,140,2|8,0:0|3:0,0:0:0:0:
392,116,127660,2,0,P|340:116|264:180,1,140,2|8,0:0|3:0,0:0:0:0:
220,216,128380,1,0,0:0:0:0:
172,268,128620,2,0,P|120:268|44:204,2,140,2|8|2,0:0|3:0|0:0,0:0:0:0:
256,156,130060,1,8,3:0:0:0:
300,212,130300,1,0,0:0:0:0:
340,268,130540,6,0,P|392:268|468:204,1,140,2|8,0:0|3:0,0:0:0:0:
440,80,131500,2,0,B|388:56|388:56|272:56,1,140,2|8,0:0|3:0,0:0:0:0:
256,104,132220,1,0,0:0:0:0:
207,56,132460,2,0,B|124:56|124:56|72:80,1,140,2|8,0:0|3:0,0:0:0:0:
28,132,133180,2,0,L|68:200,1,70,0|2,0:0|0:0,0:0:0:0:
204,192,133900,2,0,L|244:260,1,70,8|0,3:0|0:0,0:0:0:0:
296,292,134380,6,0,B|364:312|364:312|442:289,2,140,2|8|2,0:0|3:0|0:0,0:0:0:0:
256,156,135820,1,8,3:0:0:0:
204,108,136060,1,0,0:0:0:0:
152,60,136300,2,0,B|84:40|84:40|6:63,2,140,2|8|2,0:0|3:0|0:0,0:0:0:0:
256,156,137740,2,0,L|320:96,1,70,8|0,3:0|0:0,0:0:0:0:
360,60,138220,6,0,B|428:40|428:40|506:63,1,140,4|8,0:0|3:0,0:0:0:0:
452,192,139180,1,2,0:0:0:0:
494,324,139660,2,0,B|428:344|428:344|360:324,1,140,8|2,3:0|0:0,0:0:0:0:
256,232,140620,2,0,P|224:232|184:252,1,70,8|0,3:0|0:0,0:0:0:0:
136,292,141100,2,0,L|36:188,1,140,2|8,0:0|3:0,0:0:0:0:
68,128,141820,1,0,0:0:0:0:
120,80,142060,5,2,0:0:0:0:
256,120,142540,1,8,3:0:0:0:
392,80,143020,1,2,0:0:0:0:
476,192,143500,1,8,3:0:0:0:
392,304,143980,2,0,P|336:304|260:364,2,140,2|8|2,0:0|3:0|0:0,0:0:0:0:
476,192,145420,2,0,L|428:128,1,70,8|0,3:0|0:0,0:0:0:0:
380,92,145900,5,2,0:0:0:0:
256,156,146380,1,8,3:0:0:0:
132,92,146860,2,0,P|88:92|16:168,1,140,2|8,0:0|3:0,0:0:0:0:
16,292,147820,2,0,P|60:292|132:216,1,140,2|8,0:0|3:0,0:0:0:0:
188,104,148780,1,2,0:0:0:0:
324,104,149260,1,8,3:0:0:0:
383,230,149740,6,0,P|428:282|496:292,2,140,2|8|0,0:0|3:0|0:0,0:0:0:0:
256,172,151180,1,8,3:0:0:0:
128,230,151660,2,0,P|83:282|16:292,2,140,2|8|0,0:0|3:0|0:0,0:0:0:0:
184,192,152860,2,0,P|176:156|188:120,2,70,8|8|8,3:0|3:0|3:0,0:0:0:0:
256,192,153580,12,2,155620,0:0:0:0:
