osu file format v13

[General]
AudioFilename: 843391e7beccb5.mp3
AudioLeadIn: 0
PreviewTime: 69872
Countdown: 0
SampleSet: Soft
StackLeniency: 0.7
Mode: 0
LetterboxInBreaks: 0
EpilepsyWarning: 1
WidescreenStoryboard: 1

[Editor]
Bookmarks: 28417,69872,157144,192054
DistanceSpacing: 1.1
BeatDivisor: 4
GridSize: 4
TimelineZoom: 1

[Metadata]
Title:Cross Cross
TitleUnicode:††
Artist:Mr.Kitty
ArtistUnicode:Mr.Kitty
Creator:-Bakari-
Version:Light
Source:
Tags:goth post-punk DEΔTH death synthop new wave gothic
BeatmapID:561070
BeatmapSetID:243197

[Difficulty]
HPDrainRate:3.5
CircleSize:3
OverallDifficulty:3.5
ApproachRate:4.5
SliderMultiplier:1.2
SliderTickRate:2

[Events]
//Background and Video events
0,0,"BG.png",0,0
//Break Periods
2,104981,118794
//Storyboard Layer 0 (Background)
//Storyboard Layer 1 (Fail)
//Storyboard Layer 2 (Pass)
//Storyboard Layer 3 (Foreground)
//Storyboard Sound Samples

[TimingPoints]
54,545.454545454546,4,3,0,40,1,0
67690,-100,4,2,0,20,0,0
69872,-100,4,1,0,50,0,1
87054,-100,4,1,0,50,0,0
87326,-100,4,1,0,50,0,1
104781,-100,4,3,0,40,0,0
120054,-100,4,2,0,20,0,0
122235,-100,4,3,0,40,0,0
154963,-100,4,2,0,20,0,0
157144,-100,4,1,0,50,0,1
174326,-100,4,1,0,50,0,0
174599,-100,4,1,0,50,0,1
192054,-100,4,2,0,35,0,0

[Colours]
Combo1 : 175,175,150
Combo2 : 203,173,173

[HitObjects]
256,192,28417,12,0,32781,0:0:0:0:
72,64,34963,6,0,P|112:48|188:64,1,120,2|2,0:0|0:0,0:0:0:0:
248,152,36054,2,0,L|244:276,1,120,8|8,0:0|0:0,0:0:0:0:
304,360,37144,1,0,0:0:0:0:
392,296,37690,1,8,0:0:0:0:
416,192,38235,2,0,P|416:160|404:124,1,60,0|0,0:0|0:0,0:0:0:0:
368,100,38781,1,8,0:0:0:0:
288,172,39326,6,0,P|240:184|156:152,2,120,0|8|0,0:0|0:0|0:0,0:0:0:0:
344,80,40963,1,8,0:0:0:0:
436,136,41508,2,0,P|440:160|424:204,1,60,0|0,0:0|0:0,0:0:0:0:
384,224,42054,2,0,L|376:348,1,120,8|0,0:0|0:0,0:0:0:0:
324,364,42872,1,8,0:2:0:0:
272,352,43144,1,8,0:2:0:0:
168,316,43690,6,0,P|124:312|60:372,2,120,0|8|0,0:0|0:0|0:0,0:0:0:0:
264,264,45326,1,8,0:0:0:0:
212,168,45872,2,0,P|208:136|252:48,2,120,0|8|0,0:0|0:0|0:0,0:0:0:0:
308,216,47508,2,0,L|376:212,1,60,8|0,0:0|0:0,0:0:0:0:
416,236,48054,6,0,P|432:268|420:368,2,120,0|8|0,0:0|0:0|0:0,0:0:0:0:
360,144,49690,2,0,P|352:108|356:80,1,60,8|0,0:0|0:0,0:0:0:0:
324,40,50235,2,0,P|288:32|204:56,1,120,4|8,0:2|0:0,0:0:0:0:
188,160,51326,1,0,0:0:0:0:
184,212,51599,1,8,0:2:0:0:
152,256,51872,1,8,0:2:0:0:
200,352,52417,6,0,P|248:336|336:352,1,120,0|8,0:0|0:0,0:0:0:0:
416,300,53508,2,0,P|424:272|408:180,1,120,0|8,0:0|0:0,0:0:0:0:
304,160,54599,2,0,P|276:172|248:204,1,60,0|0,0:0|0:0,0:0:0:0:
232,240,55144,2,0,L|88:236,1,120,8|0,0:0|0:0,0:0:0:0:
88,132,56235,2,0,L|156:128,1,60,8|0,0:0|0:0,0:0:0:0:
196,148,56781,6,0,P|224:124|232:32,2,120,0|8|0,0:0|0:0|0:0,0:0:0:0:
104,204,58417,2,0,P|132:224|152:256,1,60,8|0,0:0|0:0,0:0:0:0:
180,288,58963,2,0,P|216:292|300:236,1,120,0|8,0:0|0:0,0:0:0:0:
332,156,60054,1,0,0:0:0:0:
328,104,60326,1,8,0:2:0:0:
292,64,60599,1,8,0:2:0:0:
184,64,61144,6,0,P|160:88|156:184,1,120,0|8,0:0|0:0,0:0:0:0:
216,256,62235,1,0,0:0:0:0:
308,200,62781,2,0,P|348:196|372:200,1,60,8|0,0:0|0:0,0:0:0:0:
420,188,63326,2,0,P|448:152|444:60,2,120,0|8|0,0:0|0:0|0:0,0:0:0:0:
312,200,64963,1,8,0:0:0:0:
216,152,65508,2,0,P|184:144|96:168,1,120,0|8,0:0|0:0,0:0:0:0:
52,260,66599,2,0,P|84:268|172:244,1,120,0|8,0:0|0:0,0:0:0:0:
192,144,67690,5,4,0:0:0:0:
232,44,68235,1,4,0:0:0:0:
320,104,68781,1,4,0:0:0:0:
396,24,69326,1,4,0:0:0:0:
460,112,69872,6,0,L|456:252,1,120,4|8,0:0|0:0,0:0:0:0:
356,276,70963,2,0,L|352:152,1,120,0|8,0:0|0:0,0:0:0:0:
276,80,72054,1,0,0:0:0:0:
168,68,72599,1,8,0:0:0:0:
80,128,73144,2,0,P|56:168|60:256,1,120,0|8,0:0|0:0,0:0:0:0:
132,316,74235,6,0,L|260:312,1,120,0|8,0:0|0:0,0:0:0:0:
276,208,75326,2,0,L|148:200,1,120,0|8,0:0|0:0,0:0:0:0:
84,120,76417,1,0,0:0:0:0:
152,36,76963,1,8,0:0:0:0:
252,76,77508,2,0,P|292:88|384:80,1,120,0|8,0:0|0:0,0:0:0:0:
456,148,78599,6,0,L|448:284,1,120,0|8,0:0|0:0,0:0:0:0:
356,320,79690,2,0,L|344:196,1,120,0|8,0:0|0:0,0:0:0:0:
284,112,80781,1,0,0:0:0:0:
184,72,81326,1,8,0:0:0:0:
84,112,81872,2,0,P|60:144|60:240,1,120,0|8,0:0|0:0,0:0:0:0:
120,308,82963,6,0,L|240:300,1,120,0|8,0:0|0:0,0:0:0:0:
304,212,84054,2,0,L|176:200,1,120,0|8,0:0|0:0,0:0:0:0:
116,116,85144,1,0,0:0:0:0:
204,52,85690,1,8,0:0:0:0:
308,52,86235,1,0,0:0:0:0:
396,116,86781,1,8,0:0:0:0:
344,212,87326,6,0,L|332:352,1,120,0|8,0:0|0:0,0:0:0:0:
240,380,88417,2,0,L|232:256,1,120,0|8,0:0|0:0,0:0:0:0:
284,164,89508,1,0,0:0:0:0:
224,76,90054,1,8,0:0:0:0:
120,52,90599,2,0,P|88:64|28:140,1,120,0|8,0:0|0:0,0:0:0:0:
52,232,91690,6,0,L|60:368,1,120,0|8,0:0|0:0,0:0:0:0:
152,296,92781,2,0,L|156:156,1,120,0|8,0:0|0:0,0:0:0:0:
220,88,93872,1,0,0:0:0:0:
324,64,94417,1,8,0:0:0:0:
408,132,94963,2,0,P|412:176|368:264,1,120,0|8,0:0|0:0,0:0:0:0:
276,248,96054,6,0,L|152:240,1,120,0|8,0:0|0:0,0:0:0:0:
96,332,97144,2,0,L|216:328,1,120,0|8,0:0|0:0,0:0:0:0:
312,376,98235,1,0,0:0:0:0:
388,300,98781,1,8,0:0:0:0:
420,196,99326,2,0,P|416:156|368:96,1,120,0|8,0:0|0:0,0:0:0:0:
260,88,100417,6,0,L|124:80,1,120,0|8,0:0|0:0,0:0:0:0:
198,179,101508,2,0,L|318:171,1,120,0|8,0:0|0:0,0:0:0:0:
388,252,102599,1,0,0:0:0:0:
312,328,103144,1,8,0:0:0:0:
200,328,103690,1,0,0:0:0:0:
128,248,104235,1,8,0:0:0:0:
160,120,104781,5,4,1:0:0:0:
68,292,120054,5,4,0:0:0:0:
56,184,120599,1,4,0:0:0:0:
112,92,121144,1,4,0:0:0:0:
220,76,121690,1,4,0:0:0:0:
312,136,122235,6,0,P|332:136|376:116,1,60,4|0,3:3|0:0,0:0:0:0:
424,128,122781,2,0,P|444:152|456:244,1,120,8|0,0:3|0:0,0:0:0:0:
360,284,123872,1,8,0:3:0:0:
264,232,124417,2,0,P|232:228|144:264,1,120,0|8,0:0|0:0,0:0:0:0:
80,340,125508,1,0,0:0:0:0:
32,244,126054,1,8,0:0:0:0:
56,140,126599,6,0,P|56:112|44:68,2,60,0|0|8,0:0|0:0|0:0,0:0:0:0:
156,180,127690,2,0,P|188:160|272:144,1,120,0|8,0:0|0:0,0:0:0:0:
356,208,128781,2,0,P|324:228|240:244,1,120,0|8,0:0|0:0,0:0:0:0:
156,180,129872,2,0,P|148:152|152:112,1,60,0|8,0:0|0:2,0:0:0:0:
172,72,130417,1,8,0:2:0:0:
272,116,130963,6,0,P|320:116|392:64,2,120,0|0|0,0:0|0:0|0:0,0:0:0:0:
172,72,132599,1,8,0:0:0:0:
84,136,133144,1,0,0:0:0:0:
140,228,133690,2,0,P|148:260|132:356,2,120,8|0|8,0:0|0:0|0:0,0:0:0:0:
196,136,135326,6,0,P|240:124|328:136,1,120,0|8,0:0|0:0,0:0:0:0:
400,196,136417,1,0,0:0:0:0:
418,88,136963,1,8,0:0:0:0:
313,130,137508,2,0,P|297:178|317:254,2,120,0|8|0,0:0|0:0|0:0,0:0:0:0:
356,100,138872,1,8,0:2:0:0:
408,96,139144,1,8,0:2:0:0:
476,180,139690,6,0,P|480:216|420:296,1,120,0|8,0:0|0:0,0:0:0:0:
336,252,140781,1,0,0:0:0:0:
260,332,141326,1,8,0:0:0:0:
168,272,141872,2,0,L|176:212,2,60,0|0|8,0:0|0:0|0:0,0:0:0:0:
64,300,142963,2,0,L|48:176,1,120,0|8,0:0|0:0,0:0:0:0:
112,96,144054,5,0,0:0:0:0:
196,168,144599,2,0,P|228:176|320:144,2,120,8|0|8,0:0|0:0|0:0,0:0:0:0:
112,96,146235,2,0,P|104:152|60:212,1,120,0|8,0:0|0:0,0:0:0:0:
152,276,147326,2,0,P|160:304|156:344,2,60,0|8|8,0:0|0:2|0:2,0:0:0:0:
208,184,148417,6,0,P|244:192|312:244,2,120,0|8|0,0:0|0:0|0:0,0:0:0:0:
108,228,150054,1,8,0:0:0:0:
16,168,150599,2,0,P|8:128|44:52,2,120,0|8|0,0:0|0:0|0:0,0:0:0:0:
68,264,152235,1,8,0:0:0:0:
176,248,152781,6,0,L|304:260,2,120,0|8|0,0:0|0:0|0:0,0:0:0:0:
168,144,154417,2,0,L|248:140,1,60,8|0,0:0|0:0,0:0:0:0:
268,104,154963,5,4,0:0:0:0:
348,176,155508,1,4,0:0:0:0:
420,96,156054,1,4,0:0:0:0:
492,176,156599,1,4,0:0:0:0:
420,256,157144,6,0,L|412:376,1,120,0|8,0:0|0:0,0:0:0:0:
316,328,158235,2,0,L|308:208,1,120,0|8,0:0|0:0,0:0:0:0:
260,112,159326,1,0,0:0:0:0:
152,96,159872,1,8,0:0:0:0:
60,156,160417,2,0,P|44:196|56:288,1,120,0|8,0:0|0:0,0:0:0:0:
140,328,161508,6,0,L|264:316,1,120,0|8,0:0|0:0,0:0:0:0:
312,224,162599,2,0,L|176:208,1,120,0|8,0:0|0:0,0:0:0:0:
100,156,163690,1,0,0:0:0:0:
164,68,164235,1,8,0:0:0:0:
268,36,164781,2,0,P|304:44|368:96,1,120,0|8,0:0|0:0,0:0:0:0:
376,204,165872,6,0,L|392:348,1,120,0|8,0:0|0:0,0:0:0:0:
287,373,166963,2,0,L|299:241,1,120,0|8,0:0|0:0,0:0:0:0:
264,152,168054,1,0,0:0:0:0:
164,112,168599,1,8,0:0:0:0:
68,156,169144,2,0,P|64:168|88:280,1,120,0|8,0:0|0:0,0:0:0:0:
184,304,170235,6,0,L|316:280,1,120,0|8,0:0|0:0,0:0:0:0:
364,192,171326,2,0,L|232:172,1,120,0|8,0:0|0:0,0:0:0:0:
156,116,172417,1,0,0:0:0:0:
200,16,172963,1,8,0:0:0:0:
312,16,173508,1,0,0:0:0:0:
356,116,174054,1,8,0:0:0:0:
296,208,174599,6,0,L|316:336,1,120,0|8,0:0|0:0,0:0:0:0:
424,336,175690,2,0,L|440:212,1,120,0|8,0:0|0:0,0:0:0:0:
492,124,176781,1,0,0:0:0:0:
416,44,177326,1,8,0:0:0:0:
312,72,177872,2,0,P|260:80|176:48,1,120,0|8,0:0|0:0,0:0:0:0:
96,104,178963,6,0,L|120:232,1,120,0|8,0:0|0:0,0:0:0:0:
220,260,180054,2,0,L|236:132,1,120,0|8,0:0|0:0,0:0:0:0:
308,60,181144,1,0,0:0:0:0:
412,28,181690,1,8,0:0:0:0:
492,100,182235,2,0,P|500:132|472:236,1,120,0|8,0:0|0:0,0:0:0:0:
384,256,183326,6,0,L|252:272,1,120,0|8,0:0|0:0,0:0:0:0:
200,356,184417,2,0,L|328:372,1,120,0|8,0:0|0:0,0:0:0:0:
420,328,185508,1,0,0:0:0:0:
444,224,186054,1,8,0:0:0:0:
384,136,186599,2,0,P|356:116|264:108,1,120,0|8,0:0|0:0,0:0:0:0:
204,188,187690,6,0,L|228:320,1,120,0|8,0:0|0:0,0:0:0:0:
320,252,188781,2,0,L|339:121,1,120,0|8,0:0|0:0,0:0:0:0:
412,56,189872,1,0,0:0:0:0:
488,136,190417,1,8,0:0:0:0:
488,248,190963,1,0,0:0:0:0:
412,328,191508,1,8,0:0:0:0:
380,224,192054,5,4,0:0:0:0:
