osu file format v5

[General]
AudioFilename: M.I.A. - Paper Planes.mp3
AudioLeadIn: 0
PreviewTime: -1
Countdown: 1
SampleSet: None
StackLeniency: 0.7
Mode: 0
LetterboxInBreaks: 1

[Metadata]
Title:M.I.A. Paper Planes
Artist:Mr. Whiskerz
Creator:Grim315
Version:
Source:
Tags:

[Difficulty]
HPDrainRate:0
CircleSize:5
OverallDifficulty:10
SliderMultiplier:0.4
SliderTickRate:4

[Events]
//Background and Video events
1,0,"FLCL01Dub.wmv"
0,0,"pineappl 1.jpg"
//Break Periods
//Storyboard Layer 0 (Background)
//Storyboard Layer 1 (Failing)
//Storyboard Layer 2 (Passing)
//Storyboard Layer 3 (Foreground)
//Storyboard Sound Samples
//Background Colour Transformations
3,100,0,0,0

[TimingPoints]
0,1000,4,0,0,100

[HitObjects]
256,192,5826,1,0
256,192,6557,1,0
256,192,7212,1,0
256,192,7916,1,0
256,192,8607,1,0
256,192,9258,1,0
256,192,10005,1,0
256,192,10688,1,0
339,155,11908,1,0
220,267,12535,1,0
215,168,13161,1,0
355,223,13663,1,0
304,81,14164,1,0
212,212,14791,1,0
114,141,15418,1,0
326,174,16044,1,0
218,104,16671,1,0
187,225,17172,1,0
318,236,17799,1,0
319,142,18301,1,0
197,122,18927,1,0
189,296,19429,1,0
339,271,20056,1,0
216,174,20557,1,0
299,167,21058,1,0
272,112,21560,1,0
172,107,22186,1,0
172,279,22688,1,0
302,253,23315,1,0
222,194,23941,1,0
335,114,24443,1,0
224,96,25070,1,0
135,206,25571,1,0
272,237,26198,1,0
379,208,26824,1,0
267,129,27326,1,0
178,214,27827,1,0
321,255,28454,1,0
213,148,29081,1,0
341,134,29582,1,0
218,255,30209,1,0
150,112,30710,1,0
357,225,31337,1,0
314,128,31838,1,0
195,251,32340,1,0
200,179,32967,1,0
326,247,33468,1,0
296,149,34095,1,0
192,128,34596,1,0
180,249,35098,1,0
345,253,35599,1,0
254,189,36100,1,0
334,109,36727,1,0
225,95,37228,1,0
175,191,37730,1,0
313,218,38357,1,0
277,122,38983,1,0
212,101,39485,1,0
233,274,39986,1,0
404,205,40613,1,0
207,184,41114,1,0
318,176,41741,1,0
270,93,42117,1,0
158,131,42619,1,0
263,255,43120,1,0
375,198,43621,1,0
219,172,44123,1,0
340,157,44624,1,0
272,106,45000,1,0
262,270,45752,1,0
191,216,46254,1,0
343,189,46880,1,0
219,98,47382,1,0
156,135,48009,1,0
273,215,48510,1,0
354,104,49137,1,0
127,214,49638,1,0
331,272,50140,1,0
190,137,50641,1,0
330,147,51142,1,0
220,236,51644,1,0
308,215,52145,1,0
199,120,52647,1,0
335,140,53148,1,0
212,245,53775,1,0
345,253,54276,1,0
255,150,54777,1,0
156,285,55279,1,0
256,192,57090,1,0
256,192,57336,1,0
256,192,57690,1,0
256,192,58067,1,0
256,192,62677,1,0
256,192,62979,1,0
256,192,63294,1,0
256,192,63709,1,0
256,192,68182,1,0
256,192,68429,1,0
256,192,68869,1,0
256,192,69256,1,0
