osu file format v5

[General]
AudioFilename: 2PM - Tetris.mp3
AudioLeadIn: 0
PreviewTime: -1
Countdown: 1
SampleSet: None
StackLeniency: 0.7
Mode: 0
LetterboxInBreaks: 1

[Metadata]
Title:2pm Tetris
Artist:Mr. Whiskerz
Creator:Grim315
Version:
Source:
Tags:

[Difficulty]
HPDrainRate:1
CircleSize:5
OverallDifficulty:1
SliderMultiplier:0.4
SliderTickRate:2

[Events]
//Background and Video events
0,0,"Machinery_of_the_Stars_by_alexiuss.jpg"
//Break Periods
2,102836,122231
//Storyboard Layer 0 (Background)
//Storyboard Layer 1 (Failing)
//Storyboard Layer 2 (Passing)
//Storyboard Layer 3 (Foreground)
//Storyboard Sound Samples
//Background Colour Transformations
3,100,163,162,255

[TimingPoints]
0,1000,4,0,0,100

[HitObjects]
256,256,1782,1,0
256,224,2000,1,0
256,192,2400,1,0
256,160,2800,1,0
256,128,3200,1,0
288,128,3600,1,0
320,128,4000,1,0
352,128,4400,1,0
352,192,4721,2,0,B|192:320,1,200
128,256,10000,1,0
224,192,10400,1,0
128,128,10800,1,0
224,128,11200,1,0
128,192,11600,1,0
224,256,12000,1,0
192,192,12469,1,0
224,192,12869,1,0
256,192,13269,1,0
288,192,13669,1,0
320,192,14069,1,0
352,192,14469,1,0
384,192,14869,1,0
416,192,15269,1,0
448,192,15669,1,0
480,192,16069,1,0
256,192,16400,1,0
256,160,16800,1,0
288,192,17200,1,0
224,192,17600,1,0
256,224,18000,1,0
256,192,18400,1,0
192,128,18989,2,0,B|288:128|288:128|192:192|192:192|288:192|288:192|192:256|192:256|288:256|288:256|320:256,1,520
256,192,33544,1,0
192,128,33944,1,0
192,256,34344,1,0
320,256,34744,1,0
320,128,35144,1,0
256,192,35544,1,0
192,192,35944,1,0
256,128,36344,1,0
320,192,36744,1,0
256,256,37144,1,0
256,192,37544,1,0
256,192,37819,12,0,47261
224,192,47665,1,0
288,128,48065,1,0
288,256,48465,1,0
288,192,48865,1,0
224,128,49265,1,0
224,256,49665,1,0
256,192,50065,1,0
256,160,50465,1,0
224,192,50865,1,0
288,192,51265,1,0
256,224,51665,1,0
384,96,52065,1,0
352,256,52465,1,0
192,128,52865,1,0
288,192,53265,1,0
160,288,53665,1,0
320,96,54292,1,0
320,256,54692,1,0
224,160,55092,1,0
96,256,55492,1,0
128,96,55892,1,0
224,256,56365,1,0
320,160,56765,1,0
192,160,57165,1,0
256,64,57565,1,0
128,256,57965,1,0
256,224,58365,1,0
160,96,58765,1,0
352,128,59165,1,0
352,288,59565,1,0
160,320,59965,1,0
224,192,60365,1,0
288,64,60765,1,0
160,96,61165,1,0
256,192,61519,1,0
192,192,61825,1,0
256,192,62044,1,0
320,192,62225,1,0
192,192,62625,1,0
320,192,63025,1,0
192,192,63425,1,0
320,192,63825,1,0
192,192,64225,1,0
320,192,64625,1,0
192,192,65025,1,0
256,128,65425,1,0
256,256,65825,1,0
256,128,66225,1,0
256,256,66625,1,0
256,128,67025,1,0
256,256,67425,1,0
256,128,67825,1,0
256,256,68225,1,0
256,128,68626,1,0
256,256,69026,1,0
256,192,69426,1,0
256,192,69826,1,0
320,128,70148,1,0
192,256,70548,1,0
192,128,71348,1,0
320,256,71748,1,0
256,192,72044,1,0
32,192,72226,1,0
96,192,72626,1,0
160,192,73026,1,0
224,192,73426,1,0
288,192,73826,1,0
352,192,74226,1,0
416,192,74626,1,0
480,192,75026,1,0
256,32,75426,1,0
256,96,75826,1,0
256,160,76226,1,0
256,224,76626,1,0
256,288,77026,1,0
256,352,77426,1,0
32,32,77826,1,0
64,64,78226,1,0
96,96,78626,1,0
128,128,79026,1,0
160,160,79426,1,0
192,192,79826,1,0
224,224,80226,1,0
256,256,80626,1,0
288,288,81026,1,0
320,320,81426,1,0
352,352,81826,1,0
384,384,82226,1,0
480,32,82626,1,0
448,64,83026,1,0
416,96,83426,1,0
384,128,83826,1,0
352,160,84226,1,0
320,192,84626,1,0
288,224,85026,1,0
256,256,85426,1,0
224,288,85826,1,0
192,320,86226,1,0
160,352,86626,1,0
128,384,87026,1,0
192,192,87361,2,0,B|320:192|288:192,1,80
256,32,89600,1,0
256,352,90000,1,0
32,192,90400,1,0
480,192,90800,1,0
256,192,91200,1,0
256,128,91600,1,0
192,192,92000,1,0
256,256,92400,1,0
320,192,92800,1,0
480,32,93200,1,0
480,352,93600,1,0
32,352,94000,1,0
32,32,94400,1,0
224,128,94800,1,0
320,224,95200,1,0
160,256,95600,1,0
352,128,96000,1,0
128,96,96400,1,0
288,288,96800,1,0
256,160,97200,1,0
416,256,97600,1,0
160,256,98000,1,0
352,64,98400,1,0
320,224,98800,1,0
224,128,99200,1,0
256,32,99600,1,0
192,288,100000,1,0
352,128,100400,1,0
128,64,100800,1,0
256,32,101200,1,0
256,64,101600,1,0
256,96,102000,1,0
256,128,102400,1,0
256,192,102636,1,0
256,192,123431,5,0
256,192,127128,1,0
256,192,131725,1,0
256,192,132494,1,0
256,192,133200,1,0
256,192,137384,1,0
256,128,137784,1,0
288,160,138184,1,0
320,192,138584,1,0
288,224,138984,1,0
256,256,139384,1,0
224,224,139784,1,0
192,192,140184,1,0
224,160,140584,1,0
256,128,140984,1,0
256,160,141384,1,0
256,192,141784,1,0
192,224,142100,1,0
256,160,142500,1,0
192,96,142900,1,0
192,160,143300,1,0
256,224,143700,1,0
256,96,144100,1,0
320,160,144500,1,0
320,96,144900,1,0
256,160,145300,1,0
320,224,145700,1,0
192,224,146114,1,0
192,96,146514,1,0
256,160,146775,1,0
320,160,147175,1,0
192,160,147575,1,0
256,96,147976,1,0
256,224,148376,1,0
288,128,148776,1,0
288,192,149176,1,0
224,192,149576,1,0
224,128,149976,1,0
256,160,150376,1,0
224,128,150792,1,0
256,160,151192,1,0
288,192,151592,1,0
288,128,151992,1,0
256,160,152392,1,0
224,192,152792,1,0
224,128,153192,1,0
128,224,153637,1,0
320,96,154037,1,0
288,224,154437,1,0
192,320,154837,1,0
160,96,155237,1,0
384,192,155637,1,0
224,192,156037,1,0
64,288,156437,1,0
64,288,156837,1,0
128,64,157237,1,0
320,128,157637,1,0
256,288,158037,1,0
160,160,158437,1,0
384,256,158837,1,0
288,32,159237,1,0
96,288,159637,1,0
96,64,160037,1,0
256,192,160437,1,0
160,192,160800,1,0
224,96,161200,1,0
352,224,161600,1,0
224,320,162000,1,0
288,160,162400,1,0
160,160,162800,1,0
320,64,163200,1,0
352,256,163600,1,0
192,256,164000,1,0
256,160,164400,1,0
128,96,164800,1,0
320,128,165200,1,0
288,160,165600,1,0
256,192,166000,1,0
224,224,166400,1,0
192,256,166800,1,0
192,128,167200,1,0
224,160,167600,1,0
256,192,168000,1,0
288,224,168400,1,0
320,256,168800,1,0
256,160,169200,1,0
256,224,169600,1,0
256,160,170000,1,0
256,224,170400,1,0
256,160,170800,1,0
256,224,171200,1,0
256,160,171600,1,0
256,224,172000,1,0
224,192,172400,1,0
288,192,172800,1,0
224,192,173200,1,0
288,192,173600,1,0
224,192,174000,1,0
288,192,174400,1,0
224,192,174800,1,0
288,192,175200,1,0
32,192,175600,1,0
96,192,176000,1,0
160,192,176400,1,0
224,192,176800,1,0
288,192,177200,1,0
352,192,177600,1,0
416,192,178000,1,0
480,192,178400,1,0
256,192,178913,1,0
