osu file format v12

[General]
AudioFilename: Mr. Saturn - Saturn.mp3
AudioLeadIn: 0
PreviewTime: 32104
Countdown: 0
SampleSet: Normal
StackLeniency: 0.7
Mode: 0
LetterboxInBreaks: 1
WidescreenStoryboard: 0

[Editor]
Bookmarks: 63634
DistanceSpacing: 0.8
BeatDivisor: 4
GridSize: 4

[Metadata]
Title:Saturn
TitleUnicode:Saturn
Artist:Mr. Saturn
ArtistUnicode:Mr. Saturn
Creator:Saturnalize
Version:Standard
Source:Dance Dance Revolution SuperNOVA 2
Tags:urs4chan ursa Yasora-chan Yasora Pop'n'Music Planet wac Jun Wakita beatmaniaIIDX 15 DJ TROOPERS CS Progressive Tribal GRAND CROSS Series IIDX20 tricoro trival
BeatmapID:147031
BeatmapSetID:39797

[Difficulty]
HPDrainRate:3
CircleSize:3
OverallDifficulty:3
ApproachRate:4
SliderMultiplier:1.4
SliderTickRate:2

[Events]
//Background and Video events
0,0,"BG.jpg",0,0
//Break Periods
2,51447,59218
//Storyboard Layer 0 (Background)
//Storyboard Layer 1 (Fail)
//Storyboard Layer 2 (Pass)
//Storyboard Layer 3 (Foreground)
//Storyboard Sound Samples
//Background Colour Transformations
3,100,163,162,255

[TimingPoints]
151,387.096774193548,4,2,0,75,1,0
14086,-117.647058823529,4,2,0,75,0,0
20280,-117.647058823529,4,1,3,70,0,0
26473,-117.647058823529,4,1,3,70,0,1
26522,-117.647058823529,4,1,3,70,0,0
27247,-117.647058823529,4,1,2,60,0,0
27441,-117.647058823529,4,1,3,70,0,0
28796,-117.647058823529,4,1,2,60,0,0
28989,-117.647058823529,4,1,3,70,0,0
30344,-117.647058823529,4,1,2,60,0,0
30538,-117.647058823529,4,1,3,70,0,0
33441,-117.647058823529,4,1,2,60,0,0
33634,-117.647058823529,4,1,3,70,0,0
34989,-117.647058823529,4,1,2,60,0,0
35183,-117.647058823529,4,1,3,70,0,0
36538,-117.647058823529,4,1,2,60,0,0
36731,-117.647058823529,4,1,3,70,0,0
51248,-117.647058823529,4,2,0,50,0,0
63634,-117.647058823529,4,1,3,70,0,1
70215,-117.647058823529,4,1,1,60,0,1
70312,-117.647058823529,4,1,3,70,0,1
71763,-117.647058823529,4,1,1,60,0,1
71860,-117.647058823529,4,1,3,70,0,1
75247,-117.647058823529,4,1,3,70,0,1
75828,-117.647058823529,4,1,3,70,0,0
76021,-117.647058823529,4,1,3,70,0,1
87247,-117.647058823529,4,1,1,60,0,1
87441,-117.647058823529,4,1,3,70,0,1
87634,-117.647058823529,4,1,2,60,0,1
87828,-117.647058823529,4,1,3,70,0,1
88409,-117.647058823529,4,1,3,70,0,0
106989,-117.647058823529,4,2,0,50,0,0
107376,-117.647058823529,4,2,0,5,0,0

[Colours]
Combo1 : 135,135,67
Combo2 : 130,130,130

[HitObjects]
68,120,14086,2,0,B|128:88|184:120|184:120|240:152|300:120,1,238.00000453949,4|2,0:0|0:0,0:0:0:0:
332,32,15247,1,0,0:0:0:0:
388,108,15634,2,0,B|394:171|330:208|330:208|260:240|192:220,1,238.00000453949,0|2,0:0|0:0,0:0:0:0:
148,160,16796,6,0,P|120:116|56:92,2,119.000002269745,0|0|0,0:0|0:0|0:0,0:0:0:0:
112,248,17957,2,0,P|87:294|99:361,2,119.000002269745,2|0|0,0:0|0:0|0:0,0:0:0:0:
204,220,19118,2,0,P|256:218|308:174,1,119.000002269745,0|4,0:0|3:0,0:0:0:0:
356,96,19892,1,4,0:3:0:0:
444,132,20280,5,4,0:0:0:0:
452,228,20667,1,8,0:0:0:0:
372,280,21054,2,0,B|438:300|450:367,2,119.000002269745,0|8|0,0:0|0:0|0:0,0:0:0:0:
281,250,22215,5,8,0:0:0:0:
281,155,22602,1,0,0:0:0:0:
372,125,22989,1,8,0:0:0:0:
427,202,23377,1,0,0:0:0:0:
372,280,23763,6,0,B|428:316|484:280,2,119.000002269745,8|0|8,0:0|0:0|0:0,0:0:0:0:
276,288,24925,2,4,B|216:318|220:384,2,119.000002269745,4|4|4,3:0|3:0|3:0,3:0:0:0:
316,200,26086,2,0,B|319:133|259:103,1,119.000002269745,0|4,3:0|0:0,0:0:0:0:
300,16,26860,6,0,B|420:76|414:210,1,238.00000453949,8|8,0:0|0:0,0:0:0:0:
408,304,28021,1,0,0:0:0:0:
328,256,28409,2,0,B|308:296|324:340|324:340|252:304|176:312,1,238.00000453949,8|8,0:0|0:0,0:0:0:0:
84,328,29570,1,0,0:0:0:0:
16,260,29957,2,0,B|120:208|248:220,1,238.00000453949,8|8,0:0|0:0,0:0:0:0:
332,262,31118,5,0,0:0:0:0:
410,211,31505,1,8,0:0:0:0:
326,167,31892,1,0,0:0:0:0:
326,167,32280,1,0,0:0:0:0:
326,167,32667,5,4,0:0:0:0:
413,115,33054,2,0,B|374:47|250:38|225:157,1,238.00000453949,8|8,0:0|0:0,0:0:0:0:
225,236,34215,1,0,0:0:0:0:
143,284,34602,2,0,B|182:358|308:349|321:242,1,238.00000453949,8|8,0:0|0:0,0:0:0:0:
288,160,35763,5,0,0:0:0:0:
288,64,36150,2,0,P|196:132|228:236,1,238.00000453949,8|8,0:0|0:0,0:0:0:0:
320,252,37312,2,0,B|388:248|416:168,2,119.000002269745
228,240,38473,2,0,B|160:244|132:324,1,119.000002269745,0|4,0:0|0:0,0:0:0:0:
232,328,39247,5,2,2:0:0:0:
404,244,40021,1,2,2:0:0:0:
248,136,40796,1,2,2:0:0:0:
332,308,41570,1,2,2:0:0:0:
404,244,41957,1,0,0:0:0:0:
420,152,42344,5,2,2:0:0:0:
256,56,43118,1,2,2:0:0:0:
92,152,43892,1,2,2:0:0:0:
256,248,44667,1,2,1:2:0:0:
348,264,45054,6,0,P|392:216|404:160,1,119.000002269745,0|2,0:0|0:2,0:0:0:0:
392,72,45828,1,0,0:0:0:0:
392,72,46215,1,2,0:2:0:0:
300,104,46602,6,0,P|240:124|168:112,1,119.000002269745,0|2,0:0|0:2,0:0:0:0:
96,92,47376,1,0,0:0:0:0:
96,92,47763,1,2,0:2:0:0:
76,184,48150,6,0,P|84:248|120:296,1,119.000002269745,0|2,0:0|0:2,0:0:0:0:
208,312,48925,2,0,P|259:273|282:217,1,119.000002269745,0|2,0:0|0:2,0:0:0:0:
252,132,49699,6,0,P|216:112|172:108,2,59.5000011348725
344,160,50473,2,0,P|380:180|424:184,2,59.5000011348725
308,132,51054,1,0,0:0:0:0:
280,96,51247,1,4,0:0:0:0:
256,192,60538,12,2,62860,0:0:0:0:
160,252,63634,6,8,B|160:196|184:136,1,119.000002269745,6|8,0:0|0:0,0:0:0:0:
256,72,64409,1,0,0:0:0:0:
328,136,64796,2,8,B|352:196|352:252,1,119.000002269745,8|6,0:0|0:0,0:0:0:0:
312,336,65570,1,8,0:0:0:0:
256,264,65957,1,0,0:0:0:0:
200,336,66344,1,8,0:0:0:0:
160,252,66731,6,0,B|160:124,1,118.999995034933,6|8,0:0|0:0,0:0:0:0:
256,144,67505,2,0,B|256:264,1,119.000002269745,0|8,0:0|0:0,0:0:0:0:
352,252,68280,2,0,B|352:192,2,59.5000011348725,6|0|8,0:0|0:0|0:0,0:0:0:0:
440,216,69054,2,0,B|440:276,2,59.5000011348725,2|0|8,0:0|0:0|0:0,0:0:0:0:
436,112,69828,6,2,P|332:76|240:160,1,238.00000453949,4|2,0:0|0:0,0:0:0:0:
208,240,70989,1,10,0:0:0:0:
300,212,71376,2,2,P|232:148|112:232,1,238.00000453949,4|2,0:0|0:0,0:0:0:0:
180,280,72538,1,10,0:0:0:0:
272,304,72925,6,0,P|328:304|392:244,1,119.000002269745,6|8,0:0|0:0,0:0:0:0:
372,176,73699,1,2,0:0:0:0:
276,172,74086,1,8,0:0:0:0:
212,244,74473,2,0,B|244:296,2,59.4999975174666,6|0|8,0:0|0:0|0:0,0:0:0:0:
116,260,75247,2,0,B|100:320,2,59.4999975174666,2|0|8,0:0|0:0|0:0,0:0:0:0:
40,200,76021,5,4,0:0:0:0:
60,108,76409,1,8,0:0:0:0:
144,64,76796,1,0,0:0:0:0:
232,104,77183,1,8,0:0:0:0:
276,188,77570,6,0,B|284:224|316:244,2,59.5000011348725,6|0|8,0:0|0:0|0:0,0:0:0:0:
381,154,78344,2,0,B|404:168|412:204,2,59.5000011348725,0|0|10,0:0|0:0|0:0,0:0:0:0:
464,112,79118,6,0,B|431:55|360:64,1,119.000002269745,6|8,0:0|0:0,0:0:0:0:
284,104,79892,1,0,0:0:0:0:
192,132,80280,1,10,0:0:0:0:
192,228,80667,5,6,0:0:0:0:
280,260,81054,1,8,0:0:0:0:
337,183,81441,2,0,B|405:183,2,59.5000011348725,2|8|0,0:0|0:0|0:0,0:0:0:0:
292,168,82021,1,0,0:0:0:0:
244,172,82215,1,6,0:0:0:0:
280,260,82602,6,0,B|232:296|168:280,1,119.000002269745,8|2,0:0|0:0,0:0:0:0:
112,200,83376,2,0,B|104:140|150:93,1,119.000002269745,8|6,0:0|0:0,0:0:0:0:
244,80,84150,2,0,B|299:103|317:166,2,119.000002269745,8|2|8,0:0|0:0|0:0,0:0:0:0:
150,64,85312,5,6,0:0:0:0:
105,147,85699,1,8,0:0:0:0:
170,219,86086,1,2,0:0:0:0:
256,174,86473,1,8,0:0:0:0:
244,80,86860,2,2,B|292:72|332:104|344:136|344:136|404:112|456:152|456:152|424:208|440:272,1,357.000006809235,6|0,0:0|0:0,0:0:0:0:
472,352,88409,5,4,0:0:0:0:
256,192,88505,12,0,91118,2:0:0:0:
188,56,91505,5,2,0:3:0:0:
260,120,91892,1,8,0:0:0:0:
320,192,92280,2,0,L|320:312,1,119.000002269745,0|8,0:0|0:0,0:0:0:0:
248,376,93054,2,0,L|128:376,1,119.000002269745,0|8,0:0|0:0,0:0:0:0:
56,312,93828,2,0,L|56:192,1,119.000002269745
96,104,94602,6,0,B|144:64|208:60,1,118.999995034933,4|8,0:0|0:0,0:0:0:0:
256,140,95376,1,0,0:0:0:0:
256,236,95763,1,8,0:0:0:0:
308,316,96150,2,0,B|368:312|416:272,1,118.999995034933,0|8,0:0|0:0,0:0:0:0:
420,176,96925,2,0,B|420:112,2,59.4999975174666,0|0|8,0:0|0:0|0:0,0:0:0:0:
324,164,97699,6,0,B|316:224|316:224|224:244,1,118.999995034933,4|8,0:0|0:0,0:0:0:0:
164,236,98473,2,0,B|104:228|104:228|84:136,1,118.999995034933,0|8,0:0|0:0,0:0:0:0:
148,92,99247,2,0,B|204:72|204:72|260:92,1,119.000002269745,0|8,0:0|0:0,0:0:0:0:
352,92,100021,2,0,B|464:92,2,59.4999975174666,0|0|8,0:0|0:0|0:0,0:0:0:0:
324,184,100796,6,0,B|348:244|324:312,1,118.999995034933,4|0,0:0|0:0,0:0:0:0:
248,352,101570,2,0,B|188:376|120:352,1,118.999995034933
52,300,102344,2,0,B|31:243|55:183,1,118.999995034933,4|0,0:0|0:0,0:0:0:0:
128,124,103118,2,0,B|188:100|256:124,1,118.999995034933,0|0,0:0|0:0,0:0:0:0:
192,200,103892,6,0,B|252:224|320:200,1,118.999995034933,4|0,0:0|0:0,0:0:0:0:
400,232,104667,2,0,B|440:296|400:360,1,119.000002269745
320,296,105441,2,0,B|304:320|308:352,2,59.5000011348725,4|0|0,0:0|0:0|0:0,0:0:0:0:
236,252,106215,2,0,B|252:228|248:196,2,59.5000011348725,4|0|0,0:0|0:0|0:0,0:0:0:0:
212,292,106796,1,0,0:0:0:0:
180,324,106989,5,2,0:0:0:0:
256,192,107376,12,0,110086,0:0:0:0:
