osu file format v12

[General]
AudioFilename: Mr. Saturn - Saturn.mp3
AudioLeadIn: 0
PreviewTime: 32104
Countdown: 0
SampleSet: Normal
StackLeniency: 0.7
Mode: 2
LetterboxInBreaks: 1
WidescreenStoryboard: 1

[Editor]
Bookmarks: 75055,24714
DistanceSpacing: 2
BeatDivisor: 2
GridSize: 8

[Metadata]
Title:Saturn
TitleUnicode:Saturn
Artist:Mr. Saturn
ArtistUnicode:Mr. Saturn
Creator:Saturnalize
Version:OverdoZe
Source:Dance Dance Revolution SuperNOVA 2
Tags:urs4chan ursa Yasora-chan Yasora Pop'n'Music Planet wac Jun Wakita beatmaniaIIDX 15 DJ TROOPERS CS Progressive Tribal GRAND CROSS Series IIDX20 tricoro trival
BeatmapID:356150
BeatmapSetID:39797

[Difficulty]
HPDrainRate:7
CircleSize:4
OverallDifficulty:9
ApproachRate:9
SliderMultiplier:2
SliderTickRate:2

[Events]
//Background and Video events
0,0,"BG.jpg",0,0
//Break Periods
2,39060,44647
//Storyboard Layer 0 (Background)
//Storyboard Layer 1 (Fail)
//Storyboard Layer 2 (Pass)
//Storyboard Layer 3 (Foreground)
//Storyboard Sound Samples
//Background Colour Transformations
3,100,163,162,255

[TimingPoints]
151,387.096774193548,4,2,3,75,1,0
1312,-100,4,2,3,75,0,0
1699,-100,4,1,3,50,0,0
2086,-100,4,2,3,75,0,0
4796,-100,4,1,3,50,0,0
5183,-100,4,2,3,75,0,0
7505,-100,4,1,3,50,0,0
8280,-100,4,2,3,75,0,0
10989,-100,4,1,3,50,0,0
11376,-100,4,2,3,75,0,0
12344,-100,4,1,3,50,0,0
14086,-100,4,1,3,75,0,0
14280,-100,4,2,3,75,0,0
19505,-100,4,1,3,50,0,0
20667,-100,4,1,3,60,0,0
20763,-100,4,1,3,50,0,0
21441,-100,4,1,3,60,0,0
21538,-100,4,1,3,50,0,0
22215,-100,4,1,3,60,0,0
22312,-100,4,1,3,50,0,0
22989,-100,4,1,3,60,0,0
23086,-100,4,1,3,50,0,0
24344,-100,4,2,3,75,0,0
24538,-100,4,1,3,50,0,0
24731,-100,4,2,3,75,0,0
24925,-100,4,1,3,50,0,0
26473,-100,4,2,3,75,0,1
26522,-100,4,2,3,75,0,0
32280,-100,4,1,3,50,0,0
32763,-100,4,2,3,75,0,0
38086,-100,4,1,3,30,0,0
38280,-100,4,1,3,38,0,0
38473,-100,4,1,3,45,0,0
38667,-100,4,1,3,53,0,0
38860,-100,4,1,3,60,0,0
38957,-100,4,2,3,65,0,0
51247,-133.333333333333,4,2,3,25,0,0
54344,-133.333333333333,4,2,3,45,0,0
56860,-133.333333333333,4,1,3,25,0,0
58796,-133.333333333333,4,1,3,25,0,0
59763,-133.333333333333,4,2,3,55,0,0
59860,-133.333333333333,4,2,3,65,0,0
60247,-133.333333333333,4,1,3,35,0,0
61312,-133.333333333333,4,2,3,65,0,0
61892,-133.333333333333,4,1,3,35,0,0
62860,-133.333333333333,4,1,3,45,0,0
63054,-133.333333333333,4,1,3,50,0,0
63247,-133.333333333333,4,1,3,55,0,0
63441,-133.333333333333,4,1,3,60,0,0
63634,-83.3333333333333,4,1,3,75,0,1
63730,-83.3333333333333,4,2,3,75,0,1
64408,-83.3333333333333,4,2,0,75,0,1
64504,-83.3333333333333,4,2,3,75,0,1
65182,-83.3333333333333,4,1,3,75,0,1
65279,-83.3333333333333,4,2,3,75,0,1
65956,-83.3333333333333,4,2,3,75,0,1
66053,-83.3333333333333,4,2,3,75,0,1
66730,-83.3333333333333,4,1,3,75,0,1
66827,-83.3333333333333,4,2,3,75,0,1
67504,-83.3333333333333,4,1,3,75,0,1
67601,-83.3333333333333,4,2,3,75,0,1
68279,-83.3333333333333,4,1,3,75,0,1
68473,-83.3333333333333,4,2,3,75,0,1
69053,-83.3333333333333,4,1,3,75,0,1
69150,-83.3333333333333,4,1,3,65,0,1
69441,-83.3333333333333,4,1,3,50,0,1
69828,-83.3333333333333,4,1,3,75,0,1
70601,-83.3333333333333,4,1,3,75,0,1
71375,-83.3333333333333,4,1,3,75,0,1
72150,-83.3333333333333,4,1,3,75,0,1
72924,-83.3333333333333,4,1,3,75,0,1
73021,-83.3333333333333,4,2,3,75,0,1
73698,-83.3333333333333,4,1,3,75,0,1
73795,-83.3333333333333,4,2,3,75,0,1
74472,-83.3333333333333,4,1,3,75,0,1
74956,-83.3333333333333,4,2,3,75,0,1
75247,-83.3333333333333,4,1,3,75,0,1
75633,-83.3333333333333,4,2,3,75,0,1
75828,-83.3333333333333,4,1,3,75,0,0
76021,-83.3333333333333,4,1,3,75,0,1
76117,-83.3333333333333,4,2,3,75,0,1
76504,-83.3333333333333,4,2,3,75,0,1
76795,-83.3333333333333,4,1,3,75,0,1
76892,-83.3333333333333,4,2,3,75,0,1
77182,-83.3333333333333,4,1,3,75,0,1
77569,-83.3333333333333,4,1,3,75,0,1
77666,-83.3333333333333,4,2,3,75,0,1
78343,-83.3333333333333,4,1,3,75,0,1
78440,-83.3333333333333,4,2,3,75,0,1
78730,-83.3333333333333,4,1,3,75,0,1
79214,-83.3333333333333,4,2,3,75,0,1
79504,-83.3333333333333,4,1,3,75,0,1
79601,-83.3333333333333,4,2,3,75,0,1
79892,-83.3333333333333,4,1,3,75,0,1
80375,-83.3333333333333,4,2,3,75,0,1
80473,-83.3333333333333,4,1,3,75,0,1
80666,-83.3333333333333,4,1,3,75,0,1
80859,-83.3333333333333,4,2,3,75,0,1
81053,-83.3333333333333,4,1,3,75,0,1
81246,-83.3333333333333,4,2,3,75,0,1
81440,-83.3333333333333,4,1,3,75,0,1
81634,-83.3333333333333,4,1,3,75,0,1
81828,-83.3333333333333,4,1,3,75,0,1
82021,-83.3333333333333,4,2,3,75,0,1
82118,-83.3333333333333,4,1,3,75,0,1
82409,-83.3333333333333,4,2,3,75,0,1
82989,-83.3333333333333,4,1,3,75,0,1
83183,-83.3333333333333,4,2,3,75,0,1
83763,-83.3333333333333,4,1,3,75,0,1
83957,-83.3333333333333,4,2,3,75,0,1
84538,-83.3333333333333,4,1,3,75,0,1
84731,-83.3333333333333,4,2,3,75,0,1
84925,-83.3333333333333,4,1,3,75,0,1
85118,-83.3333333333333,4,2,3,75,0,1
85312,-83.3333333333333,4,1,3,75,0,1
85504,-83.3333333333333,4,2,3,75,0,1
86085,-83.3333333333333,4,1,3,75,0,1
86279,-83.3333333333333,4,2,3,75,0,1
86859,-83.3333333333333,4,1,3,70,0,1
86957,-83.3333333333333,4,2,3,50,0,1
87344,-83.3333333333333,4,2,3,80,0,1
87634,-83.3333333333333,4,1,3,80,0,1
88409,-100,4,2,3,75,0,0
94602,-100,4,1,3,75,0,0
103892,-83.3333333333333,4,1,3,75,0,0
106989,-83.3333333333333,4,2,3,75,0,0
107376,-83.3333333333333,4,2,3,60,0,0
107763,-83.3333333333333,4,2,3,45,0,0
108150,-83.3333333333333,4,2,3,30,0,0
108538,-83.3333333333333,4,2,3,15,0,0
108925,-83.3333333333333,4,2,3,5,0,0

[Colours]
Combo1 : 135,135,67
Combo2 : 130,130,130

[HitObjects]
256,192,151,12,0,1312,0:0:0:0:
160,240,1699,5,0,0:3:0:0:
46,353,1892,1,0,0:0:0:0:
256,192,2086,1,0,0:0:0:0:
464,192,2473,1,2,0:0:0:0:
256,192,2860,1,0,0:0:0:0:
48,64,3247,5,8,0:0:0:0:
240,80,3440,1,0,0:3:0:0:
128,128,3634,1,0,0:0:0:0:
256,192,4021,1,2,0:0:0:0:
112,192,4409,1,0,0:0:0:0:
480,192,4796,5,0,0:0:0:0:
224,192,4989,1,0,0:0:0:0:
352,192,5183,1,0,0:0:0:0:
256,192,5570,1,2,0:0:0:0:
320,192,5957,1,0,0:0:0:0:
480,192,6151,1,0,0:0:0:0:
320,192,6344,1,8,0:0:0:0:
48,192,6731,1,0,0:0:0:0:
256,192,7118,1,2,0:0:0:0:
352,272,7505,5,0,0:0:0:0:
256,272,7602,1,0,0:0:0:0:
160,272,7699,1,0,0:0:0:0:
384,192,7892,1,4,0:0:0:0:
32,192,8086,1,0,0:0:0:0:
336,192,8280,1,0,0:0:0:0:
128,208,8667,2,0,L|360:149,1,200,2|0,0:0|0:0,0:0:0:0:
408,144,9247,1,0,0:0:0:0:
488,128,9441,2,0,L|256:69,1,200,2|0,0:0|0:0,0:0:0:0:
216,56,10021,1,0,0:0:0:0:
80,64,10215,2,0,L|247:235,1,200,2|0,0:0|0:0,0:0:0:0:
112,256,10989,5,0,0:0:0:0:
400,256,11183,1,0,0:0:0:0:
256,256,11376,1,0,0:0:0:0:
368,192,11763,1,2,0:0:0:0:
144,192,12150,1,0,0:0:0:0:
336,192,12344,5,0,0:0:0:0:
176,192,12538,1,0,0:0:0:0:
320,144,12828,1,0,0:0:0:0:
192,144,13118,1,0,0:0:0:0:
326,288,13312,1,2,0:2:0:0:
352,320,13409,1,0,0:0:0:0:
176,288,13505,1,0,0:0:0:0:
144,320,13602,1,0,0:0:0:0:
400,208,13699,1,0,0:0:0:0:
400,240,13796,1,0,2:0:0:0:
96,208,13892,1,0,0:0:0:0:
96,240,13989,1,0,2:0:0:0:
256,192,14086,5,4,0:0:0:0:
200,240,14280,1,0,0:0:0:0:
360,160,14473,1,0,0:0:0:0:
408,192,14570,1,0,0:0:0:0:
440,232,14667,1,0,0:0:0:0:
400,264,14763,1,0,0:0:0:0:
208,272,14860,1,2,0:0:0:0:
312,232,15054,1,0,0:0:0:0:
144,208,15247,5,0,0:0:0:0:
96,192,15344,1,0,0:0:0:0:
64,160,15441,1,0,0:0:0:0:
48,112,15537,1,0,0:0:0:0:
336,160,15634,1,0,0:0:0:0:
440,160,15828,1,0,0:0:0:0:
128,32,16021,5,0,0:0:0:0:
80,80,16118,1,0,0:0:0:0:
32,192,16215,1,0,0:0:0:0:
384,32,16409,1,0,0:0:0:0:
432,80,16506,1,0,0:0:0:0:
480,192,16603,1,0,0:0:0:0:
192,32,16796,5,0,0:0:0:0:
144,80,16893,1,0,0:0:0:0:
96,192,16990,1,0,0:0:0:0:
144,240,17087,1,0,0:0:0:0:
368,240,17183,5,0,0:0:0:0:
416,192,17280,1,0,0:0:0:0:
368,80,17377,1,2,0:0:0:0:
320,32,17474,1,0,0:0:0:0:
240,80,17570,5,0,0:0:0:0:
192,128,17667,1,0,0:0:0:0:
144,240,17764,1,2,0:0:0:0:
192,288,17861,1,0,0:0:0:0:
320,288,17957,5,0,0:0:0:0:
368,240,18054,1,0,0:0:0:0:
320,128,18151,1,2,0:0:0:0:
272,80,18248,1,0,0:0:0:0:
208,192,18344,5,0,0:0:0:0:
144,192,18441,1,0,0:0:0:0:
80,192,18538,1,2,0:0:0:0:
16,192,18634,1,0,0:0:0:0:
192,192,18731,5,0,0:0:0:0:
256,192,18828,1,0,0:0:0:0:
320,192,18925,1,2,0:0:0:0:
384,192,19021,1,0,0:0:0:0:
352,128,19118,5,0,0:0:0:0:
288,128,19215,1,0,0:0:0:0:
224,128,19312,1,2,0:0:0:0:
160,128,19408,1,0,0:0:0:0:
400,288,19505,5,0,0:0:0:0:
512,144,19699,1,0,0:0:0:0:
256,240,19892,1,0,0:0:0:0:
288,216,19989,1,0,0:0:0:0:
320,184,20086,1,0,0:0:0:0:
344,144,20183,1,0,0:0:0:0:
152,112,20280,5,0,0:0:0:0:
256,80,20474,1,2,2:2:0:0:
88,56,20667,1,8,0:0:0:0:
200,152,20860,1,2,2:2:0:0:
144,128,20957,1,0,2:0:0:0:
88,96,21054,1,0,0:0:0:0:
296,144,21247,1,2,2:2:0:0:
112,184,21441,1,8,0:0:0:0:
80,112,21634,1,2,2:2:0:0:
256,176,21828,5,0,0:0:0:0:
48,176,22021,1,2,2:2:0:0:
352,224,22215,1,8,0:0:0:0:
256,240,22409,1,2,2:2:0:0:
320,288,22505,1,0,2:0:0:0:
400,256,22602,1,0,0:0:0:0:
224,288,22796,1,2,2:2:0:0:
320,224,22989,1,8,0:0:0:0:
48,224,23183,1,2,2:2:0:0:
304,160,23376,5,0,0:0:0:0:
96,96,23570,1,2,2:2:0:0:
352,48,23763,1,8,0:0:0:0:
176,160,23957,1,2,2:2:0:0:
336,192,24150,2,0,L|384:304,1,100,0|2,0:0|2:2,0:0:0:0:
176,192,24538,2,0,L|128:304,1,100,8|2,0:0|2:2,0:0:0:0:
312,296,24925,5,0,0:0:0:0:
280,272,25021,1,0,0:0:0:0:
240,248,25118,1,2,0:2:0:0:
208,224,25214,1,0,0:0:0:0:
336,192,25312,1,0,0:0:0:0:
296,160,25409,1,0,2:0:0:0:
176,160,25505,1,2,0:2:0:0:
144,136,25602,1,0,2:0:0:0:
336,128,25699,5,0,0:0:0:0:
288,88,25795,1,0,0:0:0:0:
104,112,25892,1,2,0:2:0:0:
152,80,25988,1,0,0:0:0:0:
312,80,26086,1,0,2:0:0:0:
360,64,26182,1,0,2:0:0:0:
136,56,26279,1,2,0:2:0:0:
184,32,26376,1,0,2:0:0:0:
256,192,26473,5,4,1:0:0:0:
332,28,26667,1,2,0:0:0:0:
400,96,26763,1,0,0:0:0:0:
512,176,26860,1,8,1:1:0:0:
252,108,27054,1,2,0:0:0:0:
296,168,27150,1,0,0:0:0:0:
336,232,27247,1,0,1:1:0:0:
140,204,27441,1,2,0:0:0:0:
208,272,27537,1,0,0:0:0:0:
275,339,27634,1,8,1:1:0:0:
0,192,27828,1,2,0:0:0:0:
256,192,28021,1,0,1:1:0:0:
180,28,28215,5,2,0:0:0:0:
112,96,28311,1,0,0:0:0:0:
45,163,28408,1,8,1:1:0:0:
256,120,28602,1,2,0:0:0:0:
192,168,28698,1,0,0:0:0:0:
128,216,28795,1,0,1:1:0:0:
312,200,28989,1,2,0:0:0:0:
264,240,29085,1,0,0:0:0:0:
216,272,29182,1,8,1:1:0:0:
480,192,29376,1,2,0:0:0:0:
291,33,29763,5,0,0:0:0:0:
356,58,29859,1,0,0:0:0:0:
400,104,29957,2,0,L|272:168,1,100,2|0,0:0|0:0,0:0:0:0:
175,201,30246,1,0,0:0:0:0:
118,251,30344,2,2,L|235:290,1,100
360,265,30634,1,0,0:0:0:0:
380,215,30731,2,0,L|262:143,1,100,2|0,0:0|0:0,0:0:0:0:
93,100,31021,1,0,0:0:0:0:
76,53,31118,2,0,P|165:46|185:43,1,100,2|0,0:0|0:0,0:0:0:0:
334,38,31409,1,0,0:0:0:0:
381,88,31505,2,0,L|261:123,1,100,2|0,0:0|0:0,0:0:0:0:
134,152,31795,1,0,0:0:0:0:
72,184,31892,2,0,L|187:228,1,100,4|0,0:0|0:0,0:0:0:0:
312,240,32183,5,0,0:0:0:0:
371,193,32280,1,0,0:0:0:0:
96,192,32473,1,0,0:0:0:0:
256,192,32667,1,4,0:0:0:0:
208,32,32860,5,2,0:0:0:0:
64,80,32957,1,0,0:0:0:0:
0,192,33054,1,8,1:1:0:0:
208,80,33247,1,2,0:0:0:0:
96,112,33343,1,0,0:0:0:0:
48,192,33440,1,0,1:1:0:0:
208,144,33634,1,2,0:0:0:0:
144,160,33731,1,0,0:0:0:0:
96,192,33828,1,8,1:1:0:0:
384,192,34021,1,2,0:0:0:0:
256,192,34215,1,0,1:1:0:0:
304,32,34409,5,2,0:0:0:0:
448,80,34506,1,0,0:0:0:0:
512,192,34603,1,8,1:1:0:0:
304,80,34796,1,2,0:0:0:0:
416,112,34892,1,0,0:0:0:0:
464,192,34989,1,0,1:1:0:0:
304,144,35183,1,2,0:0:0:0:
368,160,35280,1,0,0:0:0:0:
416,192,35377,1,8,1:1:0:0:
144,192,35570,1,2,0:0:0:0:
368,192,35764,1,0,1:0:0:0:
144,48,35957,5,2,0:0:0:0:
64,112,36054,1,0,0:0:0:0:
16,176,36150,1,8,1:1:0:0:
368,336,36344,1,2,0:0:0:0:
448,272,36441,1,0,0:0:0:0:
496,208,36537,1,0,1:1:0:0:
152,192,36731,1,2,0:0:0:0:
256,192,36828,1,0,0:0:0:0:
360,192,36925,1,8,1:1:0:0:
168,152,37118,5,2,1:2:0:0:
320,144,37312,1,0,1:0:0:0:
176,176,37506,1,0,1:0:0:0:
336,224,37699,1,0,1:0:0:0:
240,256,37892,1,2,0:0:0:0:
272,352,38086,5,0,0:0:0:0:
352,304,38183,1,0,0:0:0:0:
400,240,38280,1,0,0:0:0:0:
352,176,38376,1,0,0:0:0:0:
256,192,38473,1,0,0:0:0:0:
160,208,38570,1,0,0:0:0:0:
112,144,38666,1,0,0:0:0:0:
160,80,38763,1,0,0:0:0:0:
240,32,38860,1,4,0:0:0:0:
281,90,45247,5,2,0:0:0:0:
366,39,45344,1,0,0:0:0:0:
446,101,45441,1,0,0:0:0:0:
336,152,45634,2,0,L|144:248,1,200
85,287,46118,5,0,0:0:0:0:
0,233,46215,1,0,0:0:0:0:
124,168,46409,2,2,L|320:73,1,200
411,22,46892,5,0,0:0:0:0:
478,146,46990,1,0,0:0:0:0:
377,218,47183,2,0,L|181:313,1,200
64,356,47667,5,0,0:0:0:0:
0,262,47764,1,0,0:0:0:0:
134,206,47957,2,0,L|345:109,1,200
198,190,48441,5,0,0:0:0:0:
267,263,48538,1,0,0:0:0:0:
319,193,48731,2,0,L|108:96,1,200
40,87,49215,1,0,0:0:0:0:
121,85,49312,5,0,1:0:0:0:
411,93,49505,1,2,1:2:0:0:
155,177,49699,1,0,1:2:0:0:
304,186,49892,1,0,1:2:0:0:
162,208,50086,1,0,1:2:0:0:
367,250,50280,1,0,1:2:0:0:
81,253,50473,1,0,1:2:0:0:
128,289,50570,1,0,1:2:0:0:
190,302,50667,1,0,1:2:0:0:
249,293,50763,1,0,1:2:0:0:
260,239,50860,1,0,1:2:0:0:
231,192,50957,1,0,2:2:0:0:
185,151,51054,1,0,1:2:0:0:
132,106,51150,1,0,2:2:0:0:
82,71,51247,1,4,1:2:0:0:
256,80,51634,5,0,0:0:0:0:
432,192,52021,1,2,0:0:0:0:
256,192,52409,1,0,0:0:0:0:
80,192,52796,1,0,0:0:0:0:
256,256,53183,1,0,0:0:0:0:
464,256,53570,1,2,0:0:0:0:
256,320,53957,1,0,0:0:0:0:
32,336,54344,5,0,0:0:0:0:
160,288,54441,1,0,0:0:0:0:
16,240,54634,1,0,0:0:0:0:
80,192,54731,1,0,0:0:0:0:
144,144,54828,1,0,0:0:0:0:
80,96,54925,1,0,0:0:0:0:
16,32,55021,1,0,0:0:0:0:
80,192,55118,1,2,0:0:0:0:
256,192,55505,1,0,0:0:0:0:
480,336,55892,5,0,0:0:0:0:
352,288,55989,1,0,0:0:0:0:
496,240,56182,1,0,0:0:0:0:
432,192,56279,1,0,0:0:0:0:
368,144,56376,1,0,0:0:0:0:
432,96,56473,1,0,0:0:0:0:
496,32,56569,1,0,0:0:0:0:
432,192,56667,1,2,0:0:0:0:
256,192,56860,1,0,0:0:0:0:
0,192,57150,1,0,0:0:0:0:
48,32,57441,5,0,0:0:0:0:
112,80,57538,1,0,0:0:0:0:
176,128,57634,1,0,0:0:0:0:
208,208,57732,1,0,0:0:0:0:
112,208,57828,1,0,0:0:0:0:
32,208,57925,1,0,0:0:0:0:
64,288,58021,1,0,0:0:0:0:
128,336,58119,1,0,0:0:0:0:
192,384,58216,1,2,2:0:0:0:
336,256,58409,5,0,0:0:0:0:
400,192,58505,1,0,0:0:0:0:
32,192,58796,1,0,0:0:0:0:
112,80,58892,1,0,0:0:0:0:
240,48,58989,1,0,0:0:0:0:
448,192,59280,1,0,0:0:0:0:
240,192,59570,1,0,0:0:0:0:
64,192,59763,1,2,0:0:0:0:
256,224,60054,5,0,0:0:0:0:
400,64,60247,1,0,0:0:0:0:
432,112,60344,1,0,0:0:0:0:
256,272,60538,1,0,0:0:0:0:
112,96,60731,1,0,0:0:0:0:
96,64,60828,1,0,0:0:0:0:
400,288,61021,1,0,0:0:0:0:
416,320,61118,1,0,0:0:0:0:
256,192,61312,1,2,0:0:0:0:
64,64,61699,5,0,0:0:0:0:
224,112,61892,1,0,0:0:0:0:
256,144,61989,1,0,0:0:0:0:
224,192,62086,1,0,0:0:0:0:
256,224,62183,1,0,0:0:0:0:
448,48,62376,1,0,0:0:0:0:
256,48,62473,1,0,0:0:0:0:
64,48,62667,1,0,0:0:0:0:
224,336,62860,5,0,0:0:0:0:
272,320,62957,1,0,0:0:0:0:
320,288,63054,1,0,0:0:0:0:
336,240,63150,1,0,0:0:0:0:
304,192,63247,1,0,0:0:0:0:
256,144,63344,1,0,0:0:0:0:
224,112,63441,1,0,0:0:0:0:
144,160,63634,6,0,P|216:216|264:224,1,119.999996337891,4|0,0:0|0:0,0:0:0:0:
368,160,63925,2,0,P|296:216|248:224,1,119.999996337891,8|8,0:0|0:0,0:0:0:0:
120,152,64215,2,0,P|192:208|240:216,1,119.999996337891,0|8,0:0|0:0,0:0:0:0:
349,251,64602,2,0,P|247:311|224:310,2,119.999996337891,0|8|0,0:0|0:0|0:0,0:0:0:0:
384,160,65183,6,0,P|312:216|264:224,1,119.999996337891,4|0,0:0|0:0,0:0:0:0:
144,160,65473,2,0,P|216:216|242:222,1,119.999996337891,8|8,0:0|0:0,0:0:0:0:
408,152,65763,2,0,P|336:208|288:208,1,119.999996337891,0|8,0:0|0:0,0:0:0:0:
192,206,66150,2,0,P|135:187|93:146,2,119.999996337891,0|8|0,0:0|0:0|0:0,0:0:0:0:
386,92,66731,6,0,P|314:36|266:28,1,119.999996337891,4|0,0:0|0:0,0:0:0:0:
64,96,67022,2,0,P|136:40|162:33,1,119.999996337891,8|8,0:0|0:0,0:0:0:0:
352,112,67312,2,0,P|280:56|232:48,1,119.999996337891,0|0,0:0|0:0,0:0:0:0:
125,93,67699,2,0,P|168:135|225:153,2,119.999996337891,0|8|0,0:0|0:0|0:0,0:0:0:0:
304,192,68280,6,0,P|376:248|424:256,1,119.999996337891,4|0,0:0|0:0,0:0:0:0:
224,96,68571,2,0,P|152:40|126:33,1,119.999996337891,8|8,1:1|0:0,0:0:0:0:
320,96,68861,2,0,P|392:152|440:160,1,119.999996337891,0|2,0:0|0:0,0:0:0:0:
32,176,69344,1,2,0:0:0:0:
224,176,69634,1,2,0:0:0:0:
416,160,69828,5,6,0:0:0:0:
202,195,70021,1,0,0:0:0:0:
144,240,70118,1,2,0:2:0:0:
256,192,70312,1,0,0:0:0:0:
280,223,70409,1,2,0:0:0:0:
432,144,70602,5,2,0:0:0:0:
200,192,70796,1,0,0:0:0:0:
144,240,70892,1,2,0:2:0:0:
272,208,71086,1,0,0:0:0:0:
336,264,71183,1,2,0:0:0:0:
480,112,71376,5,6,0:0:0:0:
200,192,71570,1,0,0:0:0:0:
144,240,71667,1,2,0:2:0:0:
240,72,71860,1,0,0:0:0:0:
184,112,71957,1,2,0:0:0:0:
512,80,72150,1,2,0:0:0:0:
224,256,72344,1,0,0:0:0:0:
112,304,72441,1,2,0:2:0:0:
280,224,72634,1,0,0:0:0:0:
392,272,72731,1,2,0:0:0:0:
80,144,72925,5,6,0:0:0:0:
272,160,73118,1,0,0:0:0:0:
360,208,73215,1,2,0:2:0:0:
144,216,73506,1,2,0:0:0:0:
0,152,73699,1,2,0:0:0:0:
192,112,73892,1,0,0:0:0:0:
272,88,73989,1,2,0:2:0:0:
120,176,74280,1,2,0:0:0:0:
0,64,74473,1,6,0:0:0:0:
200,112,74667,1,0,2:0:0:0:
80,240,74860,1,2,0:2:0:0:
256,304,75054,1,2,0:0:0:0:
152,280,75247,5,0,0:0:0:0:
104,232,75344,1,0,0:0:0:0:
72,192,75441,1,0,0:0:0:0:
120,152,75538,1,0,0:0:0:0:
336,176,75634,1,0,0:0:0:0:
384,144,75731,1,0,0:0:0:0:
200,80,75828,1,0,0:0:0:0:
240,48,75925,1,0,0:0:0:0:
504,32,76021,6,0,L|320:96,1,179.999994506836
104,128,76602,1,0,0:0:0:0:
424,128,76796,2,0,L|240:192,1,179.999994506836,4|0,0:0|0:0,0:0:0:0:
184,216,77183,1,0,0:0:0:0:
112,256,77280,1,0,0:0:0:0:
32,296,77376,1,4,0:0:0:0:
112,256,77473,1,2,0:0:0:0:
184,216,77570,1,6,0:0:0:0:
32,296,77860,5,2,0:0:0:0:
392,192,78150,1,0,0:0:0:0:
96,144,78344,1,0,0:0:0:0:
32,184,78441,1,0,0:0:0:0:
320,184,78634,1,2,0:0:0:0:
376,136,78731,1,0,0:0:0:0:
216,184,78828,1,0,0:0:0:0:
168,136,78925,1,0,0:0:0:0:
456,184,79021,1,0,0:0:0:0:
504,136,79118,1,4,0:0:0:0:
256,320,79409,5,2,0:0:0:0:
152,248,79699,1,0,0:0:0:0:
416,304,79892,1,0,0:0:0:0:
232,208,80280,1,2,0:1:0:0:
168,168,80376,1,2,0:1:0:0:
248,112,80473,1,2,0:1:0:0:
160,64,80570,1,6,0:1:0:0:
216,16,80667,1,2,0:1:0:0:
416,64,80957,1,2,0:0:0:0:
160,168,81247,1,0,0:0:0:0:
456,200,81441,1,8,0:0:0:0:
440,152,81538,1,0,0:0:0:0:
232,192,81731,1,10,0:0:0:0:
264,152,81828,1,0,0:0:0:0:
160,336,82021,5,0,0:0:0:0:
112,288,82118,1,0,0:0:0:0:
64,240,82215,1,6,0:0:0:0:
256,192,82505,1,2,0:0:0:0:
352,48,82796,5,2,0:0:0:0:
400,96,82893,1,0,0:0:0:0:
448,144,82990,1,2,0:0:0:0:
256,192,83280,1,2,0:0:0:0:
128,384,83570,5,2,0:0:0:0:
48,320,83667,1,0,0:0:0:0:
0,240,83764,1,6,0:0:0:0:
257,340,84054,1,2,0:0:0:0:
384,0,84344,5,2,0:0:0:0:
464,64,84441,1,0,0:0:0:0:
512,144,84538,1,2,0:0:0:0:
256,192,84828,1,2,0:0:0:0:
64,240,85118,5,0,0:0:0:0:
18,135,85215,1,0,0:0:0:0:
64,48,85312,1,4,0:0:0:0:
256,192,85602,1,2,0:0:0:0:
448,144,85892,5,2,0:0:0:0:
494,249,85989,1,0,0:0:0:0:
448,336,86086,1,2,0:0:0:0:
256,192,86376,1,2,0:0:0:0:
96,184,86667,5,2,0:0:0:0:
0,240,86763,1,0,0:0:0:0:
168,272,86860,1,6,0:0:0:0:
288,176,87054,1,0,0:0:0:0:
384,104,87247,1,0,0:0:0:0:
488,32,87441,1,0,0:0:0:0:
352,288,87634,5,2,0:0:0:0:
304,320,87731,1,0,0:0:0:0:
240,320,87828,1,0,0:0:0:0:
192,288,87925,1,0,0:0:0:0:
160,240,88021,1,0,0:0:0:0:
128,192,88118,1,0,2:0:0:0:
144,144,88215,1,0,0:0:0:0:
192,96,88312,1,0,2:0:0:0:
256,80,88409,1,4,0:0:0:0:
432,128,88602,5,2,0:0:0:0:
256,160,88796,1,8,1:1:0:0:
400,176,88989,1,2,0:0:0:0:
224,208,89183,1,0,0:0:0:0:
368,224,89376,1,2,0:0:0:0:
192,256,89570,1,8,1:1:0:0:
336,272,89763,1,2,0:0:0:0:
160,304,89957,1,0,0:0:0:0:
432,128,90150,5,2,0:0:0:0:
256,192,90344,1,8,1:1:0:0:
400,176,90538,1,2,0:0:0:0:
256,192,90731,1,0,0:0:0:0:
368,224,90925,1,2,0:0:0:0:
256,192,91118,1,8,1:1:0:0:
336,272,91312,1,2,0:0:0:0:
152,272,91505,5,0,0:0:0:0:
256,192,91699,1,2,0:0:0:0:
144,160,91892,1,8,1:1:0:0:
256,192,92086,1,2,0:0:0:0:
112,208,92279,1,0,0:0:0:0:
256,192,92473,1,2,0:0:0:0:
80,256,92667,1,8,1:1:0:0:
256,192,92860,1,2,0:0:0:0:
352,304,93054,1,0,0:0:0:0:
176,272,93248,1,2,0:0:0:0:
320,256,93441,1,8,1:1:0:0:
144,224,93635,1,2,0:0:0:0:
288,208,93828,5,0,1:0:0:0:
112,176,94022,1,0,1:0:0:0:
256,160,94215,1,0,1:1:0:0:
80,128,94409,1,0,1:0:0:0:
256,96,94602,5,4,0:0:0:0:
400,32,94796,1,0,0:0:0:0:
256,240,94989,1,0,0:0:0:0:
288,208,95086,1,8,0:0:0:0:
432,240,95280,1,0,0:0:0:0:
464,208,95376,1,0,0:0:0:0:
224,272,95570,1,0,0:0:0:0:
392,280,95763,1,8,0:0:0:0:
464,128,95957,1,0,0:0:0:0:
144,64,96150,5,0,0:0:0:0:
104,104,96247,1,0,0:0:0:0:
256,200,96441,1,8,0:0:0:0:
96,200,96634,1,0,0:0:0:0:
288,160,96828,1,0,0:0:0:0:
320,128,96924,1,0,0:0:0:0:
128,120,97118,1,0,0:0:0:0:
352,80,97311,1,8,0:0:0:0:
152,72,97505,1,0,0:0:0:0:
272,320,97699,5,4,0:0:0:0:
312,272,97796,1,0,0:0:0:0:
424,272,97892,1,0,0:0:0:0:
472,232,97989,1,8,0:0:0:0:
280,216,98183,1,0,0:0:0:0:
400,152,98376,1,0,0:0:0:0:
440,120,98473,1,0,0:0:0:0:
256,128,98667,1,0,0:0:0:0:
432,48,98860,1,8,0:0:0:0:
192,64,99054,1,0,0:0:0:0:
280,272,99247,5,0,0:0:0:0:
320,232,99344,1,0,0:0:0:0:
152,200,99538,1,8,0:0:0:0:
304,152,99731,1,0,0:0:0:0:
160,64,99924,1,0,0:0:0:0:
120,104,100021,1,0,0:0:0:0:
344,72,100215,1,0,0:0:0:0:
224,160,100408,1,8,0:0:0:0:
432,160,100602,1,0,0:0:0:0:
384,48,100796,5,4,0:0:0:0:
384,48,100892,1,0,0:0:0:0:
256,192,101086,1,0,0:0:0:0:
368,272,101280,1,0,0:0:0:0:
192,320,101473,1,0,0:0:0:0:
192,320,101570,1,0,0:0:0:0:
320,240,101763,1,0,0:0:0:0:
192,144,101957,1,0,0:0:0:0:
320,80,102150,1,0,0:0:0:0:
112,48,102344,5,4,0:0:0:0:
112,48,102440,1,0,0:0:0:0:
400,160,102634,1,0,0:0:0:0:
224,224,102828,1,0,0:0:0:0:
448,320,103021,1,0,0:0:0:0:
352,352,103118,1,0,0:0:0:0:
64,240,103312,1,0,0:0:0:0:
432,192,103505,1,0,0:0:0:0:
256,192,103699,1,0,0:0:0:0:
128,48,103892,5,4,0:0:0:0:
128,48,103988,1,0,0:0:0:0:
256,192,104182,1,0,0:0:0:0:
144,272,104376,1,0,0:0:0:0:
320,320,104569,1,0,0:0:0:0:
320,320,104666,1,0,0:0:0:0:
192,240,104859,1,0,0:0:0:0:
320,144,105053,1,0,0:0:0:0:
192,80,105246,1,0,0:0:0:0:
400,48,105440,5,4,0:0:0:0:
400,48,105538,1,0,0:0:0:0:
112,160,105730,1,0,0:0:0:0:
288,224,105924,1,0,0:0:0:0:
64,320,106117,1,0,0:0:0:0:
160,352,106214,1,4,0:0:0:0:
448,240,106408,1,0,0:0:0:0:
80,192,106601,1,4,0:0:0:0:
336,192,106795,1,0,0:0:0:0:
256,192,106989,12,0,110086,0:0:0:0:
