osu file format v12

[General]
AudioFilename: Mr. Saturn - Saturn.mp3
AudioLeadIn: 0
PreviewTime: 32104
Countdown: 0
SampleSet: Normal
StackLeniency: 0.7
Mode: 0
LetterboxInBreaks: 1
WidescreenStoryboard: 0

[Editor]
Bookmarks: 56667,91892
DistanceSpacing: 1
BeatDivisor: 4
GridSize: 4

[Metadata]
Title:Saturn
TitleUnicode:Saturn
Artist:Mr. Saturn
ArtistUnicode:Mr. Saturn
Creator:Saturnalize
Version:Expert
Source:Dance Dance Revolution SuperNOVA 2
Tags:urs4chan ursa Yasora-chan Yasora Pop'n'Music Planet wac Jun Wakita beatmaniaIIDX 15 DJ TROOPERS CS Progressive Tribal GRAND CROSS Series IIDX20 tricoro trival
BeatmapID:356182
BeatmapSetID:39797

[Difficulty]
HPDrainRate:7
CircleSize:4
OverallDifficulty:7
ApproachRate:9
SliderMultiplier:2
SliderTickRate:2

[Events]
//Background and Video events
0,0,"BG.jpg",0,0
//Break Periods
//Storyboard Layer 0 (Background)
//Storyboard Layer 1 (Fail)
//Storyboard Layer 2 (Pass)
//Storyboard Layer 3 (Foreground)
//Storyboard Sound Samples
//Background Colour Transformations
3,100,163,162,255

[TimingPoints]
151,387.096774193548,4,2,3,55,1,0
14086,-117.647058823529,4,2,3,55,0,0
26473,-117.647058823529,4,2,3,55,0,1
26522,-117.647058823529,4,2,3,55,0,0
32473,-117.647058823529,4,2,3,45,0,0
32667,-117.647058823529,4,2,3,35,0,0
32860,-117.647058823529,4,2,3,55,0,0
39054,-133.333333333333,4,2,3,55,0,0
49312,-100,4,1,3,55,0,0
51247,-200,4,2,3,35,0,0
57441,-133.333333333333,4,2,3,55,0,0
62860,-100,4,2,3,35,0,0
63054,-100,4,2,3,40,0,0
63247,-100,4,2,3,45,0,0
63441,-100,4,2,3,55,0,0
63634,-83.3333333333333,4,1,3,55,0,1
75828,-83.3333333333333,4,1,3,55,0,0
76021,-83.3333333333333,4,1,3,55,0,1
88409,-100,4,2,3,75,0,0
91602,-100,4,2,3,55,0,0
94602,-100,4,1,3,75,0,0
94699,-100,4,1,3,60,0,0
97699,-100,4,1,3,75,0,0
97796,-100,4,1,3,60,0,0
100796,-100,4,1,3,75,0,0
100892,-100,4,3,3,50,0,0
102344,-100,4,1,3,75,0,0
102441,-100,4,3,3,50,0,0
103892,-83.3333333333333,4,1,3,75,0,0
103989,-83.3333333333333,4,3,3,70,0,0
105441,-83.3333333333333,4,1,3,75,0,0
105538,-83.3333333333333,4,3,3,75,0,0
106215,-83.3333333333333,4,1,3,80,0,0
106409,-83.3333333333333,4,3,3,85,0,0
106602,-83.3333333333333,4,1,3,90,0,0
106796,-83.3333333333333,4,3,3,95,0,0
106989,-83.3333333333333,4,2,3,50,0,0
107376,-83.3333333333333,4,2,3,5,0,0

[Colours]
Combo1 : 135,135,67
Combo2 : 130,130,130

[HitObjects]
112,48,14086,6,0,L|144:160,1,85.0000016212464,4|2,1:0|0:0,0:0:0:0:
128,256,14473,2,0,L|240:224,1,85.0000016212464,0|2,1:2|0:0,0:0:0:0:
328,248,14860,2,0,L|296:136,1,85.0000016212464,0|2,1:0|0:0,0:0:0:0:
312,40,15247,2,0,L|200:72,1,85.0000016212464,0|2,1:2|0:0,0:0:0:0:
135,129,15634,5,0,1:0:0:0:
31,188,15828,1,2,0:0:0:0:
128,256,16021,1,0,1:0:0:0:
233,199,16215,1,2,0:0:0:0:
135,129,16409,5,0,1:0:0:0:
55,259,16602,1,2,0:0:0:0:
153,375,16796,1,0,1:0:0:0:
293,317,16989,1,2,0:0:0:0:
283,166,17183,6,0,P|238:173|186:221,1,85.0000016212464,0|2,1:0|0:0,0:0:0:0:
317,235,17570,2,0,P|281:263|260:331,1,85.0000016212464,0|2,1:0|0:0,0:0:0:0:
382,287,17957,2,0,P|365:329|381:398,1,85.0000016212464,0|2,1:0|0:0,0:0:0:0:
459,292,18344,2,0,P|466:337|514:389,1,85.0000016212464,0|2,1:0|0:2,0:0:0:0:
500,216,18731,2,0,P|492:170|472:136,1,85.0000016212464,0|2,1:0|0:0,0:0:0:0:
360,100,19118,1,0,1:0:0:0:
384,216,19312,1,2,0:0:0:0:
432,72,19505,5,4,1:3:0:0:
300,148,19699,1,4,1:3:0:0:
166,68,19892,1,4,1:3:0:0:
139,89,19989,2,0,L|119:177,1,85.0000016212464,4|4,1:3|1:3,0:0:0:0:
93,193,20280,6,0,L|73:281,1,85.0000016212464,4|2,1:3|0:3,0:0:0:0:
142,373,20667,1,8,1:0:0:0:
189,264,20860,2,0,L|199:220,1,42.5000008106232,2|0,0:3|0:0,0:0:0:0:
192,188,21054,6,0,P|224:216|288:220,1,85.0000016212464,0|2,1:0|0:3,0:0:0:0:
256,60,21441,2,0,P|215:73|180:127,1,85.0000016212464,8|2,1:0|0:3,0:0:0:0:
336,176,21828,2,0,P|345:133|315:76,1,85.0000016212464,0|2,1:0|0:3,0:0:0:0:
260,142,22215,1,8,1:0:0:0:
412,212,22409,1,2,0:3:0:0:
412,212,22505,1,0,0:0:0:0:
412,212,22602,2,0,L|495:249,1,85.0000016212464,0|2,1:0|0:3,0:0:0:0:
342,252,22989,2,0,L|342:352,1,85.0000016212464,8|2,1:0|0:3,0:0:0:0:
272,212,23376,6,0,L|189:249,1,85.0000016212464,0|2,1:0|0:3,0:0:0:0:
76,248,23763,1,8,1:0:0:0:
163,166,23957,1,2,0:3:0:0:
163,166,24054,1,0,0:0:0:0:
163,166,24150,1,0,1:0:0:0:
272,212,24344,1,2,0:3:0:0:
272,212,24441,1,0,0:0:0:0:
272,212,24538,1,8,1:0:0:0:
186,294,24731,1,2,0:3:0:0:
243,133,24925,6,0,L|263:79,1,42.5000008106232,4|4,0:3|0:3,0:0:0:0:
338,66,25118,2,0,L|392:86,1,42.5000008106232,4|4,0:3|0:3,0:0:0:0:
407,161,25312,2,0,L|387:215,1,42.5000008106232,4|0,0:3|0:0,0:0:0:0:
312,228,25505,2,0,L|258:208,1,42.5000008106232,4|0,0:3|0:0,0:0:0:0:
238,97,25699,6,0,L|282:44,1,42.5000008106232,4|0,0:3|0:0,0:0:0:0:
372,60,25892,2,0,L|425:105,1,42.5000008106232,4|4,0:3|0:3,0:0:0:0:
411,196,26086,2,0,L|367:249,1,42.5000008106232
277,233,26279,2,0,L|224:188,1,42.5000008106232,4|0,0:3|0:0,0:0:0:0:
326,147,26473,5,4,1:0:0:0:
389,286,26667,1,2,0:0:0:0:
392,293,26763,2,0,L|420:341,1,42.5000008106232,2|8,0:0|1:0,0:0:0:0:
272,268,27054,1,2,0:0:0:0:
271,275,27150,2,0,L|271:330,1,42.5000008106232,2|0,0:0|1:0,0:0:0:0:
156,216,27441,1,2,0:0:0:0:
151,222,27537,2,0,L|123:270,1,42.5000008106232,2|8,0:0|1:0,0:0:0:0:
112,104,27828,2,0,L|15:160,1,85.0000016212464,2|0,0:0|1:0,0:0:0:0:
120,108,28215,5,2,0:0:0:0:
128,112,28312,2,0,L|192:132,1,42.5000008106232,2|8,0:0|1:0,0:0:0:0:
196,276,28602,1,2,0:0:0:0:
204,272,28699,2,0,L|268:252,1,42.5000008106232,2|0,0:0|1:0,0:0:0:0:
240,124,28989,1,2,0:0:0:0:
248,128,29086,2,0,L|312:148,1,42.5000008106232,2|8,0:0|1:0,0:0:0:0:
316,260,29376,2,0,L|412:230,1,85.0000016212464,2|0,0:0|1:0,0:0:0:0:
308,264,29763,5,2,0:0:0:0:
300,268,29860,2,0,L|272:320,1,42.5000008106232,2|8,0:0|1:0,0:0:0:0:
167,201,30150,1,2,0:0:0:0:
168,192,30247,2,0,L|137:141,1,42.5000008106232,2|0,0:0|1:0,0:0:0:0:
292,110,30538,1,2,0:0:0:0:
299,115,30635,2,0,L|358:114,1,42.5000008106232,2|8,0:0|1:0,0:0:0:0:
400,204,30925,2,0,L|312:204,1,85.0000016212464,2|0,0:0|1:0,0:0:0:0:
268,96,31312,2,0,L|356:96,1,85.0000016212464,2|8,0:0|1:0,0:0:0:0:
408,220,31699,2,0,L|320:220,1,85.0000016212464,2|0,0:0|1:0,0:0:0:0:
206,198,32086,1,8,1:0:0:0:
89,176,32280,2,0,L|4:176,2,85.0000016212464,0|2|0,1:0|1:2|1:0,0:0:0:0:
210,206,32860,5,2,0:0:0:0:
214,214,32957,1,2,0:0:0:0:
218,222,33054,1,8,1:0:0:0:
332,256,33247,1,2,0:0:0:0:
328,248,33344,1,2,0:0:0:0:
324,240,33441,1,0,1:0:0:0:
180,192,33634,1,2,0:0:0:0:
184,200,33731,1,2,0:0:0:0:
188,208,33828,1,8,1:0:0:0:
364,264,34021,2,0,L|328:168,1,85.0000016212464,2|0,0:0|1:0,0:0:0:0:
372,268,34409,5,2,0:0:0:0:
380,272,34505,1,2,0:0:0:0:
388,276,34602,1,8,1:0:0:0:
332,172,34796,1,2,0:0:0:0:
340,171,34892,1,2,0:0:0:0:
349,170,34989,1,0,1:0:0:0:
249,108,35183,1,2,0:0:0:0:
255,103,35279,1,2,0:0:0:0:
263,98,35376,1,8,1:0:0:0:
144,94,35570,2,0,L|184:8,1,85.0000016212464,2|0,0:0|1:0,0:0:0:0:
148,104,35957,5,2,0:0:0:0:
152,112,36054,1,2,0:0:0:0:
156,120,36150,1,8,1:0:0:0:
233,329,36344,1,2,0:0:0:0:
238,322,36441,1,2,0:0:0:0:
243,314,36537,1,0,1:0:0:0:
386,142,36731,1,2,0:0:0:0:
377,141,36828,1,2,0:0:0:0:
368,141,36924,1,8,1:0:0:0:
256,192,37118,5,4,0:3:0:0:
148,240,37312,2,4,L|40:288,1,85.0000016212464,4|4,1:3|0:3,0:0:0:0:
364,240,37699,2,0,L|472:288,1,85.0000016212464,4|0,1:3|0:0,0:0:0:0:
215,80,38086,1,4,1:3:0:0:
235,74,38182,1,4,0:3:0:0:
256,72,38279,1,4,0:3:0:0:
277,74,38376,1,4,0:3:0:0:
297,80,38473,1,4,1:3:0:0:
164,156,38667,1,4,0:3:0:0:
256,315,38860,1,4,0:3:0:0:
348,156,39054,5,2,0:0:0:0:
340,152,39150,1,2,0:0:0:0:
332,148,39247,1,4,0:3:0:0:
336,312,39441,2,0,P|392:312|432:280,1,75.0000028610231,2|4,0:0|3:0,0:0:0:0:
324,144,39828,5,2,0:0:0:0:
316,140,39924,1,2,0:0:0:0:
308,136,40021,1,4,0:3:0:0:
408,304,40215,2,0,P|438:257|433:206,1,75.0000028610231,2|4,0:0|3:0,0:0:0:0:
300,132,40602,5,2,0:0:0:0:
292,128,40698,1,2,0:0:0:0:
284,124,40795,1,4,0:3:0:0:
440,240,40989,2,0,P|419:188|375:162,1,75.0000028610231,2|4,0:0|3:0,0:0:0:0:
272,120,41376,5,2,0:0:0:0:
264,116,41473,1,2,0:0:0:0:
256,112,41569,1,4,0:3:0:0:
406,175,41763,2,0,P|351:164|305:187,1,75.0000028610231,2|4,0:0|3:0,0:0:0:0:
364,240,42150,6,0,L|384:276,2,37.5000014305115,2|2|4,0:0|0:0|0:3,0:0:0:0:
214,301,42538,2,0,L|220:264,2,37.5000014305115,2|2|4,0:0|0:0|0:3,0:0:0:0:
292,264,42925,2,0,L|298:304,2,37.5000014305115,2|2|4,0:0|0:0|0:3,0:0:0:0:
129,272,43312,2,0,L|148:240,2,37.5000014305115,2|0|4,0:0|0:0|0:3,0:0:0:0:
144,139,43699,5,2,0:0:0:0:
135,136,43796,1,2,0:0:0:0:
127,132,43892,1,4,0:3:0:0:
302,77,44086,1,2,0:0:0:0:
305,69,44183,1,0,0:0:0:0:
309,61,44279,1,4,0:3:0:0:
209,77,44473,1,2,0:0:0:0:
206,69,44570,1,2,0:0:0:0:
202,61,44666,1,4,0:3:0:0:
368,140,44860,1,2,0:0:0:0:
376,136,44957,1,0,0:0:0:0:
384,132,45053,1,4,0:3:0:0:
284,160,45247,5,2,0:0:0:0:
286,167,45344,2,0,P|310:205|332:217,1,37.5000014305115,2|4,0:0|0:3,0:0:0:0:
440,192,45634,1,2,0:0:0:0:
433,194,45731,2,0,P|395:218|383:240,1,37.5000014305115,0|4,0:0|0:3,0:0:0:0:
408,348,46021,1,2,0:0:0:0:
406,341,46118,2,0,P|382:303|360:291,1,37.5000014305115,2|4,0:0|0:3,0:0:0:0:
254,315,46408,1,2,0:0:0:0:
261,313,46505,2,0,P|299:289|311:267,1,37.5000014305115,0|4,0:0|0:3,0:0:0:0:
354,209,46796,5,2,0:0:0:0:
355,201,46892,2,0,L|370:135,1,37.5000014305115,2|4,0:0|0:3,0:0:0:0:
258,153,47183,1,2,0:0:0:0:
259,145,47279,2,0,L|274:79,1,37.5000014305115,0|4,0:0|0:3,0:0:0:0:
140,143,47570,1,2,0:0:0:0:
141,135,47666,2,0,L|156:69,1,37.5000014305115,2|4,0:0|0:3,0:0:0:0:
44,87,47957,1,2,0:0:0:0:
45,79,48053,2,0,L|60:13,1,37.5000014305115,0|4,0:0|0:3,0:0:0:0:
159,40,48344,5,2,0:0:0:0:
168,44,48441,1,2,0:0:0:0:
176,48,48538,1,4,0:3:0:0:
208,148,48731,1,2,0:0:0:0:
217,152,48828,1,0,0:0:0:0:
225,156,48925,1,4,0:3:0:0:
268,252,49118,1,2,0:0:0:0:
277,256,49215,1,2,0:0:0:0:
285,260,49312,6,0,L|384:240,1,100,2|2,0:2|0:2,0:0:0:0:
182,183,49699,2,0,L|150:278,1,100,2|2,0:2|0:2,0:0:0:0:
300,132,50086,2,0,L|233:57,1,100,2|2,0:2|0:2,0:0:0:0:
285,260,50473,2,0,L|334:250,1,50,2|0,0:2|0:0,0:0:0:0:
188,221,50667,2,0,L|197:270,1,50,2|0,0:2|0:0,0:0:0:0:
227,124,50860,2,0,L|177:133,1,50,2|0,0:2|2:0,0:0:0:0:
324,163,51054,2,0,L|314:113,1,50,2|0,0:2|2:0,0:0:0:0:
256,192,51247,1,4,0:1:0:0:
256,192,51344,12,2,52796,0:3:0:0:
256,320,53570,5,2,0:0:0:0:
128,256,54344,2,0,B|144:224|144:192|144:192|212:204|256:136|256:136|300:204|368:192|368:192|368:224|384:256,1,400,8|2,0:0|0:3,0:0:0:0:
95,226,56667,6,0,L|145:223,1,50,2|4,0:0|3:0,0:0:0:0:
149,215,57150,1,4,3:0:0:0:
152,208,57441,6,0,P|164:160|128:104,1,112.500004291535,4|0,0:3|0:0,0:0:0:0:
112,88,57828,2,0,P|152:92|184:80,1,75.0000028610231
284,48,58215,2,0,P|344:48|388:108,1,112.500004291535,2|0,0:0|0:0,0:0:0:0:
360,108,58602,2,0,P|348:144|356:180,1,75.0000028610231,0|4,0:0|0:3,0:0:0:0:
368,192,58892,1,4,0:3:0:0:
380,200,58989,5,6,0:3:0:0:
256,360,59280,1,4,0:3:0:0:
132,200,59570,1,4,0:3:0:0:
256,144,59763,2,0,P|260:220|232:264,1,112.500004291535,2|0,0:0|0:0,0:0:0:0:
220,268,60150,2,0,L|236:320,2,37.5000014305115,0|4|4,0:0|0:3|0:3,0:0:0:0:
292,116,60538,2,0,P|320:96|368:96,1,75.0000028610231,4|0,0:3|0:0,0:0:0:0:
416,144,60828,2,0,P|388:164|340:164,1,75.0000028610231,4|0,0:3|0:0,0:0:0:0:
292,116,61118,6,0,L|220:56,1,75.0000028610231,4|2,0:3|0:0,0:0:0:0:
172,198,61505,2,0,L|156:291,1,75.0000028610231,0|0,0:0|0:0,0:0:0:0:
303,261,61892,1,4,0:3:0:0:
339,248,61988,1,4,0:3:0:0:
374,235,62086,6,4,L|416:272,1,37.5000014305115,4|4,0:3|0:3,0:3:0:0:
374,148,62376,2,4,L|416:112,1,37.5000014305115,4|4,0:3|0:3,0:3:0:0:
484,192,62667,1,4,0:3:0:0:
300,192,62860,5,0,1:0:0:0:
288,148,62956,1,0,1:0:0:0:
300,104,63053,1,0,1:0:0:0:
340,68,63150,1,0,1:0:0:0:
396,64,63247,1,0,1:0:0:0:
444,100,63343,1,0,1:0:0:0:
456,160,63440,1,0,1:0:0:0:
432,216,63537,1,0,1:0:0:0:
384,240,63634,6,0,B|328:312|328:312|240:304,1,179.999994506836,6|2,0:0|2:0,0:0:0:0:
168,328,64021,2,0,P|208:280|192:208,1,119.999996337891,8|2,0:0|2:0,0:0:0:0:
136,96,64409,2,0,P|240:128|272:80,1,179.999994506836,0|2,0:0|2:0,0:0:0:0:
200,64,64796,1,8,0:0:0:0:
104,168,64989,1,2,2:0:0:0:
248,192,65183,6,0,L|368:192,1,119.999996337891,6|2,0:0|2:0,0:0:0:0:
424,320,65570,1,8,1:0:0:0:
424,320,65667,1,2,2:0:0:0:
288,272,65860,1,0,2:0:0:0:
288,272,65957,1,2,1:2:0:0:
152,312,66150,1,0,2:0:0:0:
152,312,66247,1,2,2:0:0:0:
152,312,66344,2,0,L|104:168,1,119.999996337891,8|2,0:0|2:0,0:0:0:0:
72,64,66731,5,6,0:0:0:0:
208,112,66925,2,0,P|272:128|328:112,1,119.999996337891,2|8,2:0|0:0,0:0:0:0:
384,72,67215,2,0,P|384:136|416:184,1,119.999996337891,2|0,2:0|2:0,0:0:0:0:
472,224,67505,1,2,0:2:0:0:
352,304,67699,1,0,2:0:0:0:
352,304,67796,1,2,2:0:0:0:
352,304,67892,1,8,0:0:0:0:
224,240,68086,1,2,2:0:0:0:
344,160,68280,6,0,L|280:288,1,119.999996337891,6|2,0:0|2:0,0:0:0:0:
144,280,68667,2,0,L|208:152,1,119.999996337891,8|2,0:0|2:0,0:0:0:0:
312,88,69054,2,0,P|376:88|424:152,1,119.999996337891,6|2,0:0|2:0,0:0:0:0:
415,124,69344,1,2,0:0:0:0:
415,124,69441,1,0,0:0:0:0:
272,152,69634,1,2,0:0:0:0:
144,88,69828,6,0,B|84:88|84:88|40:128,1,119.999996337891,6|2,0:0|2:0,0:0:0:0:
39,128,70118,1,2,2:1:0:0:
39,128,70215,1,8,0:0:0:0:
128,240,70409,1,2,2:1:0:0:
272,256,70602,1,2,0:0:0:0:
272,256,70699,1,2,2:0:0:0:
200,136,70892,1,2,2:1:0:0:
200,136,70989,1,10,1:0:0:0:
72,192,71183,1,2,2:1:0:0:
216,208,71376,6,0,P|264:168|268:112,1,119.999996337891,6|2,0:0|2:0,0:0:0:0:
268,113,71667,1,2,2:1:0:0:
268,113,71763,1,8,0:0:0:0:
128,148,71957,1,2,2:1:0:0:
118,291,72150,1,2,0:0:0:0:
118,291,72247,1,2,2:0:0:0:
253,345,72441,1,2,2:1:0:0:
253,345,72538,1,8,0:0:0:0:
344,233,72731,1,2,2:1:0:0:
208,180,72925,6,0,P|180:128|204:52,1,119.999996337891,6|2,0:0|2:0,0:0:0:0:
328,108,73312,2,0,P|380:80|456:104,1,119.999996337891,8|2,0:0|2:1,0:0:0:0:
400,232,73699,2,0,P|428:284|404:360,1,119.999996337891,2|2,0:0|2:0,0:0:0:0:
280,304,74086,2,0,P|228:332|152:308,1,119.999996337891,8|2,0:0|2:1,0:0:0:0:
68,216,74473,5,6,0:0:0:0:
64,162,74569,1,0,2:1:0:0:
80,111,74666,1,2,2:0:0:0:
114,69,74763,1,2,2:1:0:0:
160,42,74860,1,8,0:0:0:0:
214,35,74956,1,0,2:1:0:0:
266,47,75053,1,2,2:1:0:0:
310,77,75150,1,0,2:1:0:0:
340,122,75247,6,0,P|352:152|348:180,1,59.9999981689454,2|0,0:0|0:0,0:0:0:0:
284,252,75441,2,0,P|272:222|276:194,1,59.9999981689454,0|2,0:0|0:0,0:0:0:0:
356,248,75634,2,0,P|296:324|232:304,1,119.999996337891,8|2,0:0|0:0,0:0:0:0:
281,324,75925,1,0,0:0:0:0:
281,324,76021,5,4,0:0:0:0:
176,224,76215,1,2,2:0:0:0:
224,88,76409,2,0,L|344:56,1,119.999996337891,8|2,0:0|2:0,0:0:0:0:
416,176,76796,2,0,L|296:208,1,119.999996337891,0|2,0:0|2:0,0:0:0:0:
168,144,77183,1,10,1:0:0:0:
144,96,77280,1,2,2:1:0:0:
160,40,77376,1,2,2:1:0:0:
204,12,77473,1,2,2:1:0:0:
260,16,77570,1,6,1:0:0:0:
248,160,77763,6,0,P|272:244|260:272,1,119.999996337891,2|8,2:0|0:0,0:0:0:0:
260,270,78054,1,2,2:0:0:0:
124,308,78247,1,0,2:0:0:0:
124,308,78344,2,0,P|80:248|88:184,1,119.999996337891,2|2,1:2|2:0,0:0:0:0:
188,108,78731,1,10,1:0:0:0:
233,80,78827,1,2,2:1:0:0:
286,88,78924,1,2,2:1:0:0:
322,126,79021,1,2,2:1:0:0:
326,179,79118,6,0,P|308:240|332:288,1,119.999996337891,6|2,0:0|2:0,0:0:0:0:
468,236,79505,1,8,0:0:0:0:
468,236,79602,1,2,2:0:0:0:
388,116,79796,1,0,2:0:0:0:
388,116,79892,1,2,0:2:0:0:
248,160,80086,1,2,2:0:0:0:
388,200,80280,1,10,0:0:0:0:
437,182,80376,1,2,2:1:0:0:
467,137,80473,1,2,2:1:0:0:
464,84,80570,1,2,2:1:0:0:
430,44,80667,6,0,B|356:44|356:44|328:56|328:56|252:56,1,179.999994506836,6|2,0:0|2:0,0:0:0:0:
184,80,81054,2,0,B|112:80|112:80|72:128|96:180,1,179.999994506836,8|2,0:0|2:0,0:0:0:0:
64,252,81441,2,0,P|11:242|-20:210,1,59.9999981689454,2|0,1:0|2:0,0:0:0:0:
124,304,81634,2,0,P|98:350|58:371,1,59.9999981689454,2|2,2:0|2:1,0:0:0:0:
192,264,81828,2,0,P|228:302|235:346,1,59.9999981689454
176,188,82021,2,0,P|224:165|268:172,1,59.9999981689454,2|0,2:1|0:0,0:0:0:0:
268,228,82215,6,0,P|260:160|288:120,1,119.999996337891,6|2,0:0|2:0,0:0:0:0:
287,120,82505,1,2,2:1:0:0:
287,120,82602,1,8,0:0:0:0:
424,68,82796,1,2,2:1:0:0:
340,184,82989,1,2,0:0:0:0:
340,184,83086,1,2,2:0:0:0:
212,120,83280,1,2,2:1:0:0:
212,120,83376,1,8,0:0:0:0:
296,4,83570,1,2,2:1:0:0:
380,120,83763,6,0,P|416:184|360:256,1,119.999996337891,6|2,0:0|2:0,0:0:0:0:
403,224,84054,1,2,2:1:0:0:
403,224,84150,1,8,0:0:0:0:
292,316,84344,1,2,2:1:0:0:
152,272,84538,1,2,0:0:0:0:
152,272,84634,1,2,2:0:0:0:
264,176,84828,1,2,2:1:0:0:
264,176,84925,1,8,0:0:0:0:
216,312,85118,1,2,2:1:0:0:
216,312,85215,1,2,2:1:0:0:
216,312,85312,6,0,P|160:348|100:328,1,119.999996337891,6|2,0:0|2:0,0:0:0:0:
136,152,85699,2,0,P|100:96|120:36,1,119.999996337891,8|2,0:0|2:1,0:0:0:0:
296,72,86086,2,0,P|352:36|412:56,1,119.999996337891,2|2,0:0|2:0,0:0:0:0:
376,232,86473,2,0,P|412:288|392:348,1,119.999996337891,8|2,0:0|2:1,0:0:0:0:
256,336,86860,5,6,1:1:0:0:
202,326,86957,1,0,2:0:0:0:
156,298,87054,1,0,0:0:0:0:
125,254,87150,1,2,2:1:0:0:
118,201,87247,1,0,0:0:0:0:
135,150,87344,1,0,0:0:0:0:
171,111,87441,1,2,0:1:0:0:
221,92,87538,1,0,0:0:0:0:
273,101,87634,1,2,0:1:0:0:
313,137,87731,1,0,0:0:0:0:
329,188,87828,1,0,2:0:0:0:
312,238,87925,1,2,0:1:0:0:
266,263,88021,1,0,0:0:0:0:
214,252,88118,1,0,0:0:0:0:
189,207,88215,1,2,0:0:0:0:
220,166,88312,1,0,2:0:0:0:
256,192,88408,1,4,1:0:0:0:
256,192,88505,12,2,91505,2:3:0:0:
112,16,91699,5,2,0:0:0:0:
244,64,91892,2,0,L|240:164,1,100,8|2,1:0|0:0,0:0:0:0:
340,264,92280,2,0,L|440:268,1,100,0|2,1:0|0:0,0:0:0:0:
428,128,92667,2,0,L|328:124,1,100,8|2,1:0|0:0,0:0:0:0:
196,84,93054,1,0,1:0:0:0:
104,188,93247,1,2,0:0:0:0:
212,276,93441,2,0,P|208:184|164:148,1,150,8|0,1:0|1:0,0:0:0:0:
96,112,93828,2,0,B|42:115|15:61,2,100,0|0|0,1:0|1:0|1:0,0:0:0:0:
96,112,94312,1,0,1:0:0:0:
96,112,94409,1,0,1:0:0:0:
220,48,94602,5,4,1:0:0:0:
220,48,94699,2,0,B|244:0|304:4,1,100,0|2,0:0|0:3,0:0:0:0:
368,128,95086,2,0,B|344:176|284:172,1,100
285,172,95376,1,2,0:3:0:0:
232,300,95570,1,0,0:0:0:0:
196,164,95763,1,2,0:3:0:0:
304,252,95957,1,0,0:0:0:0:
164,244,96150,5,0,0:0:0:0:
164,244,96247,2,0,B|112:268|72:224,1,100,2|0,0:3|0:2,0:0:0:0:
168,328,96634,2,0,B|220:304|260:348,1,100,2|0,1:3|0:0,0:0:0:0:
258,346,96925,1,2,0:3:0:0:
396,328,97118,1,0,0:0:0:0:
468,208,97312,1,2,0:3:0:0:
424,76,97505,1,0,0:0:0:0:
296,20,97699,5,4,0:0:0:0:
296,20,97796,2,0,B|332:60|316:112,1,100,0|2,0:0|0:3,0:0:0:0:
244,224,98183,2,0,B|208:184|224:132,1,100
224,132,98473,2,0,B|276:148|316:112,1,100,2|0,0:3|0:0,0:0:0:0:
448,160,98860,2,0,B|395:143|355:179,1,100,2|0,0:3|0:0,0:0:0:0:
432,296,99247,5,0,0:0:0:0:
432,296,99344,2,0,B|380:312|339:275,1,100,2|0,0:3|0:2,0:0:0:0:
208,324,99731,2,0,B|261:307|301:343,1,100,2|0,0:3|0:0,0:0:0:0:
301,343,100021,1,2,0:3:0:0:
308,204,100215,1,4,0:3:0:0:
176,252,100409,1,10,0:3:0:0:
188,112,100602,1,4,0:3:0:0:
324,72,100796,5,4,0:0:0:0:
324,72,100892,2,4,B|360:64|360:64|376:92|412:96,1,100,4|4,0:3|0:3,0:3:0:0:
476,220,101280,2,4,B|440:228|440:228|424:200|388:196,1,100,4|4,0:3|0:3,0:0:0:0:
388,196,101570,1,4,0:3:0:0:
264,256,101763,1,4,0:3:0:0:
344,140,101957,1,4,0:3:0:0:
216,196,102150,1,4,0:3:0:0:
296,84,102344,5,4,0:0:0:0:
296,84,102441,2,4,B|272:84|272:84|232:108|232:108|200:108,1,100,4|4,0:3|0:3,0:0:0:0:
67,140,102828,2,4,B|91:140|91:140|131:164|131:164|163:164,1,100,4|4,0:3|0:3,0:0:0:0:
160,164,103118,1,4,0:3:0:0:
240,276,103312,1,4,0:3:0:0:
100,292,103505,1,4,0:3:0:0:
160,164,103699,1,4,0:3:0:0:
304,144,103892,5,4,0:0:0:0:
304,144,103989,2,4,P|372:128|424:156,1,119.999996337891,4|2,0:3|0:1,0:0:0:0:
416,260,104376,2,4,P|348:276|296:248,1,119.999996337891,4|4,3:3|3:0,0:0:0:0:
304,255,104667,1,2,0:1:0:0:
148,204,104860,1,4,0:3:0:0:
304,144,105054,1,2,0:1:0:0:
464,200,105247,1,4,0:3:0:0:
304,256,105441,5,4,0:0:0:0:
304,255,105538,2,4,B|184:280,1,120.000002861023,2|4,0:1|0:3,0:0:0:0:
28,228,105925,2,4,B|148:203,1,120.000002861023,2|4,0:1|0:3,0:3:0:0:
156,212,106215,1,6,0:0:0:0:
263,37,106409,1,0,2:3:0:0:
451,117,106602,1,6,0:0:0:0:
344,288,106796,1,0,2:0:0:0:
304,176,106989,5,2,0:0:0:0:
256,192,107376,12,0,110086,2:0:0:0:
