osu file format v12

[General]
AudioFilename: Mr. Saturn - Saturn.mp3
AudioLeadIn: 0
PreviewTime: 32104
Countdown: 0
SampleSet: Soft
StackLeniency: 0.7
Mode: 0
LetterboxInBreaks: 1
WidescreenStoryboard: 0

[Editor]
DistanceSpacing: 1
BeatDivisor: 4
GridSize: 4

[Metadata]
Title:Saturn
TitleUnicode:Saturn
Artist:Mr. Saturn
ArtistUnicode:Mr. Saturn
Creator:Saturnalize
Version:Beginner
Source:Dance Dance Revolution SuperNOVA 2
Tags:urs4chan ursa Yasora-chan Yasora Pop'n'Music Planet wac Jun Wakita beatmaniaIIDX 15 DJ TROOPERS CS Progressive Tribal GRAND CROSS Series IIDX20 tricoro trival
BeatmapID:146739
BeatmapSetID:39797

[Difficulty]
HPDrainRate:1
CircleSize:3
OverallDifficulty:1
ApproachRate:2
SliderMultiplier:0.8
SliderTickRate:2

[Events]
//Background and Video events
0,0,"BG.jpg",0,0
//Break Periods
2,51447,58978
//Storyboard Layer 0 (Background)
//Storyboard Layer 1 (Fail)
//Storyboard Layer 2 (Pass)
//Storyboard Layer 3 (Foreground)
//Storyboard Sound Samples
//Background Colour Transformations
3,100,128,128,255

[TimingPoints]
151,387.096774193548,4,2,0,75,1,0
14086,-100,4,2,0,75,0,0
20280,-100,4,1,3,70,0,0
20667,-100,4,1,1,60,0,0
20860,-100,4,1,3,70,0,0
22215,-100,4,1,1,60,0,0
22409,-100,4,1,3,70,0,0
22989,-100,4,1,1,60,0,0
23183,-100,4,1,3,70,0,0
26473,-100,4,1,3,70,0,1
26522,-100,4,1,1,60,0,0
26667,-100,4,1,3,70,0,0
26860,-100,4,1,1,60,0,0
27054,-100,4,1,3,70,0,0
29957,-100,4,1,1,60,0,0
30150,-100,4,1,3,70,0,0
30731,-100,4,1,1,60,0,0
30925,-100,4,1,3,70,0,0
32086,-100,4,1,1,60,0,0
32280,-100,4,1,3,70,0,0
33054,-100,4,1,1,60,0,0
33247,-100,4,1,3,70,0,0
34602,-100,4,1,1,60,0,0
34796,-100,4,1,3,70,0,0
39054,-100,4,2,0,70,0,0
45054,-100,4,1,3,60,0,0
51247,-100,4,2,0,70,0,0
63634,-100,4,1,3,70,0,1
64021,-100,4,1,1,60,0,1
64215,-100,4,1,3,70,0,1
67118,-100,4,1,1,60,0,1
67312,-100,4,1,3,70,0,1
70215,-100,4,1,1,60,0,1
70409,-100,4,1,3,70,0,1
75828,-100,4,1,2,60,0,0
76021,-100,4,1,3,60,0,1
79505,-100,4,1,1,60,0,1
79699,-100,4,1,3,70,0,1
82602,-100,4,1,1,60,0,1
82796,-100,4,1,3,70,0,1
87634,-100,4,1,3,70,0,1
88409,-100,4,1,3,70,0,0
106989,-100,4,2,0,30,0,0
107376,-100,4,2,0,5,0,0

[Colours]
Combo1 : 135,135,67
Combo2 : 130,130,130

[HitObjects]
112,176,14086,2,0,B|112:80|208:64,1,160,4|8,0:0|0:0,0:0:0:0:
256,128,15247,1,2,0:0:0:0:
307,64,15634,2,0,B|400:80|400:176,2,160,0|8|0,0:0|0:0|0:0,0:0:0:0:
256,128,17570,1,2,0:0:0:0:
208,192,17957,1,8,0:0:0:0:
304,304,18731,5,0,0:0:0:0:
352,240,19118,1,2,0:0:0:0:
400,176,19505,2,0,B|448:96,1,80,8|8,0:0|0:0,0:0:0:0:
368,64,20280,6,0,B|272:208,1,160,4|0,0:0|0:0,0:0:0:0:
200,172,21441,1,8,0:0:0:0:
120,144,21828,2,0,B|24:288,2,160,0|0|0,0:0|0:0|0:0,0:0:0:0:
168,80,23763,1,8,0:0:0:0:
244,108,24150,1,0,0:0:0:0:
276,312,24925,5,0,0:0:0:0:
352,340,25312,1,8,0:0:0:0:
392,272,25699,2,0,B|416:192,1,80
472,140,26473,6,0,B|428:100|372:128|372:128|320:120,1,160,4|0,0:0|0:0,0:0:0:0:
256,264,28021,2,0,B|256:344,2,80,0|8|0,0:0|0:0|0:0,0:0:0:0:
192,120,29570,2,0,B|140:128|140:128|84:100|40:140,2,160,0|0|0,0:0|0:0|0:0,0:0:0:0:
192,200,31505,2,0,B|288:184,2,80,8|0|0,0:0|0:0|0:0,0:0:0:0:
112,208,32667,6,0,B|120:272|187:283|187:283|232:276,1,160,4|0,0:0|0:0,0:0:0:0:
307,251,33828,1,8,0:0:0:0:
385,234,34215,2,0,P|349:319|289:328,1,160
216,300,35376,1,8,0:0:0:0:
148,256,35763,5,0,0:0:0:0:
256,136,36538,1,0,0:0:0:0:
364,256,37312,2,0,B|404:272|444:256,2,80
288,228,38473,1,0,0:0:0:0:
236,168,38860,1,4,0:0:0:0:
236,88,39247,5,2,0:0:0:0:
388,132,40021,1,2,0:0:0:0:
344,284,40796,1,2,0:0:0:0:
192,240,41570,1,2,0:0:0:0:
188,160,41957,5,0,1:0:0:0:
136,100,42344,1,2,0:0:0:0:
24,216,43118,1,2,0:0:0:0:
140,328,43892,1,2,0:0:0:0:
252,212,44666,5,2,0:0:0:0:
324,176,45054,1,0,0:0:0:0:
396,212,45441,1,2,2:0:0:0:
252,212,46215,5,2,2:0:0:0:
247,292,46603,1,0,0:0:0:0:
179,336,46990,1,2,2:0:0:0:
252,212,47763,5,2,2:0:0:0:
185,167,48151,1,0,0:0:0:0:
181,86,48538,1,2,2:0:0:0:
252,212,49312,5,2,2:0:0:0:
322,174,49699,1,0,0:0:0:0:
388,219,50086,1,0,0:0:0:0:
384,300,50473,5,0,0:0:0:0:
311,335,50860,1,0,0:0:0:0:
245,290,51247,1,4,0:0:0:0:
256,192,60538,12,2,62860,0:0:0:0:
8,132,63634,6,0,B|44:148|44:148|116:156|156:108,1,160,6|0,0:0|0:0,0:0:0:0:
203,48,64796,1,8,0:0:0:0:
271,89,65183,2,0,B|351:133,2,80,2|8|0,0:0|0:0|0:2,0:0:0:0:
200,128,66344,1,8,0:0:0:0:
180,204,66731,6,2,P|224:264|320:280,1,160
384,296,67892,1,8,0:0:0:0:
416,222,68280,2,2,B|456:150,1,80,2|8,0:0|0:0,0:0:0:0:
376,136,69054,2,2,B|384:56,1,80,2|0,0:0|0:0,0:0:0:0:
304,80,69828,6,0,B|296:152|296:152|208:192,1,160,6|2,0:0|0:0,0:2:0:0:
191,266,70989,1,8,0:0:0:0:
136,208,71376,2,0,B|56:184,2,80,2|8|2,0:0|0:0|0:0,0:0:0:0:
212,189,72538,1,8,0:0:0:0:
272,248,72925,6,0,B|352:272,1,80,2|8,0:0|0:0,0:0:0:0:
356,191,73699,2,0,B|436:191,1,80,2|8,0:0|0:0,0:0:0:0:
408,112,74473,2,0,B|480:80,2,80,2|0|2,0:0|0:0|0:0,0:0:0:0:
328,112,75634,2,0,B|256:144,1,80,0|4,1:0|0:2,0:0:0:0:
184,176,76409,5,8,0:0:0:0:
248,224,76796,1,0,0:0:0:0:
254,144,77183,1,10,0:0:0:0:
260,64,77570,5,2,0:0:0:0:
196,20,77957,1,8,0:0:0:0:
116,8,78344,1,0,0:0:0:0:
48,48,78731,1,10,0:0:0:0:
36,128,79118,6,0,B|48:152|75:168|75:168|75:272,1,160,2|0,0:0|0:0,0:0:0:0:
128,328,80280,1,10,0:0:0:0:
164,258,80667,2,0,B|244:258,1,80,2|8,0:0|0:0,0:0:0:0:
272,184,81441,2,0,B|352:184,1,80,2|8,0:0|0:0,0:0:0:0:
386,256,82215,6,0,B|437:232|438:180|427:151|427:151|458:115,1,160,6|2,0:0|0:0,0:0:0:0:
426,47,83376,1,8,0:0:0:0:
348,68,83763,2,0,B|308:80|268:68,1,80,2|8,0:0|0:0,0:0:0:0:
192,52,84538,2,0,B|148:40|113:51,2,80,2|8|2,0:0|0:0|0:0,0:0:0:0:
212,128,85699,2,0,B|196:164|212:208,2,80,8|2|8,0:0|0:0|0:0,0:0:0:0:
268,68,86860,5,2,0:0:0:0:
348,52,87247,1,4,0:3:0:0:
428,68,87634,2,2,P|456:144|432:224,1,160,2|4,0:0|0:0,0:0:0:0:
256,192,88796,12,2,90731,2:0:0:0:
12,56,91505,5,0,0:0:0:0:
69,110,91892,1,8,0:0:0:0:
96,184,92279,1,0,0:0:0:0:
86,263,92666,1,8,0:0:0:0:
162,235,93054,6,0,P|201:227|240:235,1,80,0|8,0:0|0:0,0:0:0:0:
298,291,93828,2,0,P|338:299|378:291,1,80
446,252,94602,5,4,0:0:0:0:
362,115,95376,1,0,0:0:0:0:
274,243,96150,1,0,0:0:0:0:
210,291,96538,1,8,0:0:0:0:
130,283,96925,2,0,L|106:327,2,40,0|0|8,0:0|0:0|0:0,0:0:0:0:
74,227,97699,5,4,0:0:0:0:
34,75,98473,1,0,0:0:0:0:
186,115,99247,1,0,0:0:0:0:
266,131,99634,1,8,0:0:0:0:
314,195,100021,2,0,L|346:171,2,40,0|0|8,0:0|0:0|0:0,0:0:0:0:
298,275,100796,6,0,P|210:355|74:331,1,240,4|4,0:0|3:0,0:0:0:0:
66,267,102344,2,4,P|154:187|290:211,1,240,4|0,3:3|0:0,0:3:0:0:
338,235,103892,5,4,0:0:0:0:
482,171,104667,1,4,0:3:0:0:
354,75,105441,5,4,0:3:0:0:
280,107,105828,1,4,0:3:0:0:
208,140,106215,1,4,0:3:0:0:
264,196,106602,1,4,0:3:0:0:
332,236,106989,1,2,0:0:0:0:
256,192,107376,12,0,110086,0:0:0:0:
